osu file format v14

[General]
AudioFilename: New Gravity.mp3
AudioLeadIn: 0
PreviewTime: -1
Countdown: 0
SampleSet: Normal
StackLeniency: 0.7
Mode: 0
LetterboxInBreaks: 1
WidescreenStoryboard: 0

[Editor]
DistanceSpacing: 1.1
BeatDivisor: 4
GridSize: 4
TimelineZoom: 2.4

[Metadata]
Title:New Gravity
TitleUnicode:New Gravity
Artist:Starving Trancer
ArtistUnicode:Starving Trancer
Creator:Rifdi
Version:Insane
Source:
Tags:New Gravity Starving Trancer
BeatmapID:787925
BeatmapSetID:358330

[Difficulty]
HPDrainRate:6
CircleSize:4
OverallDifficulty:7
ApproachRate:9
SliderMultiplier:1.4
SliderTickRate:1

[Events]
//Background and Video events
0,0,"sky_clouds-wallpaper-1280x720.jpg",0,0
//Break Periods
//Storyboard Layer 0 (Background)
//Storyboard Layer 1 (Fail)
//Storyboard Layer 2 (Pass)
//Storyboard Layer 3 (Foreground)
//Storyboard Sound Samples

[TimingPoints]
586,389.61038961039,4,1,0,30,1,0
6235,-80,4,1,0,30,0,0
14611,-80,4,1,0,50,0,0
15780,-80,4,1,0,40,0,0
28832,-125,4,1,0,40,0,0
36430,-105.263157894737,4,1,0,40,0,0
37501,-95.2380952380952,4,1,0,40,0,0
37793,-90.9090909090909,4,1,0,40,0,0
37988,-83.3333333333333,4,1,0,40,0,0
39547,-80,4,1,0,40,0,0
55131,-80,4,1,0,45,0,1
61365,-71.4285714285714,4,1,0,45,0,1
61754,-80,4,1,0,45,0,1
64482,-80,4,1,0,45,0,0
82014,-80,4,1,0,45,0,1
86300,-66.6666666666667,4,1,0,45,0,1
87858,-74.0740740740741,4,1,0,45,0,1
94092,-100,4,1,0,20,0,0

[HitObjects]
400,136,586,6,0,P|376:100|336:92,1,70
203,52,975,1,0,0:0:0:0:
203,52,1170,2,0,P|176:97|205:189,1,140
264,120,1754,2,0,P|308:96|347:94,1,70
296,276,2144,1,0,0:0:0:0:
328,184,2339,1,0,0:0:0:0:
222,245,2534,1,0,0:0:0:0:
328,184,2728,2,0,B|382:187|400:226|400:226|451:237,1,140
440,348,3313,2,0,P|388:340|372:324,1,70
164,176,3702,5,0,0:0:0:0:
248,280,3897,1,0,0:0:0:0:
248,140,4092,1,0,0:0:0:0:
388,192,4287,2,0,P|396:144|388:100,1,70
254,71,4676,2,0,P|246:119|254:163,1,70
244,296,5066,2,0,P|172:264|168:212,1,105
164,208,5456,2,0,P|168:156|176:136,1,70
260,36,5845,6,0,L|320:84,1,70
260,64,6235,2,0,L|313:144,1,87.5
356,292,6624,1,0,0:0:0:0:
237,187,6819,2,0,L|321:126,1,87.5
356,292,7209,1,0,0:0:0:0:
396,140,7404,2,0,P|384:188|352:212,1,87.5
156,210,7793,2,0,P|124:182|116:140,1,87.5
256,56,8183,5,0,0:0:0:0:
204,136,8378,2,0,L|252:212,2,87.5
256,56,8962,2,0,P|316:36|356:48,1,87.5
472,120,9352,1,0,0:0:0:0:
427,184,9547,1,0,0:0:0:0:
472,248,9741,1,0,0:0:0:0:
378,310,9936,2,0,B|324:310|307:273|284:245|307:199|329:188|344:168|344:168|255:159,1,262.5
235,171,10618,2,0,P|226:197|224:230,1,43.75
376,240,10910,2,0,B|388:219|412:212|419:176|415:137,1,87.5
348,36,11300,6,0,P|291:46|256:66,1,87.5
164,131,11689,2,0,P|221:141|256:161,1,87.5
376,240,12079,1,0,0:3:0:0:
204,232,12274,2,0,L|176:320,2,87.5
256,64,12858,1,0,0:0:0:0:
256,64,13053,6,0,L|232:128,3,43.75
352,60,13443,2,0,L|376:124,3,43.75
404,188,13832,1,0,0:0:0:0:
365,223,13929,1,0,0:0:0:0:
316,242,14026,1,0,0:0:0:0:
264,243,14124,1,0,0:0:0:0:
212,256,14222,1,0,0:0:0:0:
212,273,14319,1,0,0:0:0:0:
212,291,14416,1,0,0:0:0:0:
212,308,14514,1,0,0:0:0:0:
212,324,14611,5,0,0:0:0:0:
165,356,14708,1,0,0:0:0:0:
110,365,14805,1,0,0:0:0:0:
55,350,14903,1,0,0:0:0:0:
13,313,15000,1,0,0:0:0:0:
0,261,15098,1,0,0:0:0:0:
0,205,15195,1,0,0:0:0:0:
19,155,15292,1,0,0:0:0:0:
68,124,15391,2,0,L|120:104,1,43.75
172,168,15586,2,0,L|224:188,1,43.75
332,268,15780,5,0,0:0:0:0:
377,234,15877,1,0,0:0:0:0:
409,187,15974,1,0,0:0:0:0:
423,133,16072,1,0,0:0:0:0:
412,68,16170,2,0,P|329:47|309:67,1,87.5
164,192,16560,5,0,0:0:0:0:
164,192,16657,1,0,0:0:0:0:
164,192,16754,2,0,L|240:140,1,87.5
440,156,17144,1,0,0:0:0:0:
368,276,17339,1,0,0:0:0:0:
232,244,17534,1,0,0:0:0:0:
256,84,17728,2,0,P|308:68|348:72,1,87.5
472,104,18118,1,0,0:0:0:0:
328,180,18313,2,0,L|244:232,1,87.5
120,316,18702,5,0,0:0:0:0:
120,136,18897,1,0,0:0:0:0:
112,120,18995,1,0,0:0:0:0:
120,104,19092,1,0,0:0:0:0:
112,92,19189,1,0,0:0:0:0:
120,80,19287,2,0,P|188:60|208:60,1,87.5
420,128,19676,2,0,L|381:178,1,43.75
387,208,19871,2,0,P|334:223|298:205,1,87.5
125,176,20261,2,0,P|177:160|213:178,1,87.5
256,308,20650,5,0,0:0:0:0:
256,308,20845,2,0,L|256:368,1,43.75
256,156,21040,2,0,L|256:96,1,43.75
216,301,21235,2,0,L|195:357,1,43.75,0|0,3:0|3:0,3:0:0:0:
268,158,21430,2,0,L|288:101,1,43.75,0|0,3:0|3:0,3:0:0:0:
181,280,21624,2,0,L|142:326,1,43.75,0|0,3:0|3:0,3:0:0:0:
279,164,21819,2,0,L|317:118,1,43.75,0|0,3:0|3:0,3:0:0:0:
448,28,22014,2,0,L|409:73,1,43.75,0|0,3:0|3:0,3:0:0:0:
340,216,22209,2,0,L|378:170,1,43.75,0|0,3:0|3:0,3:0:0:0:
480,48,22404,5,0,0:0:0:0:
292,48,22598,1,0,0:0:0:0:
176,136,22793,1,0,0:0:0:0:
176,136,22891,1,0,0:0:0:0:
176,136,22988,2,0,L|208:232,1,87.5
336,276,23378,2,0,P|344:220|336:164,1,87.5
292,20,23767,2,0,L|256:80,1,43.75
202,72,23962,2,0,P|226:112|300:118,1,87.5
319,124,24254,1,0,0:0:0:0:
376,124,24352,2,0,P|417:145|428:218,1,87.5
434,180,24644,1,0,0:0:0:0:
434,180,24741,1,0,0:0:0:0:
308,284,24936,5,0,0:0:0:0:
268,264,25034,1,0,0:0:0:0:
224,272,25131,1,0,0:0:0:0:
184,292,25228,1,0,0:0:0:0:
140,300,25326,2,0,L|124:252,1,43.75
100,112,25521,2,0,L|132:156,3,43.75
240,52,25910,2,0,L|208:96,3,43.75
440,212,26300,2,0,L|440:152,1,43.75
336,104,26495,2,0,L|336:44,1,43.75
336,256,26689,2,0,L|336:196,1,43.75
232,148,26884,2,0,L|232:88,1,43.75
117,46,27079,5,0,0:0:0:0:
80,204,27274,1,0,0:0:0:0:
232,148,27469,1,0,0:0:0:0:
117,46,27663,1,0,0:0:0:0:
80,204,27858,1,0,0:0:0:0:
94,213,27955,1,0,0:0:0:0:
109,222,28052,1,0,0:0:0:0:
124,232,28150,1,0,0:0:0:0:
139,241,28247,1,0,0:0:0:0:
193,223,28345,1,0,0:0:0:0:
249,228,28443,1,0,0:0:0:0:
295,260,28540,1,0,0:0:0:0:
335,299,28637,1,0,0:0:0:0:
397,73,28832,6,0,L|341:101,1,56
196,108,29222,2,0,L|252:136,1,56
384,224,29611,2,0,L|436:244,2,56
188,264,30196,1,0,0:0:0:0:
292,220,30391,1,0,0:0:0:0:
266,329,30586,1,0,0:0:0:0:
227,197,30780,1,0,0:0:0:0:
298,283,30975,1,0,0:0:0:0:
228,200,31170,1,0,0:0:0:0:
345,272,31365,1,0,0:0:0:0:
228,200,31560,1,0,0:0:0:0:
85,100,31754,6,0,L|122:165,1,56
115,289,32144,2,0,L|152:224,1,56
223,84,32534,2,0,P|253:79|290:84,2,56
83,172,33118,1,0,0:0:0:0:
276,192,33313,2,0,L|332:192,1,56
192,268,33702,2,0,L|136:268,1,56
292,344,34092,2,0,P|352:324|384:296,1,84
396,280,34482,1,0,0:0:0:0:
396,104,34676,1,0,0:0:0:0:
184,112,34871,6,0,P|144:112|120:116,2,56
256,192,35456,1,0,0:0:0:0:
328,112,35650,2,0,P|368:112|392:116,2,56
256,272,36235,1,0,0:0:0:0:
220,96,36430,2,0,B|216:52|216:52|212:40|200:28,2,66.4999982242585
256,268,37014,1,0,0:0:0:0:
292,96,37209,2,0,B|296:52|296:52|300:40|312:28,1,66.4999982242585
356,32,37501,2,0,B|404:32|404:32|440:68,1,73.4999977569581
448,100,37793,1,0,0:0:0:0:
424,224,37988,2,0,B|376:256|336:240|336:240|272:276|252:248,1,167.999994873047
52,220,38573,5,0,0:0:0:0:
77,186,38670,1,0,0:0:0:0:
113,166,38767,1,0,0:0:0:0:
188,208,38962,5,0,0:0:0:0:
213,174,39059,1,0,0:0:0:0:
249,154,39156,1,0,0:0:0:0:
404,72,39352,1,0,0:0:0:0:
382,108,39449,1,0,0:0:0:0:
360,144,39547,2,0,L|368:204,3,43.75
300,232,39936,2,0,L|292:291,3,43.75
192,332,40326,5,0,0:0:0:0:
133,348,40423,1,0,0:0:0:0:
76,328,40520,1,0,0:0:0:0:
40,280,40618,1,0,0:0:0:0:
38,219,40715,1,0,0:0:0:0:
76,172,40813,5,0,0:0:0:0:
92,160,40910,1,0,0:0:0:0:
92,144,41008,1,0,0:0:0:0:
76,136,41105,1,0,0:0:0:0:
256,60,41300,1,0,0:0:0:0:
294,161,41495,1,0,0:0:0:0:
330,137,41592,1,0,0:0:0:0:
355,101,41689,1,0,0:0:0:0:
363,59,41787,1,0,0:0:0:0:
353,16,41884,1,0,0:0:0:0:
179,169,42079,5,0,0:0:0:0:
81,125,42274,1,0,0:0:0:0:
71,168,42371,1,0,0:0:0:0:
79,210,42469,1,0,0:0:0:0:
104,246,42566,1,0,0:0:0:0:
141,270,42663,2,0,L|181:315,3,43.75
243,249,43053,2,0,L|283:294,3,43.75
300,132,43443,2,0,L|322:190,1,43.75
379,142,43637,2,0,L|401:200,1,43.75
272,281,43832,2,0,L|294:339,1,43.75
429,297,44026,2,0,L|451:355,1,43.75
379,142,44222,5,0,0:0:0:0:
370,99,44319,1,0,0:0:0:0:
344,65,44416,1,0,0:0:0:0:
304,47,44514,1,0,0:0:0:0:
261,50,44611,1,0,0:0:0:0:
312,228,44806,1,0,0:0:0:0:
260,48,45001,1,0,0:0:0:0:
220,30,45098,1,0,0:0:0:0:
177,33,45195,1,0,0:0:0:0:
142,58,45293,1,0,0:0:0:0:
123,97,45390,1,0,0:0:0:0:
312,228,45586,5,0,0:0:0:0:
312,228,45683,1,0,0:0:0:0:
312,228,45780,2,0,L|284:268,3,43.75
208,224,46170,2,0,L|180:264,3,43.75
268,124,46560,2,0,L|304:176,1,43.75
184,124,46754,2,0,L|148:176,1,43.75
332,124,46949,2,0,L|368:176,1,43.75
120,124,47143,2,0,L|84:176,1,43.75
32,272,47339,5,0,0:0:0:0:
75,278,47436,1,0,0:0:0:0:
118,284,47533,1,0,0:0:0:0:
161,290,47631,1,0,0:0:0:0:
205,296,47728,2,0,L|252:336,3,43.75
280,308,48118,5,0,0:0:0:0:
300,269,48215,1,0,0:0:0:0:
321,230,48312,1,0,0:0:0:0:
341,192,48410,1,0,0:0:0:0:
362,153,48507,2,0,L|414:122,3,43.75
296,84,48897,2,0,L|320:36,1,43.75
208,84,49092,2,0,L|232:36,1,43.75
208,188,49287,2,0,L|227:227,1,43.75
296,188,49482,2,0,L|315:227,1,43.75
176,84,49676,5,0,0:0:0:0:
132,86,49773,1,0,0:0:0:0:
96,109,49870,1,0,0:0:0:0:
75,147,49968,1,0,0:0:0:0:
76,190,50065,1,0,0:0:0:0:
98,227,50163,1,0,0:0:0:0:
136,249,50261,2,0,L|188:272,1,43.75
220,276,50456,5,0,0:0:0:0:
344,124,50650,1,0,0:0:0:0:
256,296,50845,1,0,0:0:0:0:
380,144,51039,1,0,0:0:0:0:
292,316,51235,2,0,P|328:288|344:264,1,43.75
416,164,51430,2,0,P|380:192|364:216,1,43.75
256,296,51624,2,0,P|292:268|308:244,1,43.75
380,144,51819,2,0,P|344:172|328:196,1,43.75
192,240,52014,2,0,L|136:276,3,43.75
228,132,52404,2,0,L|284:96,3,43.75
112,256,52793,5,0,0:0:0:0:
80,209,52890,1,0,0:0:0:0:
72,153,52987,1,0,0:0:0:0:
91,100,53085,1,0,0:0:0:0:
131,61,53182,1,0,0:0:0:0:
184,96,53280,1,0,0:0:0:0:
239,123,53377,1,0,0:0:0:0:
301,119,53475,1,0,0:0:0:0:
357,95,53573,2,0,P|285:59|240:129,1,175
239,123,54157,1,0,0:0:0:0:
188,240,54352,5,0,0:0:0:0:
227,258,54449,1,0,0:0:0:0:
270,267,54547,2,0,L|284:304,4,21.875
424,136,55131,5,0,0:0:0:0:
400,332,55326,1,0,0:0:0:0:
344,152,55521,1,0,0:0:0:0:
325,112,55618,1,0,0:0:0:0:
307,72,55715,1,0,0:0:0:0:
172,64,55910,1,0,0:0:0:0:
84,192,56105,1,0,0:0:0:0:
296,236,56300,1,0,0:0:0:0:
277,196,56397,1,0,0:0:0:0:
259,156,56494,1,0,0:0:0:0:
116,96,56689,5,0,0:0:0:0:
196,200,56884,1,0,0:0:0:0:
104,292,57079,1,0,0:0:0:0:
220,356,57274,1,0,0:0:0:0:
360,208,57469,2,0,L|360:268,1,43.75
294,156,57663,2,0,L|294:96,1,43.75
360,76,57858,2,0,P|404:104|420:152,1,87.5
404,176,58150,1,0,0:0:0:0:
360,208,58248,2,0,P|312:185|291:139,1,87.5
120,84,58637,5,0,0:0:0:0:
120,84,58735,1,0,0:0:0:0:
120,84,58832,2,0,L|104:196,1,87.5
192,292,59222,2,0,L|204:205,1,87.5
296,96,59611,1,0,0:0:0:0:
120,84,59806,6,0,L|124:164,1,43.75
192,292,60001,2,0,L|188:212,1,43.75
120,84,60196,6,0,L|137:162,1,43.75
227,276,60391,2,0,L|209:197,1,43.75
120,84,60586,6,0,L|157:154,1,43.75
273,241,60781,2,0,L|235:170,1,43.75
88,28,60975,1,0,0:0:0:0:
35,66,61072,1,0,0:0:0:0:
7,124,61169,1,0,0:0:0:0:
9,189,61267,1,0,0:0:0:0:
42,245,61365,2,0,P|88:256|148:220,1,87.5
192,84,61754,6,0,L|144:100,1,43.75
104,140,61949,2,0,P|143:166|211:154,1,87.5
428,144,62339,1,0,0:0:0:0:
344,308,62534,1,0,0:0:0:0:
296,120,62728,1,0,0:0:0:0:
440,256,62923,2,0,P|484:296|504:332,1,87.5
292,232,63313,2,0,P|248:192|228:156,1,87.5
96,36,63702,2,0,L|76:76,1,43.75
68,200,63897,2,0,L|88:160,1,43.75
164,48,64092,1,0,0:0:0:0:
168,216,64287,5,0,0:0:0:0:
165,259,64384,1,0,0:0:0:0:
181,299,64482,2,0,L|152:344,3,43.75
256,192,64871,2,0,L|285:236,3,43.75
184,96,65261,2,0,L|154:51,3,43.75
148,240,65650,2,0,L|118:284,3,43.75
232,312,66040,2,0,P|296:336|380:328,2,131.25
112,204,66819,5,0,0:0:0:0:
144,60,67014,1,0,0:0:0:0:
232,192,67209,1,0,0:0:0:0:
96,184,67404,1,0,0:0:0:0:
128,40,67599,1,0,0:0:0:0:
256,192,67793,12,0,68962,0:0:0:0:
316,124,69157,5,0,0:0:0:0:
328,112,69254,1,0,0:0:0:0:
192,188,69449,5,0,0:0:0:0:
204,176,69546,1,0,0:0:0:0:
200,336,69741,2,0,L|268:308,1,43.75
348,208,69936,5,0,0:0:0:0:
348,192,70034,1,0,0:0:0:0:
432,68,70228,5,0,0:0:0:0:
432,52,70326,1,0,0:0:0:0:
292,88,70521,2,0,L|232:104,1,43.75
172,160,70715,5,0,0:0:0:0:
172,160,70812,1,0,0:0:0:0:
344,248,71008,5,0,0:0:0:0:
344,248,71105,1,0,0:0:0:0:
380,96,71300,2,0,L|340:56,1,43.75
196,100,71495,2,0,L|156:56,1,43.75
200,248,71787,2,0,L|176:292,1,43.75
472,116,72079,5,0,0:0:0:0:
472,116,72176,1,0,0:0:0:0:
472,116,72274,2,0,L|440:80,1,43.75
256,80,72566,2,0,L|256:140,1,43.75
40,116,72858,1,0,0:0:0:0:
40,116,72955,1,0,0:0:0:0:
40,116,73053,2,0,L|72:80,1,43.75
256,80,73345,2,0,L|256:140,1,43.75
256,360,73637,5,0,0:0:0:0:
256,360,73735,1,0,0:0:0:0:
256,360,73832,2,0,L|256:300,1,43.75
256,80,74124,2,0,L|256:140,1,43.75
96,232,74417,2,0,L|80:276,1,43.75
164,256,74611,2,0,L|148:300,1,43.75
428,216,74904,2,0,L|388:168,1,43.75
244,180,75196,6,0,L|260:220,1,43.75
340,288,75391,1,0,0:0:0:0:
172,44,75683,1,0,0:0:0:0:
24,224,75975,2,0,L|62:242,1,43.75
167,237,76170,1,0,0:0:0:0:
396,156,76462,5,0,0:0:0:0:
132,332,76755,2,0,L|107:295,1,43.75
204,236,76949,1,0,0:0:0:0:
168,64,77241,1,0,0:0:0:0:
204,236,77534,2,0,L|202:278,1,43.75
247,372,77729,1,0,0:0:0:0:
320,48,78021,5,0,0:0:0:0:
384,308,78313,2,0,L|344:248,1,43.75
256,80,78508,1,0,0:0:0:0:
256,260,78702,1,0,0:0:0:0:
164,80,78897,1,0,0:0:0:0:
164,260,79091,1,0,0:0:0:0:
348,80,79287,1,0,0:0:0:0:
348,260,79481,1,0,0:0:0:0:
140,80,79676,1,0,0:0:0:0:
140,260,79870,1,0,0:0:0:0:
356,96,80066,6,0,L|376:156,3,43.75
316,152,80456,2,0,L|336:212,3,43.75
228,280,80845,2,0,L|216:220,1,43.75
160,80,81040,2,0,L|148:140,1,43.75
112,280,81235,2,0,L|100:220,1,43.75
44,80,81430,2,0,L|32:140,1,43.75
144,304,81624,1,0,0:0:0:0:
424,36,82014,5,0,0:0:0:0:
244,20,82209,2,0,P|184:20|156:28,1,87.5
84,152,82598,2,0,P|160:168|204:180,1,87.5
324,292,82988,1,0,0:0:0:0:
354,260,83085,1,0,0:0:0:0:
384,228,83183,2,0,L|400:128,1,87.5
212,168,83573,1,0,0:0:0:0:
264,24,83767,1,0,0:0:0:0:
264,236,83962,1,0,0:0:0:0:
192,84,84157,1,0,0:0:0:0:
372,84,84352,1,0,0:0:0:0:
112,136,84547,5,0,0:0:0:0:
138,170,84644,1,0,0:0:0:0:
175,194,84741,2,0,P|236:228|264:232,1,87.5
336,316,85131,1,0,0:0:0:0:
396,136,85326,2,0,L|416:48,1,87.5
96,50,85715,2,0,L|116:136,1,87.5
324,56,86105,1,0,0:0:0:0:
200,136,86300,6,0,L|216:212,1,52.5000020027161
312,248,86495,2,0,L|296:172,1,52.5000020027161
210,187,86689,6,0,L|226:263,1,52.5000020027161
322,299,86884,2,0,L|306:223,1,52.5000020027161
264,84,87079,1,0,0:0:0:0:
264,84,87176,1,0,0:0:0:0:
264,84,87274,2,0,L|320:144,1,52.5000020027161
424,224,87469,1,0,0:0:0:0:
424,224,87566,1,0,0:0:0:0:
424,224,87663,2,0,L|424:164,1,52.5000020027161
428,52,87858,6,0,P|360:48|316:64,1,105.000004005432
256,192,88248,1,0,0:0:0:0:
186,59,88443,2,0,P|135:45|84:52,1,105.000004005432
76,224,88832,1,0,0:0:0:0:
136,136,89027,5,0,0:0:0:0:
184,232,89222,1,0,0:0:0:0:
156,136,89417,1,0,0:0:0:0:
184,282,89611,1,0,0:0:0:0:
166,136,89806,1,0,0:0:0:0:
184,332,90001,1,0,0:0:0:0:
372,272,90196,1,0,0:0:0:0:
354,76,90391,1,0,0:0:0:0:
166,136,90586,1,0,0:0:0:0:
372,272,90780,5,0,0:0:0:0:
372,272,90878,1,0,0:0:0:0:
372,272,90975,2,0,P|356:172|292:80,1,189.000000720978
140,112,91560,1,0,0:0:0:0:
140,112,91658,1,0,0:0:0:0:
140,112,91755,2,0,P|156:212|220:304,1,189.000000720978
256,64,92339,1,0,0:0:0:0:
412,136,92534,2,0,L|456:180,1,47.2500001802444
201,285,92826,6,0,L|157:329,1,47.2500001802444
328,184,93118,1,0,0:0:0:0:
286,319,93313,1,0,0:0:0:0:
184,196,93508,1,0,0:0:0:0:
292,244,93702,1,0,0:0:0:0:
172,144,93897,1,0,0:0:0:0:
96,280,94092,1,0,0:0:0:0:
200,300,94287,1,0,0:0:0:0:
276,228,94482,1,0,0:0:0:0:
288,124,94676,1,0,0:0:0:0:
76,68,95066,5,0,0:0:0:0:
392,72,95456,5,0,0:0:0:0:
436,180,95650,2,0,L|360:232,1,70
300,228,96040,1,0,0:0:0:0:
232,192,96235,2,0,P|176:172|92:204,1,140
128,300,96819,2,0,P|188:284|216:268,1,70
232,192,97209,2,0,P|233:132|177:62,1,140
48,128,97793,1,0,0:0:0:0:
52,168,97891,1,0,0:0:0:0:
64,204,97988,2,0,L|112:260,2,70
140,48,98573,6,0,P|196:64|224:88,1,70
208,160,98962,2,0,P|238:176|273:182,1,70
388,104,99352,1,0,0:0:0:0:
360,264,99547,2,0,L|444:292,2,70
240,228,100131,1,0,0:0:0:0:
388,140,100326,1,0,0:0:0:0:
