osu file format v5

[General]
AudioFilename: Stars - Elevator Love Letter.mp3
AudioLeadIn: 0
PreviewTime: 60217
Countdown: 1
SampleSet: Normal
StackLeniency: 0.7
Mode: 0
LetterboxInBreaks: 1
EditorBookmarks: 18600,37424,46835,60071,79188,88894,101246,107130,121982,140218,160365
EditorDistanceSpacing: 1

[Metadata]
Title:Elevator Love Letter
Artist:Stars
Creator:mrtn
Version:Normal
Source:
Tags:

[Difficulty]
HPDrainRate:4
CircleSize:4
OverallDifficulty:4
SliderMultiplier:1.7
SliderTickRate:1

[Events]
//Background and Video events
0,0,"starsbg.jpg"
//Break Periods
2,37329,45515
2,80270,88162
2,101300,106104
//Storyboard Layer 0 (Background)
//Storyboard Layer 1 (Failing)
//Storyboard Layer 2 (Passing)
//Storyboard Layer 3 (Foreground)
//Storyboard Sound Samples
//Background Colour Transformations
3,100,163,162,255

[TimingPoints]
18880,588.235294117647,4,1,0,90,1,0

[HitObjects]
168,200,18880,2,0,B|176:144|288:168|328:112,2,170
288,312,20644,1,0
424,208,21232,1,0
424,208,21527,1,0
80,80,23291,5,0
80,80,23585,2,0,B|144:88|144:152|200:152,2,127.5
336,288,25644,5,0
336,288,25938,2,0,B|392:256|352:176|416:128,2,170
96,216,27997,5,0
176,216,28291,2,0,B|224:224|200:128|312:128,2,170
72,88,30056,1,0
72,88,30350,2,0,B|144:88,1,42.5
320,80,31232,5,8
320,248,31821,1,0
240,248,32115,1,0
160,248,32409,1,4
240,104,32997,6,0,B|376:104,2,127.5
160,104,34174,1,0
160,272,34762,2,0,B|200:312|248:248,1,85,0|0
264,240,35203,2,0,B|312:272|360:200|392:312,1,127.5
64,136,36821,6,0,B|64:32,1,85,0|0
384,104,46821,5,0
384,104,47115,2,0,B|400:192|272:136,2,127.5
216,104,48585,1,0
216,272,49174,2,0,B|184:304|120:296,1,85
288,224,50056,1,0
40,48,51232,5,0
120,48,51527,2,0,B|192:48,1,42.5,0|0
288,48,52115,2,0,B|384:56|360:136|408:192,1,170
256,272,53291,5,0
256,272,53585,1,0
256,272,53880,2,0,B|160:272,2,85,8|0|8
256,104,55056,5,0
168,104,55350,2,0,B|96:104|136:168|192:184|240:176,1,170
440,328,56821,2,0,B|464:280|376:272|480:216|440:152,1,170
296,80,57997,5,8
296,80,58291,1,0
216,80,58585,1,8
216,80,58880,2,2,B|128:96|176:200|216:216|248:216,1,170,2|8
296,240,59762,1,4
40,344,60938,5,0
40,256,61232,2,0,B|40:192|112:184|160:200,2,127.5,0|0|0
48,64,63585,6,0,B|96:16|192:64|176:120,2,170
48,232,65350,1,0
128,232,65644,1,0
192,288,65938,1,0
352,288,66527,2,0,B|352:224,1,42.5
256,168,67115,1,0
152,296,67703,6,0,B|256:296,1,85
320,296,68291,2,0,B|384:296|352:240|416:216,2,127.5
56,64,70644,6,0,B|200:64,2,127.5
56,232,72115,1,0
288,304,72997,6,0,B|152:304,2,127.5
288,136,74468,1,0
72,256,75350,6,0,B|136:304|216:216|256:216|344:296|424:304|448:152,1,425
256,192,77409,12,4,80056
88,176,89468,6,0,B|88:120|152:120|216:120|216:208,3,170
224,256,91527,2,0,B|296:256,1,42.5
392,256,92115,1,0
48,56,93880,5,0
128,56,94174,2,0,B|264:56,2,127.5
128,216,95644,6,0,B|128:272|240:280|304:272,1,170
272,274,96527,2,0,B|344:280|328:168|312:112,2,170
112,88,98585,5,0
192,88,98880,2,0,B|264:88|232:200,2,127.5
352,136,100350,1,0
352,296,100938,2,0,B|352:248,1,42.5
88,80,107409,6,0,B|88:184,1,85
88,248,107997,1,0
168,248,108291,1,0
336,248,108880,2,0,B|280:248|288:176,1,85
287,192,109321,2,0,B|280:136|384:144|400:160,1,127.5
240,64,110350,6,8,B|144:48|128:136|144:176,1,170
256,288,111527,5,0
168,288,111821,2,0,B|168:224,1,42.5
168,160,112262,1,0
288,328,112997,6,0,B|344:344|336:272,1,85
336,192,113585,1,0
336,104,113880,2,0,B|344:42|288:58,1,85,0|0
120,80,114762,1,0
120,248,115350,2,0,B|112:296|192:240,1,85
320,144,116232,6,8,B|392:80|464:152|472:272|368:240,1,255,8|8
296,240,117409,5,0
208,240,117703,2,0,B|120:240|120:152,2,127.5
256,72,119174,1,0
48,336,120350,6,4,B|104:336|88:248,1,85
80,104,121232,2,0,B|128:64|168:80,2,85
144,152,122115,5,4
144,232,122409,2,4,B|144:288|184:320|232:280,2,127.5,4|0|0
352,88,124174,5,4
352,256,124762,6,0,B|264:216|256:152|192:168,2,170
192,320,126527,6,0,B|104:320,1,85
56,248,127115,1,0
152,112,127703,2,0,B|208:112,1,42.5,0|0
320,112,128291,1,0
432,240,128880,1,0
384,312,129174,1,0
296,312,129468,2,0,B|216:312|224:216,2,127.5
80,72,131821,6,0,B|216:72,2,127.5
80,240,133291,1,0
336,240,134174,6,0,B|192:240,2,127.5
336,72,135644,1,0
112,192,136527,6,0,B|176:296|288:232|440:328|488:136,1,425
256,192,138585,12,0,140056
400,120,140938,5,0
400,120,141232,2,0,B|408:184|336:152|336:232,1,127.5
248,312,142115,1,0
56,64,143585,5,0
224,64,144174,1,0
368,152,144762,1,0
368,312,145350,2,0,B|272:312,2,85,0|0|0
216,240,146527,6,0,B|216:184,1,42.5,0|0
216,72,147115,1,0
376,120,147703,5,0
376,200,147997,1,0
376,280,148291,2,0,B|376:328|248:304,2,127.5
48,48,150644,6,0,B|48:184,1,127.5
48,304,151527,2,0,B|104:344|144:296|224:288,1,170
448,192,152997,5,0
320,192,153438,2,0,B|280:120|184:136,1,127.5
96,256,154468,1,0
352,256,155350,6,0,B|432:248|408:104|264:80|160:72|120:224,1,425
256,192,157409,12,4,160056
