osu file format v6

[General]
AudioFilename: Supermen Lovers - Starlight DivX.mp3
AudioLeadIn: 0
PreviewTime: -1
Countdown: 1
SampleSet: None
StackLeniency: 0.7
Mode: 0
LetterboxInBreaks: 1

[Editor]
DistanceSpacing: 0.800000011920929
BeatDivisor: 4
GridSize: 16

[Metadata]
Title:Supermen lovers
Artist:Starlight
Creator:Pilu
Version:Normal
Source:
Tags:

[Difficulty]
HPDrainRate:5
CircleSize:5
OverallDifficulty:5
SliderMultiplier:1.4
SliderTickRate:1

[Events]
//Background and Video events
Video,0,"Supermen Lovers - Starlight DivX.avi"
0,0,"star_light.jpg"
//Break Periods
2,57001,64072
2,138649,139366
//Storyboard Layer 0 (Background)
//Storyboard Layer 1 (Fail)
//Storyboard Layer 2 (Pass)
//Storyboard Layer 3 (Foreground)
//Storyboard Sound Samples
//Background Colour Transformations
3,100,163,162,255

[TimingPoints]
8802,470.588235294118,4,0,0,100,1,0
10214.1000685956,-100,4,0,0,100,0,0

[HitObjects]
96,96,8802,1,0
208,96,9272,1,0
320,96,9743,1,0
432,96,10213,1,0
432,208,10684,1,0
320,208,11154,1,0
208,208,11625,1,0
96,208,12096,1,0
96,320,12566,5,0
144,320,12802,1,0
144,272,13037,1,0
192,272,13272,1,0
192,224,13507,1,0
240,224,13743,1,0
240,176,13978,1,0
288,176,14213,1,0
336,176,14449,5,0
384,176,14684,1,0
384,224,14919,1,0
432,224,15154,1,0
432,272,15390,1,0
480,272,15625,1,0
480,320,15860,1,0
480,368,16096,1,0
432,368,16331,5,0
432,320,16566,1,0
384,320,16802,1,0
384,272,17037,1,0
336,272,17272,1,0
336,224,17507,1,0
288,224,17743,1,0
288,176,17978,1,0
240,176,18213,5,0
240,128,18449,1,0
192,128,18684,1,0
192,80,18919,1,0
240,80,19154,1,0
240,128,19390,1,0
240,176,19625,1,0
240,224,19860,1,0
240,272,20096,5,0
128,272,20566,1,0
16,272,21037,1,0
16,224,21272,1,0
16,176,21507,1,0
16,128,21743,1,0
176,128,22449,1,0
288,128,22919,1,0
336,96,23154,1,0
384,128,23390,1,0
432,96,23625,1,0
448,256,24331,5,0
336,288,24801,1,0
288,256,25037,1,0
240,288,25272,1,0
192,256,25507,1,0
32,288,26213,5,0
64,176,26684,1,0
16,144,26919,1,0
48,96,27154,1,0
96,112,27390,1,0
144,128,27625,5,0
256,128,28096,1,0
368,128,28566,2,0,B|464:128|448:128,2,70
368,176,29272,1,0
384,336,29978,1,0
288,272,30449,2,0,B|224:224|224:224,2,70
320,304,31154,1,0
160,272,31860,5,0
96,176,32331,2,0,B|192:176|176:176,2,70
96,128,33037,1,0
256,304,33743,1,0
256,192,34213,1,0
208,192,34449,1,0
160,192,34684,1,0
96,192,34919,1,0
64,192,35154,5,0
64,128,35390,1,0
64,80,35625,1,0
128,80,35860,1,0
176,80,36096,1,0
224,80,36331,1,0
272,80,36566,1,0
304,80,36801,1,0
416,80,37154,1,0
368,240,38449,5,0
320,240,38684,2,0,B|272:240|208:208|224:144|288:144|304:192|272:288|64:288,1,350
48,160,40331,1,0
48,112,40566,1,0
160,112,41037,1,0
208,112,41272,1,0
384,336,42449,5,0
384,288,42684,1,0
368,224,42919,2,0,B|336:208|288:160,3,70
336,144,43860,1,0
368,96,44096,1,0
400,48,44331,1,0
288,48,44802,2,0,B|288:96|240:96|192:96|192:160|192:176|96:144,1,210
48,304,46213,5,0
160,304,46684,1,0
448,304,47860,1,0
448,256,48096,1,0
464,144,48566,1,0
416,144,48802,1,0
32,64,50684,5,0
32,112,50919,2,0,B|224:112,1,175
240,112,51625,5,0
288,112,51860,2,0,B|480:112,1,175
464,144,52566,5,0
416,144,52802,2,0,B|480:256|368:320,1,175
368,304,53507,1,0
304,304,53743,2,0,B|176:304,1,210
176,112,54684,2,0,B|304:112,1,210
448,128,55625,2,0,B|432:272|304:192|336:336|272:352,1,350
256,192,65272,5,0
368,192,65743,2,0,B|464:192|448:192,2,70
368,80,66684,2,0,B|272:80|288:80,1,70
208,80,67390,1,0
96,80,67860,1,0
96,48,69037,1,0
128,48,69154,1,0
224,48,69507,2,0,B|320:48|304:48,2,70
224,112,70213,2,0,B|224:208|224:208,2,70
288,208,73272,5,0
288,272,73507,1,0
336,272,73743,1,0
384,272,73978,1,0
432,272,74213,1,0
480,272,74449,1,0
480,160,74919,1,0
480,112,75390,1,0
224,112,76566,1,0
176,112,76801,1,0
128,112,77037,1,0
128,160,77272,1,0
176,160,77507,1,0
176,112,77743,1,0
128,112,77978,1,0
128,160,78213,1,0
256,192,80331,5,0
256,304,80801,1,0
416,304,81507,1,0
416,256,81743,1,0
416,208,81978,1,0
416,144,82449,1,0
416,96,82684,1,0
416,48,82919,1,0
304,48,83390,1,0
256,48,83625,1,0
208,48,83860,1,0
96,48,84331,1,0
96,96,84566,1,0
96,144,84801,1,0
96,256,85272,1,0
160,256,85507,1,0
208,256,85743,1,0
320,256,86213,1,0
256,192,87860,5,0
256,304,88331,1,0
416,304,89037,1,0
416,256,89272,1,0
416,208,89507,1,0
416,144,89978,1,0
416,96,90213,1,0
416,48,90449,1,0
304,48,90919,1,0
256,48,91154,1,0
208,48,91390,1,0
96,48,91860,1,0
96,96,92096,1,0
32,96,92331,1,0
32,208,92801,1,0
80,208,93037,1,0
128,208,93272,1,0
240,208,93743,1,0
224,304,95390,5,0
336,304,95860,1,0
448,304,96331,1,0
448,224,96566,1,0
448,192,96801,1,0
448,160,97037,1,0
272,160,97743,1,0
160,160,98213,1,0
160,208,98449,1,0
160,256,98684,1,0
160,320,98919,1,0
352,320,99625,5,0
352,240,100096,1,0
352,192,100331,1,0
352,144,100566,1,0
352,96,100801,1,0
336,304,101507,5,0
448,304,101978,1,0
448,224,102213,1,0
448,192,102449,1,0
448,160,102684,1,0
400,160,102919,1,0
272,160,103390,1,0
160,160,103860,1,0
160,208,104096,1,0
160,256,104331,1,0
160,320,104566,1,0
352,320,105272,5,0
352,240,105743,1,0
352,192,105978,1,0
352,144,106213,1,0
352,80,106449,1,0
336,304,107154,5,0
448,304,107625,1,0
448,224,107860,1,0
448,192,108096,1,0
448,160,108331,1,0
272,160,109037,1,0
160,160,109507,1,0
160,208,109743,1,0
160,256,109978,1,0
160,320,110213,1,0
208,320,110449,1,0
320,320,110919,5,0
384,320,111154,2,0,B|464:224,1,175
480,176,111860,1,0
448,128,112096,2,0,B|336:80|256:96,1,175
256,96,112801,1,0
192,112,113037,2,0,B|80:192,1,175
64,224,113743,1,0
112,256,113978,2,0,B|272:256,1,140
256,208,114684,1,0
208,176,114919,2,0,B|176:208|160:128|304:64,1,175
304,80,115625,1,0
368,80,115860,1,0
496,176,116566,5,0
432,272,117037,1,0
416,224,117272,1,0
368,240,117507,1,0
352,192,117743,1,0
320,240,117978,1,0
240,320,118449,5,0
176,304,118684,2,0,B|112:240|48:112|208:48|320:128|288:224|128:240,1,455
112,240,120331,1,0
48,240,120566,2,0,B|96:48|448:112,1,455
448,128,122213,1,0
432,192,122449,2,0,B|432:288|320:176|304:176|304:176|256:288,1,280
272,256,123507,1,0
80,64,125978,5,0
144,64,126213,1,0
192,64,126449,1,0
304,64,126919,1,0
368,64,127154,1,0
368,176,127625,1,0
496,176,128213,1,0
272,288,129272,1,0
192,288,129743,1,0
144,288,129978,1,0
96,288,130213,1,0
32,288,130449,1,0
32,240,130684,1,0
32,192,130919,1,0
256,192,133507,5,0
304,192,133743,1,0
352,192,133978,1,0
416,192,134213,1,0
416,240,134449,1,0
416,288,134684,1,0
304,304,135154,1,0
192,304,135625,1,0
176,32,136801,1,0
224,32,137037,1,0
272,32,137272,1,0
320,32,137507,1,0
368,32,137743,1,0
416,32,137978,1,0
464,32,138213,1,0
464,80,138449,1,0
256,192,140566,6,0,B|144:160|144:64|224:16|368:48|384:112|288:208,1,420
240,192,142213,6,0,B|112:208|112:320|224:416|384:352|384:272|272:176,1,490
256,176,144096,6,0,B|272:48|384:48|480:160|416:320|336:320|256:208,1,455
224,208,145860,1,0
80,208,146449,1,0
128,208,146684,1,0
448,96,148096,6,0,B|128:96|128:96,1,420
128,256,149743,2,0,B|480:256|480:256|480:96,1,490
480,64,151625,2,0,B|160:64,1,455
32,112,153390,1,0
96,208,153860,1,0
240,272,154096,2,0,B|176:128|176:128|336:16,1,350
256,64,157743,5,0
256,96,157978,1,0
256,144,158213,1,0
256,192,158449,1,0
256,240,158684,1,0
256,352,159154,1,0
368,352,159625,5,0
368,288,159860,1,0
368,240,160096,1,0
368,192,160331,1,0
368,128,160566,1,0
368,16,161037,1,0
256,32,161507,5,0
208,32,161743,1,0
160,32,161978,1,0
96,32,162213,1,0
48,32,162449,1,0
48,144,162919,1,0
48,272,163390,5,0
96,272,163625,1,0
160,272,163860,1,0
208,272,164096,1,0
256,272,164331,1,0
256,272,164449,1,0
304,272,164684,1,0
304,272,164801,1,0
272,128,166213,5,0
272,128,166331,1,0
224,160,166566,1,0
224,160,166684,1,0
464,208,168096,5,0
464,208,168213,1,0
464,256,168449,1,0
464,256,168566,1,0
176,176,169978,5,0
176,176,170096,1,0
224,176,170331,1,0
224,176,170449,1,0
0,352,171860,5,0
0,352,171978,1,0
0,288,172213,1,0
0,288,172331,1,0
336,240,173743,5,0
336,240,173860,1,0
336,176,174096,1,0
336,176,174213,1,0
160,96,175625,5,0
160,96,175743,1,0
160,96,175860,1,0
160,96,175978,1,0
160,96,176096,1,0
256,192,178213,12,0,185507
256,192,185743,12,0,192801
