osu file format v13

[General]
AudioFilename: Star Driver - 5 Centimeters Per Second [Anime Music Video].mp3
AudioLeadIn: 0
PreviewTime: 138756
Countdown: 1
SampleSet: Soft
StackLeniency: 0.7
Mode: 0
LetterboxInBreaks: 0
WidescreenStoryboard: 0

[Editor]
Bookmarks: 24489,88487,202086,253285,278884,298084
DistanceSpacing: 1
BeatDivisor: 4
GridSize: 4
TimelineZoom: 1

[Metadata]
Title:5 Centimeters Per Second
TitleUnicode:5 Centimeters Per Second
Artist:Star Driver
ArtistUnicode:Star Driver
Creator:Come[Back]Home
Version:Right Back
Source:
Tags:Hardstyle Florian Billan D3-Structive Records
BeatmapID:554363
BeatmapSetID:239787

[Difficulty]
HPDrainRate:7
CircleSize:4
OverallDifficulty:7
ApproachRate:8.5
SliderMultiplier:1.7
SliderTickRate:1

[Events]
//Background and Video events
0,0,"151.jpg",0,0
//Break Periods
2,84559,104484
2,164559,176484
2,215759,222884
//Storyboard Layer 0 (Background)
//Storyboard Layer 1 (Fail)
//Storyboard Layer 2 (Pass)
//Storyboard Layer 3 (Foreground)
//Storyboard Sound Samples

[TimingPoints]
13959,400,4,2,0,70,1,0
26159,-100,4,3,0,30,0,0
26759,-100,4,2,1,70,0,0
52359,-100,4,3,0,70,0,0
52959,-100,4,2,0,70,0,0
111159,-100,4,2,0,55,0,0
189959,-80,4,1,0,70,0,1
202759,-80,4,2,0,70,0,0
203159,-80,4,1,0,70,0,1
215559,-80,4,1,0,70,0,0
228159,-100,4,2,0,70,0,0
241159,-90.9090909090909,4,1,1,70,0,1
263559,-100,4,2,0,70,0,1
266759,-100,4,2,0,70,0,0

[HitObjects]
76,192,13958,6,0,P|88:152|24:48,2,170,6|2|2,0:0|0:0|0:0,0:0:0:0:
152,232,14959,1,0,0:0:0:0:
236,228,15159,2,0,L|240:132,1,85,2|0,0:0|0:0,0:0:0:0:
292,76,15559,1,2,0:0:0:0:
372,108,15759,1,2,0:0:0:0:
456,124,15959,2,0,B|448:172|448:172|468:300,2,170,2|2|2,0:0|0:0|0:0,0:0:0:0:
372,108,16959,6,0,P|328:124|224:64,1,170,2|0,0:0|0:0,0:0:0:0:
164,12,17559,1,2,0:0:0:0:
104,72,17759,1,0,0:0:0:0:
164,132,17959,2,0,L|148:224,1,85,2|2,0:0|0:0,0:0:0:0:
196,288,18359,1,0,0:0:0:0:
280,292,18559,2,0,P|316:260|432:272,1,170,0|0,0:0|0:0,0:0:0:0:
468,348,19159,1,2,0:0:0:0:
468,192,19359,2,0,L|460:104,2,85,2|2|0,0:0|0:0|0:0,0:0:0:0:
468,192,19959,1,0,0:0:0:0:
256,64,20359,5,6,0:0:0:0:
180,100,20559,1,2,0:0:0:0:
96,108,20759,2,0,L|88:200,1,85,2|0,0:0|0:0,0:0:0:0:
176,196,21159,2,0,L|184:372,2,170,2|2|2,0:0|0:0|0:0,0:0:0:0:
256,164,22159,1,2,0:0:0:0:
328,208,22359,2,0,B|372:216|372:216|496:188,2,170,2|2|2,0:0|0:0|0:0,0:0:0:0:
256,164,23359,1,0,0:0:0:0:
196,104,23559,6,0,P|148:104|104:204,1,170,6|0,0:0|0:0,0:0:0:0:
116,216,24059,1,0,0:0:0:0:
132,228,24159,1,2,0:0:0:0:
152,236,24259,1,0,0:0:0:0:
172,240,24359,1,0,0:0:0:0:
192,240,24459,1,0,0:0:0:0:
212,236,24559,1,0,0:0:0:0:
232,228,24659,1,0,0:0:0:0:
252,216,24759,2,0,L|260:172,4,42.5,2|0|2|0|2,0:0|0:0|0:0|0:0|0:0,0:0:0:0:
400,300,25559,5,0,0:0:0:0:
420,216,25959,1,0,0:0:0:0:
420,216,26059,1,0,0:0:0:0:
420,216,26159,5,4,0:0:0:0:
416,172,26259,1,4,0:0:0:0:
396,132,26359,1,4,0:0:0:0:
364,104,26459,1,4,0:0:0:0:
324,92,26559,1,4,0:0:0:0:
280,88,26659,1,4,0:0:0:0:
240,100,26759,6,0,P|220:140|232:208,1,85,8|2,0:0|0:0,0:0:0:0:
220,179,27059,1,0,0:0:0:0:
220,179,27159,1,10,0:0:0:0:
280,240,27359,1,2,0:0:0:0:
284,324,27559,2,0,L|184:316,1,85,8|2,0:0|0:0,0:0:0:0:
160,300,27859,1,0,0:0:0:0:
136,264,27959,1,10,0:0:0:0:
124,180,28159,1,2,0:0:0:0:
132,96,28359,6,0,L|216:84,1,85,8|0,0:0|0:0,0:0:0:0:
332,136,28759,2,0,L|248:148,1,85,8|0,0:0|0:0,0:0:0:0:
152,232,29159,2,0,L|236:220,1,85,8|0,0:0|0:0,0:0:0:0:
352,276,29559,2,0,L|268:288,1,85,8|0,0:0|0:0,0:0:0:0:
152,232,29959,6,0,B|144:188|144:188|152:120|152:120|132:52,1,170,10|10,0:0|0:0,0:0:0:0:
208,20,30559,1,2,0:0:0:0:
280,68,30759,2,0,P|332:76|372:68,1,85,10|0,0:0|0:0,0:0:0:0:
152,232,31159,2,0,P|100:224|60:232,1,85,10|0,0:0|0:0,0:0:0:0:
40,312,31559,1,10,0:0:0:0:
40,312,31659,1,0,0:0:0:0:
40,312,31759,1,2,0:0:0:0:
68,144,31959,1,10,0:0:0:0:
148,120,32159,1,0,0:0:0:0:
232,132,32359,2,0,P|284:140|324:132,1,85,10|0,0:0|0:0,0:0:0:0:
388,180,32759,1,10,0:0:0:0:
388,180,32859,1,0,0:0:0:0:
388,180,32959,1,2,0:0:0:0:
320,288,33159,5,8,0:0:0:0:
240,256,33359,1,2,0:0:0:0:
240,256,33459,1,0,0:0:0:0:
240,256,33559,1,10,0:0:0:0:
160,288,33759,2,0,P|156:240|184:192,1,85,2|8,0:0|0:0,0:0:0:0:
240,160,34159,1,2,0:0:0:0:
240,160,34259,1,0,0:0:0:0:
240,160,34359,2,0,P|255:120|250:79,1,85,10|2,0:0|0:0,0:0:0:0:
332,48,34759,6,0,L|416:52,1,85,8|0,0:0|0:0,0:0:0:0:
456,128,35159,1,8,0:0:0:0:
432,208,35359,1,0,0:0:0:0:
356,248,35559,2,0,L|272:244,1,85,8|0,0:0|0:0,0:0:0:0:
224,172,35959,1,8,0:0:0:0:
224,172,36359,5,10,0:0:0:0:
132,260,36559,1,2,0:0:0:0:
260,248,36759,1,10,0:0:0:0:
144,180,36959,1,2,0:0:0:0:
204,292,37159,6,0,P|260:320|332:244,1,170,8|10,0:0|0:0,0:0:0:0:
328,236,37659,1,0,0:0:0:0:
324,216,37759,1,2,0:0:0:0:
312,200,37859,1,0,0:0:0:0:
296,184,37959,2,0,B|280:144|280:144|284:72,2,85,10|2|10,0:0|0:0|0:0,0:0:0:0:
128,124,38759,1,10,0:0:0:0:
108,208,38959,1,2,0:0:0:0:
128,124,39159,1,0,0:0:0:0:
284,60,39559,6,0,L|376:64,1,85,10|0,0:0|0:0,0:0:0:0:
440,168,39959,2,0,L|348:164,1,85,10|0,0:0|0:0,0:0:0:0:
284,60,40359,1,10,0:0:0:0:
355,164,40559,1,2,0:0:0:0:
355,164,40659,1,0,0:0:0:0:
355,164,40759,1,10,0:0:0:0:
308,236,40959,2,0,P|304:288|328:328,1,85,2|8,0:0|0:0,0:0:0:0:
240,348,41359,1,0,0:0:0:0:
176,296,41559,2,0,B|180:248|180:248|160:128,2,170,8|8|8,0:0|0:0|0:0,0:0:0:0:
96,328,42559,1,0,0:0:0:0:
88,160,42759,6,0,P|84:108|188:52,1,170,10|10,0:0|0:0,0:0:0:0:
244,96,43359,1,0,0:0:0:0:
324,124,43559,2,0,L|412:112,1,85,10|0,0:0|0:0,0:0:0:0:
456,232,43959,1,10,0:0:0:0:
456,232,44359,5,10,0:0:0:0:
456,232,44459,1,0,0:0:0:0:
456,232,44559,2,0,L|368:244,1,85,2|8,0:0|0:0,0:0:0:0:
204,224,45159,1,10,0:0:0:0:
112,312,45359,1,2,0:0:0:0:
204,224,45559,1,10,0:0:0:0:
204,224,45659,1,0,0:0:0:0:
204,224,45759,1,10,0:0:0:0:
144,64,45959,5,10,0:0:0:0:
228,84,46159,1,0,0:0:0:0:
312,88,46359,2,0,L|408:72,1,85,10|0,0:0|0:0,0:0:0:0:
464,128,46759,1,8,0:0:0:0:
436,208,46959,2,2,L|432:256,1,42.5
388,248,47159,2,0,L|396:344,2,85,10|2|8,0:0|0:0|0:0,0:0:0:0:
312,212,47759,5,0,0:0:0:0:
236,252,47959,2,0,B|184:256|184:256|64:224,2,170,8|8|8,0:0|0:0|0:0,0:0:0:0:
312,212,48959,1,0,0:0:0:0:
256,148,49159,6,0,L|260:64,1,85,12|0,0:0|0:0,0:0:0:0:
336,24,49559,2,0,L|332:108,1,85,12|0,0:0|0:0,0:0:0:0:
256,148,49959,1,12,0:0:0:0:
256,148,50159,1,0,0:0:0:0:
208,268,50359,1,12,0:0:0:0:
208,268,50559,1,0,0:0:0:0:
100,136,50759,5,0,0:0:0:0:
156,72,50959,1,0,0:0:0:0:
156,72,51059,1,0,0:0:0:0:
156,72,51159,1,0,0:0:0:0:
236,44,51359,2,0,L|256:40,4,21.25,0|0|0|0|0,0:0|0:0|0:0|0:0|0:0,0:0:0:0:
224,128,51759,1,0,0:0:0:0:
224,128,51859,1,0,0:0:0:0:
224,128,51959,1,0,0:0:0:0:
308,276,52359,5,4,0:0:0:0:
388,80,52559,1,4,0:0:0:0:
440,240,52759,1,4,0:0:0:0:
440,240,53159,6,0,L|352:212,1,85,4|0,3:0|0:0,0:0:0:0:
288,164,53559,2,0,L|116:176,2,170,4|4|4,3:0|3:0|3:0,0:0:0:0:
352,108,54559,1,0,0:0:0:0:
319,28,54759,2,0,P|401:36|440:108,1,170,4|4,3:0|3:0,0:0:0:0:
396,184,55359,2,0,B|388:228|388:228|412:356,1,170
324,360,55959,1,4,3:0:0:0:
260,304,56159,2,0,P|212:284|96:320,1,170
44,252,56759,1,4,3:0:0:0:
96,184,56959,1,0,0:0:0:0:
136,108,57159,6,0,L|64:48,1,85,4|0,3:0|0:0,0:0:0:0:
152,24,57559,2,0,L|220:84,1,85,4|0,3:0|0:0,0:0:0:0:
288,124,57959,1,4,3:0:0:0:
408,84,58159,1,0,0:0:0:0:
288,124,58359,5,4,3:0:0:0:
216,324,58559,1,8,3:0:0:0:
316,244,58759,5,4,3:0:0:0:
436,292,58959,1,0,0:0:0:0:
312,328,59159,1,4,3:0:0:0:
392,228,59359,1,0,0:0:0:0:
388,356,59559,1,4,3:0:0:0:
472,208,59959,1,4,3:0:0:0:
420,140,60159,2,0,P|376:144|288:52,1,170
208,36,60759,6,0,L|192:120,1,85,4|0,3:0|0:0,0:0:0:0:
190,202,61159,2,0,P|122:246|48:212,1,170,4|4,3:0|3:0,0:0:0:0:
116,160,61759,1,0,0:0:0:0:
276,188,61959,2,0,P|320:220|368:220,1,85,4|0,3:0|0:0,0:0:0:0:
116,160,62359,2,0,P|72:128|24:128,1,85,4|0,3:0|0:0,0:0:0:0:
48,40,62759,2,0,L|224:24,2,170,4|4|4,3:0|3:0|3:0,0:0:0:0:
40,124,63759,2,0,L|-4:128,2,42.5,0|0|4,0:0|0:0|3:0,0:0:0:0:
120,152,64159,1,0,0:0:0:0:
204,136,64359,1,4,3:0:0:0:
288,132,64559,2,0,L|300:84,2,42.5,0|0|4,0:0|0:0|3:0,0:0:0:0:
348,192,64959,1,4,3:0:0:0:
348,192,65059,1,0,0:0:0:0:
348,192,65159,6,0,P|336:240|396:344,1,170,4|2,3:0|0:0,0:0:0:0:
312,368,65759,1,0,0:0:0:0:
240,324,65959,1,2,0:0:0:0:
180,212,66159,1,0,0:0:0:0:
60,332,66359,1,2,0:0:0:0:
100,212,66559,2,0,P|120:160|236:156,1,170
272,216,67159,1,2,0:0:0:0:
352,248,67359,1,0,0:0:0:0:
432,216,67559,2,0,L|452:132,1,85,2|0,0:0|0:0,0:0:0:0:
272,216,67959,2,0,L|252:300,1,85,2|0,0:0|0:0,0:0:0:0:
216,324,68259,1,0,0:0:0:0:
176,336,68359,6,0,P|164:292|52:256,1,170,2|2,0:0|0:0,0:0:0:0:
32,128,68959,1,0,0:0:0:0:
136,56,69159,2,0,P|200:72|300:52,1,170,2|2,0:0|0:0,0:0:0:0:
404,124,69759,1,0,0:0:0:0:
348,236,69959,2,0,B|292:228|292:228|180:260,2,170,2|2|2,0:0|0:0|0:0,0:0:0:0:
404,300,70959,1,0,0:0:0:0:
464,240,71159,1,2,0:0:0:0:
472,156,71359,1,0,0:0:0:0:
336,52,71559,6,0,P|284:72|248:72,1,85,2|0,0:0|0:0,0:0:0:0:
176,40,71959,1,2,0:0:0:0:
188,124,72159,2,0,B|200:164|200:164|192:296,1,170
124,344,72759,1,2,0:0:0:0:
276,272,72959,2,0,L|364:260,1,85,0|2,0:0|0:0,0:0:0:0:
408,188,73359,1,0,0:0:0:0:
380,108,73559,1,2,0:0:0:0:
300,80,73759,2,0,P|252:88|148:36,1,170
68,64,74359,1,2,0:0:0:0:
100,140,74559,1,0,0:0:0:0:
116,224,74759,6,0,L|104:312,1,85,2|0,0:0|0:0,0:0:0:0:
184,340,75159,1,2,0:0:0:0:
292,276,75359,1,0,0:0:0:0:
340,156,75559,2,0,L|352:68,1,85,2|0,0:0|0:0,0:0:0:0:
236,16,75959,1,2,0:0:0:0:
212,140,76159,1,0,0:0:0:0:
128,156,76359,5,0,0:0:0:0:
184,220,76559,1,2,0:0:0:0:
184,220,76659,1,0,0:0:0:0:
268,208,76859,1,0,0:0:0:0:
268,208,76959,1,2,0:0:0:0:
344,248,77159,1,0,0:0:0:0:
424,216,77359,1,2,0:0:0:0:
424,216,77459,1,0,0:0:0:0:
388,140,77659,1,0,0:0:0:0:
388,140,77759,1,2,0:0:0:0:
420,60,77959,5,0,0:0:0:0:
256,192,78059,12,0,84359,0:0:0:0:
256,192,105159,12,0,109559,0:0:0:0:
116,236,109959,5,4,0:0:0:0:
116,236,111159,6,0,P|104:292|182:373,1,170,2|0,0:0|0:0,0:0:0:0:
368,184,112759,1,2,0:0:0:0:
368,184,112959,2,0,B|352:136|364:64,1,85
160,28,113759,5,2,0:0:0:0:
160,28,113959,2,0,B|176:76|164:148,1,85,0|2,0:0|0:0,0:0:0:0:
92,264,114559,2,0,P|136:292|248:248,2,170,0|0|0,0:0|0:0|0:0,0:0:0:0:
380,132,115959,1,2,0:0:0:0:
380,132,116359,6,0,L|284:112,1,85,2|0,0:0|0:0,0:0:0:0:
212,120,116759,1,2,0:0:0:0:
172,196,116959,1,0,0:0:0:0:
196,276,117159,2,0,P|236:288|352:232,1,170,2|2,0:0|0:0,0:0:0:0:
432,232,117759,1,0,0:0:0:0:
256,136,118559,1,0,0:0:0:0:
184,88,118759,6,0,B|144:96|144:96|16:80,1,170,0|2,0:0|0:0,0:0:0:0:
48,160,119359,2,0,L|132:172,1,85,0|2,0:0|0:0,0:0:0:0:
188,236,119759,1,0,0:0:0:0:
204,320,119959,1,2,0:0:0:0:
268,264,120159,1,0,0:0:0:0:
256,180,120359,2,0,B|244:136|244:136|288:16,1,170
368,40,120959,1,0,0:0:0:0:
256,192,121159,12,2,122759,0:0:0:0:
104,188,123159,5,2,0:0:0:0:
104,188,123359,1,0,0:0:0:0:
188,204,123559,1,2,0:0:0:0:
272,184,123759,1,0,0:0:0:0:
352,212,123959,1,2,0:0:0:0:
436,192,124159,2,0,L|448:16,1,170
364,28,124759,2,0,B|316:40|316:40|184:32,2,170,2|2|2,0:0|0:0|0:0,0:0:0:0:
340,152,125759,5,0,0:0:0:0:
212,148,125959,2,0,P|176:196|204:304,1,170,2|2,0:0|0:0,0:0:0:0:
316,348,126559,1,0,0:0:0:0:
412,268,126759,2,0,B|400:208|400:208|436:96,1,170,2|2,0:0|0:0,0:0:0:0:
348,8,127359,1,0,0:0:0:0:
228,52,127559,2,0,P|232:108|152:180,1,170,2|2,0:0|0:0,0:0:0:0:
248,324,128359,1,2,0:0:0:0:
392,232,128759,1,2,0:0:0:0:
324,180,128959,1,0,0:0:0:0:
112,156,129159,5,2,0:0:0:0:
144,76,129359,1,0,0:0:0:0:
212,124,129559,1,2,0:0:0:0:
180,204,129759,2,0,P|136:236|36:192,1,170
164,312,130559,5,0,0:0:0:0:
248,296,130759,1,2,0:0:0:0:
332,312,130959,1,0,0:0:0:0:
412,288,131159,1,2,0:0:0:0:
376,212,131359,2,0,P|356:168|408:56,1,170
320,32,131959,1,2,0:0:0:0:
248,80,132159,2,0,L|64:96,1,170,0|0,0:0|0:0,0:0:0:0:
52,176,132759,1,2,0:0:0:0:
192,272,133159,1,2,0:0:0:0:
64,264,133559,1,2,0:0:0:0:
256,192,133959,12,0,135559,0:0:0:0:
256,192,136759,12,0,138359,0:0:0:0:
192,192,138759,5,8,0:0:0:0:
224,112,138959,1,0,0:0:0:0:
172,44,139159,1,8,0:0:0:0:
256,32,139359,1,0,0:0:0:0:
340,52,139559,2,0,L|432:44,1,85,8|0,0:0|0:0,0:0:0:0:
192,192,139959,2,0,L|100:200,1,85,8|0,0:0|0:0,0:0:0:0:
56,268,140359,5,8,0:0:0:0:
220,308,140559,1,0,0:0:0:0:
320,228,140759,2,0,P|348:192|360:152,1,85,8|0,0:0|0:0,0:0:0:0:
56,268,141159,2,0,P|28:304|16:344,1,85,8|0,0:0|0:0,0:0:0:0:
100,364,141559,1,8,0:0:0:0:
184,267,141759,6,0,P|208:227|328:239,1,170,8|0,0:0|0:0,0:0:0:0:
388,180,142359,1,8,0:0:0:0:
297,89,142559,1,0,0:0:0:0:
423,108,142759,2,0,P|459:140|466:200,1,85,8|0,0:0|0:0,0:0:0:0:
432,252,143159,1,8,0:0:0:0:
388,180,143359,6,0,P|352:220|400:332,1,170,8|0,0:0|0:0,0:0:0:0:
304,356,143959,2,0,P|276:312|268:264,1,85,8|0,0:0|0:0,0:0:0:0:
220,164,144359,2,0,L|184:336,1,170,8|8,0:0|0:0,0:0:0:0:
100,348,144959,1,0,0:0:0:0:
40,132,145159,5,8,0:0:0:0:
140,56,145359,1,0,0:0:0:0:
40,132,145559,1,8,0:0:0:0:
140,56,145759,1,0,0:0:0:0:
40,132,145959,2,0,L|32:232,1,85,8|0,0:0|0:0,0:0:0:0:
128,328,146359,2,0,L|136:228,1,85,8|0,0:0|0:0,0:0:0:0:
208,196,146759,5,8,0:0:0:0:
292,220,146959,1,0,0:0:0:0:
376,208,147159,2,0,P|392:164|352:40,1,170,8|8,0:0|0:0,0:0:0:0:
192,32,147959,1,8,0:0:0:0:
144,104,148159,1,0,0:0:0:0:
168,184,148359,6,0,P|184:228|36:316,2,255,8|0|8,0:0|0:0|0:0,0:0:0:0:
220,116,149759,1,0,0:0:0:0:
304,132,149959,2,0,L|436:112,2,127.5,8|0|0,0:0|0:0|0:0,0:0:0:0:
280,216,150759,2,0,L|424:192,2,127.5,8|0|0,0:0|0:0|0:0,0:0:0:0:
228,284,151559,5,12,0:0:0:0:
156,236,151759,1,0,0:0:0:0:
136,152,151959,1,8,0:0:0:0:
152,68,152159,1,0,0:0:0:0:
228,32,152359,2,0,L|324:40,1,85,8|0,0:0|0:0,0:0:0:0:
432,160,152759,2,0,L|336:152,1,85,8|0,0:0|0:0,0:0:0:0:
272,116,153159,5,8,0:0:0:0:
256,244,153359,1,0,0:0:0:0:
196,132,153559,1,8,0:0:0:0:
312,184,153759,1,0,0:0:0:0:
188,208,153959,2,0,P|140:188|148:72,1,170,8|8,0:0|0:0,0:0:0:0:
52,64,154559,6,0,L|24:244,1,170,8|0,0:0|0:0,0:0:0:0:
72,304,155159,1,8,0:0:0:0:
200,284,155359,1,0,0:0:0:0:
320,328,155559,1,8,0:0:0:0:
444,308,155759,1,0,0:0:0:0:
480,184,155959,1,8,0:0:0:0:
404,80,156159,6,0,B|356:88|356:88|220:56,1,170,8|0,0:0|0:0,0:0:0:0:
168,12,156759,1,8,0:0:0:0:
128,88,156959,2,0,L|124:184,2,85,0|8|0,0:0|0:0|0:0,0:0:0:0:
52,128,157559,2,0,L|48:228,1,85,8|0,0:0|0:0,0:0:0:0:
108,276,157959,5,12,0:0:0:0:
236,276,158159,1,0,0:0:0:0:
132,352,158359,1,8,0:0:0:0:
172,232,158559,1,0,0:0:0:0:
212,352,158759,2,0,P|260:352|300:320,1,85,8|0,0:0|0:0,0:0:0:0:
400,200,159159,2,0,P|352:200|312:232,1,85,8|0,0:0|0:0,0:0:0:0:
256,168,159559,5,8,0:0:0:0:
104,92,159759,1,0,0:0:0:0:
304,48,159959,2,0,L|392:56,1,85,8|0,0:0|0:0,0:0:0:0:
104,92,160359,2,0,L|16:84,1,85,8|0,0:0|0:0,0:0:0:0:
24,212,160759,1,8,0:0:0:0:
104,236,160959,1,0,0:0:0:0:
168,180,161159,6,0,P|212:160|324:304,2,255,8|0|8,0:0|0:0|0:0,0:0:0:0:
108,120,162559,1,0,0:0:0:0:
188,92,162759,6,0,P|272:92|356:140,2,170,8|8|8,0:0|0:0|0:0,0:0:0:0:
64,212,163959,1,8,0:0:0:0:
100,288,164159,1,0,0:0:0:0:
100,288,164259,1,0,0:0:0:0:
100,288,164359,1,12,0:0:0:0:
76,316,177159,6,0,L|168:300,1,85,2|0,0:0|0:0,0:0:0:0:
276,252,177559,2,0,L|184:236,1,85,2|0,0:0|0:0,0:0:0:0:
76,188,177959,2,0,L|168:172,1,85,2|0,0:0|0:0,0:0:0:0:
276,120,178359,2,0,L|184:104,1,85,2|0,0:0|0:0,0:0:0:0:
144,32,178759,5,2,0:0:0:0:
228,32,178959,1,0,0:0:0:0:
312,44,179159,2,0,P|348:76|360:124,1,85,2|0,0:0|0:0,0:0:0:0:
348,196,179559,2,0,B|340:240|340:240|360:364,2,170,2|2|2,0:0|0:0|0:0,0:0:0:0:
264,176,180559,5,0,0:0:0:0:
200,232,180759,2,0,P|160:220|116:220,1,85,2|0,0:0|0:0,0:0:0:0:
72,148,181159,2,0,P|116:136|184:32,2,170,2|2|2,0:0|0:0|0:0,0:0:0:0:
36,228,182159,1,0,0:0:0:0:
96,288,182359,2,0,L|104:372,1,85,2|0,0:0|0:0,0:0:0:0:
180,332,182759,2,0,L|172:248,1,85,2|0,0:0|0:0,0:0:0:0:
248,204,183159,2,0,L|256:288,1,85,2|0,0:0|0:0,0:0:0:0:
324,340,183559,5,2,0:0:0:0:
380,276,183759,1,0,0:0:0:0:
380,276,183859,1,0,0:0:0:0:
380,276,183959,1,2,0:0:0:0:
404,196,184159,1,0,0:0:0:0:
392,112,184359,1,2,0:0:0:0:
324,64,184559,1,0,0:0:0:0:
324,64,184659,1,0,0:0:0:0:
324,64,184759,1,2,0:0:0:0:
240,56,184959,1,0,0:0:0:0:
164,92,185159,6,0,P|144:132|144:176,1,85,2|0,0:0|0:0,0:0:0:0:
143,171,185459,1,0,0:0:0:0:
143,171,185559,1,2,0:0:0:0:
276,248,185759,2,0,P|296:208|296:164,1,85,0|2,0:0|0:0,0:0:0:0:
248,100,186159,1,0,0:0:0:0:
248,100,186259,1,0,0:0:0:0:
248,100,186359,2,0,P|292:84|340:96,1,85,2|0,0:0|0:0,0:0:0:0:
432,120,186759,6,0,L|436:168,7,42.5,2|0|0|0|2|0|0|0,0:0|0:0|0:0|0:0|0:0|0:0|0:0|0:0,0:0:0:0:
396,176,187559,2,0,L|392:220,7,42.5,2|0|0|0|2|0|0|0,0:0|0:0|0:0|0:0|0:0|0:0|0:0|0:0,0:0:0:0:
356,244,188359,5,4,3:0:0:0:
356,244,188459,1,0,0:0:0:0:
356,244,188559,1,0,0:0:0:0:
112,316,188759,1,4,3:0:0:0:
112,316,188859,1,0,0:0:0:0:
112,316,188959,1,0,0:0:0:0:
172,68,189159,1,4,3:0:0:0:
172,68,189259,1,0,0:0:0:0:
172,68,189359,1,4,3:0:0:0:
356,244,189559,5,4,3:0:0:0:
344,204,189659,1,0,0:0:0:0:
344,160,189759,1,4,3:0:0:0:
356,120,189859,1,0,0:0:0:0:
384,88,189959,6,0,L|496:76,1,106.25,6|0,0:0|0:0,0:0:0:0:
356,244,190359,2,0,L|244:256,1,106.25,0|2,0:0|0:0,0:0:0:0:
156,208,190759,1,0,0:0:0:0:
76,68,190959,1,2,0:0:0:0:
176,104,191159,1,0,0:0:0:0:
320,40,191359,1,2,0:0:0:0:
440,148,191559,6,0,B|424:204|424:204|440:252|440:252|428:312,1,159.375,2|2,0:0|0:0,0:0:0:0:
384,332,191959,2,0,L|280:308,1,106.25,2|2,0:0|0:0,0:0:0:0:
252,204,192359,1,0,0:0:0:0:
112,280,192559,1,2,0:0:0:0:
152,180,192759,1,2,0:0:0:0:
112,80,192959,1,2,0:0:0:0:
264,32,193159,6,0,P|312:56|420:28,1,159.375,2|2,0:0|0:0,0:0:0:0:
460,60,193559,2,0,L|452:180,1,106.25,2|2,0:0|0:0,0:0:0:0:
368,232,193959,1,0,0:0:0:0:
256,346,194159,2,0,L|264:240,2,106.25,2|2|2,0:0|0:0|0:0,0:0:0:0:
124,256,194759,6,0,B|136:196|136:196|104:92,1,159.375,2|2,0:0|0:0,0:0:0:0:
116,48,195159,2,0,L|232:52,1,106.25,2|2,0:0|0:0,0:0:0:0:
332,168,195559,1,0,0:0:0:0:
124,256,195759,1,2,0:0:0:0:
168,48,195959,1,2,0:0:0:0:
332,168,196159,1,2,0:0:0:0:
232,244,196359,6,0,P|240:296|344:344,1,159.375,2|2,0:0|0:0,0:0:0:0:
380,340,196759,2,0,L|396:232,1,106.25,2|2,0:0|0:0,0:0:0:0:
340,84,197159,2,0,L|324:192,1,106.25,0|2,0:0|0:0,0:0:0:0:
232,244,197559,1,2,0:0:0:0:
340,84,197759,1,2,0:0:0:0:
380,340,197959,6,0,B|372:284|372:284|384:240|384:240|372:176,1,159.375,2|2,0:0|0:0,0:0:0:0:
416,152,198359,2,0,L|512:216,1,106.25,2|2,0:0|0:0,0:0:0:0:
232,244,198759,2,0,L|136:180,1,106.25,0|2,0:0|0:0,0:0:0:0:
340,84,199159,1,2,0:0:0:0:
380,340,199359,1,2,0:0:0:0:
232,244,199559,6,0,B|152:192|152:192|120:112,1,159.375,2|2,0:0|0:0,0:0:0:0:
128,80,199959,2,0,L|244:64,1,106.25,2|2,0:0|0:0,0:0:0:0:
340,84,200359,1,0,0:0:0:0:
372,240,200559,1,2,0:0:0:0:
424,148,200759,1,2,0:0:0:0:
460,248,200959,1,2,0:0:0:0:
312,308,201159,6,0,P|284:260|336:160,1,159.375,2|2,0:0|0:0,0:0:0:0:
284,128,201559,2,0,L|168:140,1,106.25,2|2,0:0|0:0,0:0:0:0:
84,92,201959,1,0,0:0:0:0:
68,196,202159,1,2,0:0:0:0:
164,324,202359,1,2,0:0:0:0:
280,212,202559,1,2,0:0:0:0:
280,212,202759,5,8,0:0:0:0:
280,212,203159,6,0,P|292:152|388:104,1,159.375,2|0,0:0|0:0,0:0:0:0:
420,84,203559,1,2,0:0:0:0:
272,28,203759,1,2,0:0:0:0:
180,80,203959,2,0,L|60:60,1,106.25,0|2,0:0|0:0,0:0:0:0:
48,224,204359,6,0,B|104:232|104:232|180:312,1,159.375,2|2,0:0|0:0,0:0:0:0:
228,304,204759,1,2,0:0:0:0:
256,148,204959,1,2,0:0:0:0:
360,160,205159,2,0,P|416:168|464:156,1,106.25,0|2,0:0|0:0,0:0:0:0:
228,304,205559,2,0,P|172:296|124:308,1,106.25,2|2,0:0|0:0,0:0:0:0:
68,160,205959,6,0,B|104:120|104:120|92:12,1,159.375,2|2,0:0|0:0,0:0:0:0:
144,16,206359,1,2,0:0:0:0:
300,32,206559,1,2,0:0:0:0:
268,132,206759,2,0,L|288:240,1,106.25,0|2,0:0|0:0,0:0:0:0:
432,300,207159,1,2,0:0:0:0:
300,32,207359,1,2,0:0:0:0:
268,132,207559,6,0,B|280:192|280:192|264:236|264:236|272:308,1,159.375,2|2,0:0|0:0,0:0:0:0:
228,320,207959,1,2,0:0:0:0:
152,180,208159,1,2,0:0:0:0:
184,80,208359,2,0,P|224:44|284:40,1,106.25,0|2,0:0|0:0,0:0:0:0:
228,320,208759,2,0,P|188:356|128:360,1,106.25,2|2,0:0|0:0,0:0:0:0:
232,232,209159,6,0,B|288:240|288:240|400:220,1,159.375,2|2,0:0|0:0,0:0:0:0:
436,196,209559,2,0,P|420:136|432:88,1,106.25,2|2,0:0|0:0,0:0:0:0:
232,232,209959,2,0,P|248:292|236:340,1,106.25,0|2,0:0|0:0,0:0:0:0:
80,352,210359,1,2,0:0:0:0:
76,192,210559,1,2,0:0:0:0:
232,232,210759,6,0,B|288:224|288:224|336:240|336:240|392:240,1,159.375,2|2,0:0|0:0,0:0:0:0:
424,200,211159,1,2,0:0:0:0:
360,56,211359,1,2,0:0:0:0:
256,84,211559,2,0,L|152:104,1,106.25,0|2,0:0|0:0,0:0:0:0:
60,48,211959,2,0,L|164:28,1,106.25,2|2,0:0|0:0,0:0:0:0:
256,84,212359,5,0,0:0:0:0:
268,108,212459,1,0,0:0:0:0:
272,132,212559,1,0,0:0:0:0:
264,156,212659,1,0,0:0:0:0:
252,180,212759,1,0,0:0:0:0:
244,204,212859,1,0,0:0:0:0:
248,232,212959,1,0,0:0:0:0:
264,256,213059,1,0,0:0:0:0:
284,272,213159,1,0,0:0:0:0:
308,276,213259,1,0,0:0:0:0:
336,272,213359,1,0,0:0:0:0:
360,256,213459,1,0,0:0:0:0:
376,232,213559,2,0,L|372:172,4,53.125,0|0|0|0|0,0:0|0:0|0:0|0:0|0:0,0:0:0:0:
256,192,214059,12,4,215559,0:0:0:0:
256,192,223559,12,0,227959,0:0:0:0:
148,192,228359,6,0,L|132:104,1,85,8|0,0:0|0:0,0:0:0:0:
208,39,228759,2,0,L|216:124,1,85,8|0,0:0|0:0,0:0:0:0:
300,124,229159,2,0,L|307:39,1,85,8|0,0:0|0:0,0:0:0:0:
383,108,229559,2,0,L|368:192,1,85,8|0,0:0|0:0,0:0:0:0:
452,60,229959,5,8,0:0:0:0:
472,144,230159,1,0,0:0:0:0:
444,224,230359,2,0,P|412:260|288:224,1,170,8|8,0:0|0:0,0:0:0:0:
252,172,230959,1,0,0:0:0:0:
172,204,231159,2,0,B|160:244|160:244|144:371,1,170,8|8,0:0|0:0,0:0:0:0:
60,372,231759,5,0,0:0:0:0:
48,288,231959,2,0,L|64:192,1,85,8|0,0:0|0:0,0:0:0:0:
56,120,232359,1,8,0:0:0:0:
104,48,232559,1,0,0:0:0:0:
144,124,232759,2,0,L|228:112,1,85,8|0,0:0|0:0,0:0:0:0:
308,84,233159,1,8,0:0:0:0:
384,120,233359,1,0,0:0:0:0:
316,172,233559,2,0,L|324:264,1,85,8|0,0:0|0:0,0:0:0:0:
248,300,233959,2,0,L|232:120,2,170,8|8|8,0:0|0:0|0:0,0:0:0:0:
172,344,234959,5,0,0:0:0:0:
108,288,235159,2,0,L|104:200,1,85,8|0,0:0|0:0,0:0:0:0:
24,168,235559,2,0,P|60:128|172:152,1,170,8|8,0:0|0:0,0:0:0:0:
240,112,236159,2,0,P|176:56|88:40,1,170
24,84,236759,1,8,0:0:0:0:
24,168,236959,1,0,0:0:0:0:
96,204,237159,2,0,P|124:240|100:368,1,170,8|8,0:0|0:0,0:0:0:0:
196,360,237759,2,0,L|368:344,2,170,0|0|0,0:0|0:0|0:0,0:0:0:0:
220,276,238759,5,8,0:0:0:0:
288,224,238959,1,0,0:0:0:0:
304,140,239159,1,8,0:0:0:0:
252,72,239359,1,0,0:0:0:0:
168,64,239559,5,4,3:0:0:0:
148,100,239659,1,0,0:0:0:0:
128,136,239759,1,0,0:0:0:0:
180,204,239959,1,4,3:0:0:0:
176,248,240059,1,0,0:0:0:0:
172,292,240159,1,0,0:0:0:0:
340,292,240359,5,4,3:0:0:0:
336,248,240459,1,0,0:0:0:0:
332,204,240559,1,4,3:0:0:0:
360,172,240659,1,0,0:0:0:0:
384,136,240759,1,4,3:0:0:0:
364,100,240859,1,0,0:0:0:0:
344,64,240959,5,4,3:0:0:0:
344,64,241059,1,0,0:0:0:0:
344,64,241159,2,0,L|244:56,1,93.5000028533936,12|0,0:0|0:0,0:0:0:0:
172,104,241559,1,8,0:0:0:0:
332,204,241759,1,0,0:0:0:0:
172,104,241959,2,0,L|272:112,1,93.5000028533936,8|0,0:0|0:0,0:0:0:0:
332,204,242359,2,0,L|232:196,1,93.5000028533936,8|0,0:0|0:0,0:0:0:0:
160,244,242759,5,8,0:0:0:0:
184,336,242959,1,0,0:0:0:0:
92,312,243159,2,0,P|64:264|136:156,1,187.000005706787,8|8,0:0|0:0,0:0:0:0:
160,244,243759,1,0,0:0:0:0:
252,268,243959,1,8,0:0:0:0:
384,220,244159,6,0,B|368:168|368:168|376:100|376:100|356:20,1,187.000005706787,8|0,0:0|0:0,0:0:0:0:
268,24,244759,1,8,0:0:0:0:
384,220,244959,1,0,0:0:0:0:
288,120,245159,1,8,0:0:0:0:
380,128,245359,1,0,0:0:0:0:
384,220,245559,1,8,0:0:0:0:
260,200,245759,2,0,P|220:168|244:44,1,187.000005706787,8|0,0:0|0:0,0:0:0:0:
288,120,246359,1,0,0:0:0:0:
123,91,246559,1,8,0:0:0:0:
340,196,246759,2,0,P|324:252|200:256,1,187.000005706787,8|8,0:0|0:0,0:0:0:0:
160,184,247359,1,8,0:0:0:0:
96,252,247559,6,0,L|0:264,1,93.5000028533936,8|0,0:0|0:0,0:0:0:0:
288,120,247959,2,0,L|384:108,1,93.5000028533936,8|0,0:0|0:0,0:0:0:0:
428,192,248359,2,0,B|408:240|408:240|416:376,1,187.000005706787,8|8,0:0|0:0,0:0:0:0:
324,356,248959,1,0,0:0:0:0:
292,268,249159,2,0,P|288:216|304:172,2,93.5000028533936,8|0|8,0:0|0:0|0:0,0:0:0:0:
208,312,249759,1,0,0:0:0:0:
128,264,249959,2,0,L|136:72,1,187.000005706787,8|8,0:0|0:0,0:0:0:0:
220,32,250559,1,8,0:0:0:0:
276,108,250759,6,0,P|328:116|432:32,2,187.000005706787,8|8|8,0:0|0:0|0:0,0:0:0:0:
240,196,251759,1,0,0:0:0:0:
296,324,251959,1,8,0:0:0:0:
364,200,252159,1,0,0:0:0:0:
292,140,252359,2,0,P|244:120|168:224,1,187.000005706787,8|8,0:0|0:0,0:0:0:0:
84,260,252959,1,0,0:0:0:0:
64,168,253159,2,0,L|68:68,1,93.5000028533936,8|0,0:0|0:0,0:0:0:0:
364,200,253559,2,0,L|360:300,1,93.5000028533936,8|0,0:0|0:0,0:0:0:0:
268,304,253959,5,12,0:0:0:0:
364,200,254159,1,0,0:0:0:0:
296,76,254359,1,8,0:0:0:0:
364,200,254559,1,0,0:0:0:0:
296,76,254759,2,0,P|236:80|196:60,1,93.5000028533936,8|0,0:0|0:0,0:0:0:0:
364,200,255159,2,0,P|424:196|464:216,1,93.5000028533936,8|0,0:0|0:0,0:0:0:0:
488,120,255559,5,8,0:0:0:0:
296,76,255759,1,0,0:0:0:0:
268,304,255959,2,0,L|176:320,1,93.5000028533936,8|0,0:0|0:0,0:0:0:0:
364,200,256359,2,0,L|456:184,1,93.5000028533936,8|0,0:0|0:0,0:0:0:0:
492,272,256759,1,8,0:0:0:0:
352,280,256959,6,0,P|300:252|320:132,1,187.000005706787,8|0,0:0|0:0,0:0:0:0:
244,72,257559,1,8,0:0:0:0:
156,104,257759,1,0,0:0:0:0:
108,236,257959,2,0,L|112:340,2,93.5000028533936,8|0|8,0:0|0:0|0:0,0:0:0:0:
244,72,258559,2,0,B|256:136|256:136|244:196|244:196|248:296,1,187.000005706787,8|0,0:0|0:0,0:0:0:0:
328,300,259159,1,8,0:0:0:0:
408,256,259359,1,0,0:0:0:0:
388,116,259559,2,0,P|376:72|488:40,2,187.000005706787,8|8|8,0:0|0:0|0:0,0:0:0:0:
320,180,260559,5,8,0:0:0:0:
192,128,260759,1,8,0:0:0:0:
280,96,260959,1,0,0:0:0:0:
408,156,261159,2,0,P|408:212|372:256,1,93.5000028533936,8|0,0:0|0:0,0:0:0:0:
296,260,261559,2,0,L|312:356,1,93.5000028533936,8|0,0:0|0:0,0:0:0:0:
176,316,261959,5,8,0:0:0:0:
120,240,262159,1,0,0:0:0:0:
112,148,262359,2,0,P|144:104|268:112,2,187.000005706787,8|8|8,0:0|0:0|0:0,0:0:0:0:
120,240,263359,1,0,0:0:0:0:
176,316,263559,5,0,0:0:0:0:
220,320,263659,1,0,0:0:0:0:
264,320,263759,1,0,0:0:0:0:
304,308,263859,1,0,0:0:0:0:
336,284,263959,1,0,0:0:0:0:
356,248,264059,1,0,0:0:0:0:
352,204,264159,1,0,0:0:0:0:
324,172,264259,1,0,0:0:0:0:
284,160,264359,2,0,L|236:164,8,42.5,0|0|0|0|0|0|0|0|0,0:0|0:0|0:0|0:0|0:0|0:0|0:0|0:0|0:0,0:0:0:0:
256,192,265259,12,0,266559,0:0:0:0:
88,192,266759,6,0,P|128:172|150:133,1,85,2|0,0:0|0:0,0:0:0:0:
312,172,267159,2,0,P|272:192|250:231,1,85,2|0,0:0|0:0,0:0:0:0:
332,256,267559,2,0,P|380:228|372:108,1,170,2|2,0:0|0:0,0:0:0:0:
308,88,268159,1,0,0:0:0:0:
380,44,268359,2,0,L|476:48,2,85,2|2|0,0:0|0:0|0:0,0:0:0:0:
308,88,268959,1,0,0:0:0:0:
224,108,269159,2,0,B|232:152|232:152|216:292,1,170,2|0,0:0|0:0,0:0:0:0:
152,332,269759,1,2,0:0:0:0:
112,256,269959,5,0,0:0:0:0:
152,332,270159,1,2,0:0:0:0:
196,232,270359,1,2,0:0:0:0:
224,108,270559,1,2,0:0:0:0:
356,264,270759,2,0,L|272:272,1,85,2|0,0:0|0:0,0:0:0:0:
112,256,271159,2,0,L|16:264,1,85,2|0,0:0|0:0,0:0:0:0:
8,180,271559,5,2,0:0:0:0:
8,180,271659,1,0,0:0:0:0:
8,180,271759,1,2,0:0:0:0:
80,132,271959,1,2,0:0:0:0:
164,148,272159,1,0,0:0:0:0:
80,132,272359,1,2,0:0:0:0:
164,148,272559,1,2,0:0:0:0:
244,120,272759,1,2,0:0:0:0:
244,120,272859,1,0,0:0:0:0:
244,120,272959,1,2,0:0:0:0:
244,120,273059,1,0,0:0:0:0:
244,120,273159,6,0,P|248:168|216:216,1,85,2|2,0:0|0:0,0:0:0:0:
264,280,273559,1,2,0:0:0:0:
164,148,273759,1,0,0:0:0:0:
344,256,273959,2,0,L|436:264,1,85,2|0,0:0|0:0,0:0:0:0:
104,208,274359,2,0,L|12:200,1,85,2|0,0:0|0:0,0:0:0:0:
12,116,274759,5,2,0:0:0:0:
80,64,274959,1,0,0:0:0:0:
164,68,275159,2,0,P|204:88|324:56,2,170,2|2|2,0:0|0:0|0:0,0:0:0:0:
152,152,276159,1,0,0:0:0:0:
204,220,276359,6,0,L|200:312,2,85,2|2|2,0:0|0:0|0:0,0:0:0:0:
284,188,276959,1,2,0:0:0:0:
368,196,277159,2,0,P|360:152|248:112,1,170,2|2,0:0|0:0,0:0:0:0:
236,120,277659,1,0,0:0:0:0:
220,136,277759,1,2,0:0:0:0:
212,156,277859,1,0,0:0:0:0:
204,176,277959,2,0,B|200:224|200:224|208:268,2,85,2|2|2,0:0|0:0|0:0,0:0:0:0:
84,56,278759,1,2,0:0:0:0:
88,140,278959,1,2,0:0:0:0:
84,56,279159,1,0,0:0:0:0:
252,32,279559,5,2,0:0:0:0:
332,60,279759,1,0,0:0:0:0:
384,128,279959,1,2,0:0:0:0:
384,212,280159,1,0,0:0:0:0:
328,276,280359,2,0,L|320:368,1,85,2|0,0:0|0:0,0:0:0:0:
248,312,280759,2,0,L|256:220,1,85,2|0,0:0|0:0,0:0:0:0:
196,164,281159,1,2,0:0:0:0:
116,140,281359,1,2,0:0:0:0:
52,196,281559,2,0,P|32:148|104:52,1,170,2|2,0:0|0:0,0:0:0:0:
172,76,282159,1,0,0:0:0:0:
252,104,282359,6,0,B|300:116|300:116|420:100,1,170,0|2,0:0|0:0,0:0:0:0:
468,172,282959,1,0,0:0:0:0:
404,228,283159,1,2,0:0:0:0:
368,304,283359,1,2,0:0:0:0:
288,336,283559,2,0,L|188:324,1,85,2|0,0:0|0:0,0:0:0:0:
176,244,283959,1,2,0:0:0:0:
204,164,284159,1,0,0:0:0:0:
276,116,284359,2,0,L|276:64,2,42.5,2|0|2,0:0|0:0|0:0,0:0:0:0:
284,200,284759,1,2,0:0:0:0:
144,104,285159,1,2,0:0:0:0:
88,172,285359,1,2,0:0:0:0:
72,256,285559,5,2,0:0:0:0:
100,287,285659,1,0,0:0:0:0:
139,303,285759,1,2,0:0:0:0:
180,309,285859,1,0,0:0:0:0:
221,301,285959,1,2,0:0:0:0:
