osu file format v13

[General]
AudioFilename: Star Driver - 5 Centimeters Per Second [Anime Music Video].mp3
AudioLeadIn: 0
PreviewTime: 138756
Countdown: 1
SampleSet: Normal
StackLeniency: 0.7
Mode: 0
LetterboxInBreaks: 0
WidescreenStoryboard: 0

[Editor]
Bookmarks: 24489,88487,121687,202086,253285,278884,298084
DistanceSpacing: 1.2
BeatDivisor: 4
GridSize: 4
TimelineZoom: 1

[Metadata]
Title:5 Centimeters Per Second
TitleUnicode:5 Centimeters Per Second
Artist:Star Driver
ArtistUnicode:Star Driver
Creator:Come[Back]Home
Version:Normal
Source:
Tags:Hardstyle Florian Billan D3-Structive Records
BeatmapID:556430
BeatmapSetID:239787

[Difficulty]
HPDrainRate:4
CircleSize:3.5
OverallDifficulty:4
ApproachRate:5.5
SliderMultiplier:1.2
SliderTickRate:1

[Events]
//Background and Video events
0,0,"151.jpg",0,0
//Break Periods
2,84559,102434
2,135759,137634
2,164559,176034
2,215759,220834
//Storyboard Layer 0 (Background)
//Storyboard Layer 1 (Fail)
//Storyboard Layer 2 (Pass)
//Storyboard Layer 3 (Foreground)
//Storyboard Sound Samples

[TimingPoints]
13959,400,4,2,0,70,1,0
26159,-100,4,3,0,30,0,0
26759,-100,4,2,1,70,0,0
52359,-100,4,3,0,70,0,0
52959,-100,4,2,0,70,0,0
111159,-100,4,2,0,55,0,0
189959,-100,4,1,0,70,0,1
202759,-100,4,2,0,70,0,0
203159,-100,4,1,0,70,0,1
215559,-100,4,1,0,70,0,0
227559,-100,4,2,0,70,0,0
228159,-100,4,2,0,70,0,0
241159,-100,4,1,1,70,0,1
263559,-100,4,2,0,70,0,1
266759,-100,4,2,0,70,0,0

[HitObjects]
128,192,13959,6,0,P|140:144|104:56,2,120,2|2|2,0:0|0:0|0:0,0:0:0:0:
264,244,15159,1,2,0:0:0:0:
396,192,15559,2,0,P|384:144|388:108,1,60,2|0,0:0|0:0,0:0:0:0:
348,72,15959,2,0,B|304:80|304:80|208:72,2,120,2|2|0,0:0|0:0|0:0,0:0:0:0:
388,132,16959,6,0,P|388:180|456:224,1,120,2|0,0:0|0:0,0:0:0:0:
508,248,17559,1,2,0:0:0:0:
368,288,17959,1,2,0:0:0:0:
224,308,18359,1,0,0:0:0:0:
196,240,18559,2,0,P|200:188|156:116,1,120,2|0,0:0|0:0,0:0:0:0:
164,56,19159,2,0,L|308:60,2,120,2|2|0,0:0|0:0|0:0,0:0:0:0:
284,140,20359,6,0,P|308:184|304:280,2,120,2|2|2,0:0|0:0|0:0,0:0:0:0:
140,132,21559,1,2,0:0:0:0:
60,252,21959,2,0,L|64:336,1,60,2|0,0:0|0:0,0:0:0:0:
136,344,22359,2,0,B|132:260|132:260|160:208,1,120,2|2,0:0|0:0,0:0:0:0:
292,236,23159,1,0,0:0:0:0:
256,192,23559,12,0,25159,0:0:0:0:
112,192,25959,5,0,0:0:0:0:
180,216,26159,2,0,L|264:216,2,60,4|4|4,0:0|0:0|3:0,0:0:0:0:
172,144,26759,6,0,P|136:120|48:148,2,120,2|2|2,0:0|0:0|0:0,0:0:0:0:
280,48,27959,1,2,0:0:0:0:
380,152,28359,2,0,L|368:296,2,120,2|2|2,0:0|0:0|0:0,0:0:0:0:
280,48,29559,1,0,0:0:0:0:
188,156,29959,6,0,P|196:208|164:284,1,120,2|2,0:0|0:0,0:0:0:0:
208,336,30559,2,0,L|284:328,1,60,2|2,0:0|0:0,0:0:0:0:
356,216,31159,1,2,0:0:0:0:
420,88,31559,2,0,L|432:172,2,60,2|2|2,0:0|0:0|0:0,0:0:0:0:
356,216,32359,1,2,0:0:0:0:
292,248,32559,2,0,L|280:328,2,60,2|2|0,0:0|0:0|0:0,0:0:0:0:
264,180,33159,6,0,B|240:144|240:144|232:40,2,120,2|2|2,0:0|0:0|0:0,0:0:0:0:
148,264,34359,1,2,0:0:0:0:
292,248,34759,2,0,P|328:220|316:132,2,120,2|2|2,0:0|0:0|0:0,0:0:0:0:
148,264,35959,1,2,0:0:0:0:
236,152,36359,6,0,L|224:76,1,60,2|2,0:0|0:0,0:0:0:0:
284,48,36759,1,2,0:0:0:0:
332,104,36959,2,0,B|376:112|376:112|480:108,1,120,2|0,0:0|0:0,0:0:0:0:
460,180,37559,2,0,L|384:184,1,60,2|2,0:0|0:0,0:0:0:0:
336,212,37959,2,0,L|352:344,1,120,2|2,0:0|0:0,0:0:0:0:
208,356,38759,2,0,L|200:280,1,60,2|0,0:0|0:0,0:0:0:0:
144,256,39159,1,2,0:0:0:0:
156,112,39559,6,0,P|188:84|280:108,2,120,2|2|2,0:0|0:0|0:0,0:0:0:0:
244,228,40759,2,0,P|301:239|349:206,2,120,2|2|2,0:0|0:0|0:0,0:0:0:0:
156,112,41959,1,2,0:0:0:0:
168,256,42359,1,2,0:0:0:0:
300,312,42759,6,0,P|336:296|376:296,1,60,2|0,0:0|0:0,0:0:0:0:
404,240,43159,2,0,L|384:160,1,60,2|2,0:0|0:0,0:0:0:0:
412,112,43559,2,0,P|372:108|316:184,2,120,2|2|2,0:0|0:0|0:0,0:0:0:0:
484,100,44559,2,0,P|480:139|456:168,1,60,2|2,0:0|0:0,0:0:0:0:
348,232,45159,1,2,0:0:0:0:
320,300,45359,1,2,0:0:0:0:
268,248,45559,2,0,P|268:204|292:168,1,60,2|0,0:0|0:0,0:0:0:0:
276,116,45959,6,0,B|232:120|232:120|132:96,2,120,2|2|2,0:0|0:0|0:0,0:0:0:0:
412,72,47159,1,2,0:0:0:0:
344,200,47559,2,0,P|328:248|352:336,2,120,2|2|2,0:0|0:0|0:0,0:0:0:0:
216,132,48759,1,2,0:0:0:0:
72,152,49159,6,0,L|64:232,1,60,4|0,0:0|0:0,0:0:0:0:
140,204,49559,2,0,L|132:288,1,60,4|0,0:0|0:0,0:0:0:0:
208,256,49959,2,0,L|200:340,1,60,4|0,0:0|0:0,0:0:0:0:
252,368,50359,1,2,0:0:0:0:
352,264,50759,1,0,0:0:0:0:
256,192,52359,6,0,L|256:108,2,60,4|4|4,0:0|0:0|0:0,0:0:0:0:
124,248,53159,2,0,B|128:200|128:200|108:104,2,120,4|4|4,3:0|3:0|3:0,0:0:0:0:
256,308,54359,1,4,3:0:0:0:
388,248,54759,2,0,B|384:200|384:200|404:104,1,120,4|4,3:0|3:0,0:0:0:0:
392,60,55359,2,0,L|328:44,1,60,0|4,0:0|3:0,0:0:0:0:
208,116,55959,6,0,L|288:136,2,60,4|0|4,3:0|0:0|3:0,0:0:0:0:
148,76,56559,2,0,P|135:122|191:185,1,120
232,224,57159,2,0,L|216:364,2,120,4|4|4,3:0|3:0|3:0,0:0:0:0:
288,176,58159,2,0,P|328:192|364:192,1,60,0|4,0:0|3:0,0:0:0:0:
400,60,58759,6,0,L|480:48,2,60,4|0|4,3:0|0:0|3:0,0:0:0:0:
332,40,59359,1,0,0:0:0:0:
272,80,59559,2,0,B|228:72|228:72|132:92,1,120,4|4,3:0|3:0,0:0:0:0:
100,136,60159,2,0,P|116:176|80:264,1,120
124,316,60759,1,4,3:0:0:0:
264,292,61159,2,0,L|376:282,2,90,4|0|0,3:0|0:0|0:0,0:0:0:0:
216,240,61959,6,0,P|232:204|212:108,1,120,4|4,3:0|3:0,0:0:0:0:
260,64,62559,1,0,0:0:0:0:
328,84,62759,2,0,B|372:96|372:96|472:88,2,120,4|4|4,3:0|3:0|3:0,0:0:0:0:
296,148,63759,2,0,L|310:209,1,60,0|4,0:0|3:0,0:0:0:0:
212,312,64359,2,0,L|224:232,2,60,4|0|4,0:3|0:0|3:0,0:0:0:0:
144,288,64959,1,4,3:0:0:0:
108,224,65159,6,0,L|100:76,2,120,2|2|2,0:0|0:0|0:0,0:0:0:0:
180,224,66159,1,0,0:0:0:0:
248,200,66359,2,0,P|252:244|228:276,1,60,2|0,0:0|0:0,0:0:0:0:
300,308,66759,2,0,P|344:296|432:332,1,120,2|2,0:0|0:0,0:0:0:0:
428,172,67559,1,2,0:0:0:0:
324,76,67959,2,0,L|240:84,1,60,2|0,0:0|0:0,0:0:0:0:
196,104,68359,6,0,B|208:152|208:152|184:248,2,120,2|2|2,0:0|0:0|0:0,0:0:0:0:
312,192,69559,1,2,0:0:0:0:
312,192,69959,2,0,L|328:324,2,120,2|2|2,0:0|0:0|0:0,0:0:0:0:
188,268,71159,6,0,L|108:264,1,60,2|0,0:0|0:0,0:0:0:0:
124,192,71559,2,0,P|132:148|92:64,2,120,2|2|2,0:0|0:0|0:0,0:0:0:0:
228,292,72759,1,2,0:0:0:0:
296,264,72959,2,0,L|368:272,2,60,0|2|0,0:0|0:0|0:0,0:0:0:0:
240,216,73559,2,0,B|248:172|248:172|236:72,2,120,2|2|2,0:0|0:0|0:0,0:0:0:0:
104,168,74759,5,2,0:0:0:0:
188,284,75159,1,2,0:0:0:0:
332,292,75559,2,0,P|320:208|348:160,2,120,2|2|2,0:0|0:0|0:0,0:0:0:0:
256,192,77959,12,0,84359,0:0:0:0:
256,192,103559,12,0,109959,0:0:0:0:
152,192,111159,6,0,L|128:64,1,120
368,192,112759,5,2,0:0:0:0:
368,192,112959,2,0,B|356:240|356:240|356:336,1,120
284,316,113559,2,0,L|284:232,1,60
212,272,113959,2,0,L|212:128,1,120,2|0,0:0|0:0,0:0:0:0:
140,168,114559,2,0,B|140:84|140:48,1,120
284,60,115359,1,0,0:0:0:0:
480,156,115959,1,2,0:0:0:0:
340,192,116359,6,0,P|336:236|340:272,1,60,2|0,0:0|0:0,0:0:0:0:
288,308,116759,2,0,B|248:304|248:304|148:320,1,120
92,192,117559,1,0,0:0:0:0:
148,148,117759,1,0,0:0:0:0:
432,92,118559,1,0,0:0:0:0:
404,156,118759,2,0,P|396:200|432:304,1,120,2|0,0:0|0:0,0:0:0:0:
348,308,119359,1,0,0:0:0:0:
212,52,120159,5,0,0:0:0:0:
204,124,120359,2,0,L|156:184,2,60,0|0|0,0:0|0:0|0:0,0:0:0:0:
324,44,121159,1,2,0:0:0:0:
456,104,121559,1,2,0:0:0:0:
336,184,121959,2,0,L|332:332,1,120,2|0,0:0|0:0,0:0:0:0:
192,284,122759,1,2,0:0:0:0:
260,156,123159,5,2,0:0:0:0:
188,144,123359,2,0,L|180:228,2,60,0|2|0,0:0|0:0|0:0,0:0:0:0:
188,72,123959,1,2,0:0:0:0:
188,72,124159,2,0,P|140:88|120:168,1,120
188,144,124759,2,0,P|220:180|304:168,1,120,2|2,0:0|0:0,0:0:0:0:
332,40,125559,6,0,L|408:68,1,60,2|0,0:0|0:0,0:0:0:0:
448,104,125959,2,0,L|440:244,1,120,2|2,0:0|0:0,0:0:0:0:
372,352,126759,1,2,0:0:0:0:
248,276,127159,2,0,P|216:260|196:232,1,60,2|0,0:0|0:0,0:0:0:0:
188,172,127559,2,0,P|196:124|148:48,2,120,2|2|2,0:0|0:0|0:0,0:0:0:0:
364,200,128959,5,0,0:0:0:0:
336,268,129159,2,0,P|324:312|324:348,2,60,2|0|2,0:0|0:0|0:0,0:0:0:0:
364,200,129759,2,0,P|300:204|264:252,1,120
124,260,130559,1,0,0:0:0:0:
148,192,130759,2,0,P|152:144|144:108,2,60,2|0|2,0:0|0:0|0:0,0:0:0:0:
204,240,131359,2,0,B|244:224|244:224|344:224,1,120
340,152,131959,2,0,L|252:152,2,60,2|0|2,0:0|0:0|0:0,0:0:0:0:
256,192,132559,12,0,135559,0:0:0:0:
104,88,138759,6,0,P|88:132|116:208,1,120,8|8,0:0|0:0,0:0:0:0:
252,204,139559,2,0,B|296:188|296:188|392:180,2,120,8|8|8,0:0|0:0|0:0,0:0:0:0:
204,148,140559,1,0,0:0:0:0:
268,112,140759,2,0,P|224:76|148:100,2,120,8|8|8,0:0|0:0|0:0,0:0:0:0:
204,148,141759,6,0,B|196:196|196:196|208:288,1,120,8|0,0:0|0:0,0:0:0:0:
272,240,142359,2,0,L|288:364,1,120,8|8,0:0|0:0,0:0:0:0:
356,340,142959,2,0,L|348:280,1,60,0|8,0:0|0:0,0:0:0:0:
420,284,143359,2,0,L|400:140,1,120,8|0,0:0|0:0,0:0:0:0:
472,136,143959,2,0,L|484:220,2,60,8|0|8,0:0|0:0|0:0,0:0:0:0:
328,96,144759,2,0,P|284:92|260:72,1,60,8|0,0:0|0:0,0:0:0:0:
200,72,145159,6,0,L|188:212,2,120,8|8|8,0:0|0:0|0:0,0:0:0:0:
280,192,146359,1,8,0:0:0:0:
412,248,146759,2,0,P|416:204|404:176,1,60,8|0,0:0|0:0,0:0:0:0:
344,160,147159,2,0,P|376:124|464:140,2,120,8|8|8,0:0|0:0|0:0,0:0:0:0:
344,232,148159,1,0,0:0:0:0:
300,288,148359,6,0,P|256:296|200:176,2,180,8|0|8,0:0|0:0|0:0,0:0:0:0:
404,188,149959,2,0,B|396:148|396:148|400:76,2,90,10|0|2,0:0|0:0|0:0,0:0:0:0:
344,232,150759,2,0,B|352:272|352:272|348:344,2,90,10|0|2,0:0|0:0|0:0,0:0:0:0:
272,244,151559,6,0,P|284:192|308:176,2,60,8|0|8,0:0|0:0|0:0,0:0:0:0:
136,284,152359,2,0,B|132:212|132:212|152:160,2,120,8|8|8,0:0|0:0|0:0,0:0:0:0:
208,296,153359,1,0,0:0:0:0:
280,284,153559,2,0,L|424:268,2,120,8|8|8,0:0|0:0|0:0,0:0:0:0:
236,224,154559,6,0,P|244:180|192:96,1,120,8|0,0:0|0:0,0:0:0:0:
184,48,155159,2,0,P|144:56|72:24,1,120,8|8,0:0|0:0,0:0:0:0:
16,72,155759,2,0,L|20:148,1,60,0|8,0:0|0:0,0:0:0:0:
92,128,156159,2,0,B|104:172|104:172|92:272,1,120,8|0,0:0|0:0,0:0:0:0:
168,256,156759,2,0,P|156:292|68:312,1,120,8|8,0:0|0:0,0:0:0:0:
228,316,157559,1,8,0:0:0:0:
356,336,157959,6,0,L|436:328,2,60,8|0|8,0:0|0:0|0:0,0:0:0:0:
300,204,158759,2,0,B|256:192|256:192|156:204,2,120,8|8|8,0:0|0:0|0:0,0:0:0:0:
348,260,159759,1,0,0:0:0:0:
376,196,159959,2,0,P|364:160|380:64,1,120,8|8,0:0|0:0,0:0:0:0:
228,64,160759,2,0,P|200:88|188:112,1,60,8|0,0:0|0:0,0:0:0:0:
196,180,161159,6,0,P|208:220|96:288,2,180,8|0|8,0:0|0:0|0:0,0:0:0:0:
340,172,162759,2,0,B|384:168|384:168|484:196,2,120,8|8|8,0:0|0:0|0:0,0:0:0:0:
272,300,163959,1,8,0:0:0:0:
196,180,164359,1,2,0:0:0:0:
168,196,177159,6,0,L|172:112,1,60,2|0,0:0|0:0,0:0:0:0:
228,92,177559,2,0,B|272:100|272:100|372:88,2,120,2|2|2,0:0|0:0|0:0,0:0:0:0:
264,232,178759,2,0,P|256:272|260:308,1,60,2|0,0:0|0:0,0:0:0:0:
204,340,179159,2,0,P|164:324|64:336,2,120,2|2|2,0:0|0:0|0:0,0:0:0:0:
204,196,180359,5,2,0:0:0:0:
244,136,180559,1,0,0:0:0:0:
300,92,180759,2,0,P|344:88|424:140,2,120,2|2|2,0:0|0:0|0:0,0:0:0:0:
332,232,181959,1,2,0:0:0:0:
300,296,182159,1,0,0:0:0:0:
236,328,182359,2,0,P|192:332|112:280,2,120,2|2|2,0:0|0:0|0:0,0:0:0:0:
164,188,183559,6,0,L|144:64,2,120,2|2|2,0:0|0:0|0:0,0:0:0:0:
276,100,184759,1,2,0:0:0:0:
244,240,185159,6,0,P|208:272|116:268,2,120,2|2|2,0:0|0:0|0:0,0:0:0:0:
316,116,186359,1,2,0:0:0:0:
452,164,186759,6,0,L|476:296,1,120,2|2,2:0|2:0,2:0:0:0:
336,324,187559,2,0,L|312:192,1,120,2|2,2:0|2:0,2:0:0:0:
252,76,188359,5,4,3:0:0:0:
108,64,188759,1,4,3:0:0:0:
168,196,189159,2,0,L|176:276,2,60,4|4|4,3:0|3:0|3:0,0:0:0:0:
228,152,189759,1,4,3:0:0:0:
296,172,189959,6,0,B|340:180|340:180|440:168,2,120,2|2|2,0:0|0:0|0:0,0:0:0:0:
296,100,190959,2,0,P|252:72|224:72,1,60,2|0,0:0|0:0,0:0:0:0:
128,152,191559,2,0,B|136:196|136:196|112:296,2,120,2|2|2,0:0|0:0|0:0,0:0:0:0:
172,96,192559,2,0,P|124:80|92:92,2,60,2|0|2,0:0|0:0|0:0,0:0:0:0:
212,156,193159,6,0,P|252:168|344:136,2,120,2|2|2,0:0|0:0|0:0,0:0:0:0:
188,224,194159,2,0,L|180:308,1,60,2|0,0:0|0:0,0:0:0:0:
316,332,194759,2,0,B|360:336|360:336|464:324,2,120,2|2|2,0:0|0:0|0:0,0:0:0:0:
332,260,195759,1,2,0:0:0:0:
392,220,195959,2,0,L|400:140,1,60,0|2,0:0|0:0,0:0:0:0:
356,100,196359,6,0,P|428:92|468:136,2,120,2|2|2,0:0|0:0|0:0,0:0:0:0:
292,136,197359,2,0,B|252:144|216:120,1,60,2|0,0:0|0:0,0:0:0:0:
96,88,197959,2,0,B|84:128|84:128|88:228,2,120,2|2|2,0:0|0:0|0:0,0:0:0:0:
168,104,198959,1,2,0:0:0:0:
228,60,199159,2,0,L|312:72,1,60,0|2,0:0|0:0,0:0:0:0:
348,108,199559,6,0,P|340:152|380:240,2,120,2|2|2,0:0|0:0|0:0,0:0:0:0:
276,96,200559,2,0,L|256:176,2,60,2|0|2,0:0|0:0|0:0,0:0:0:0:
204,80,201159,2,0,B|164:72|164:72|60:100,2,120,2|2|2,0:0|0:0|0:0,0:0:0:0:
348,92,202359,2,0,L|424:108,2,60,0|2|8,0:0|0:0|0:0,0:0:0:0:
288,224,203159,5,2,0:0:0:0:
156,276,203559,2,0,L|148:356,1,60,2|2,0:0|0:0,0:0:0:0:
80,316,203959,2,0,L|88:232,1,60,0|2,0:0|0:0,0:0:0:0:
92,184,204359,2,0,B|88:144|88:144|132:48,2,120,2|2|2,0:0|0:0|0:0,0:0:0:0:
228,140,205559,2,0,L|312:132,1,60,0|2,0:0|0:0,0:0:0:0:
348,172,205959,6,0,P|344:212|404:288,2,120,2|2|2,0:0|0:0|0:0,0:0:0:0:
420,168,206959,2,0,P|400:120|372:104,1,60,2|0,0:0|0:0,0:0:0:0:
256,156,207559,2,0,P|232:120|264:40,2,120,2|2|2,0:0|0:0|0:0,0:0:0:0:
248,228,208559,1,2,0:0:0:0:
176,240,208759,2,0,L|164:312,1,60,0|2,0:0|0:0,0:0:0:0:
92,300,209159,6,0,B|108:212|108:212|96:160,2,120,2|2|2,0:0|0:0|0:0,0:0:0:0:
232,336,210359,2,0,L|308:332,1,60,0|2,0:0|0:0,0:0:0:0:
348,288,210759,2,0,B|342:213|342:213|354:169,2,120,2|2|2,0:0|0:0|0:0,0:0:0:0:
456,192,211959,2,0,L|460:116,1,60,0|2,0:0|0:0,0:0:0:0:
416,72,212359,6,0,P|344:72|308:128,2,120,2|2|2,0:0|0:0|0:0,0:0:0:0:
380,136,213359,1,2,0:0:0:0:
380,208,213559,2,0,L|368:288,1,60,0|2,0:0|0:0,0:0:0:0:
256,192,213959,12,4,215559,0:0:0:0:
256,192,221959,12,0,227559,0:0:0:0:
160,192,228359,6,0,B|152:148|152:148|160:48,2,120,8|8|8,0:0|0:0|0:0,0:0:0:0:
232,200,229359,2,0,L|240:288,1,60,0|8,0:0|0:0,0:0:0:0:
296,304,229759,1,0,0:0:0:0:
368,312,229959,2,0,L|352:168,2,120,8|8|8,0:0|0:0|0:0,0:0:0:0:
232,356,231159,1,8,0:0:0:0:
172,320,231359,6,0,P|156:280|184:188,1,120
236,172,231959,2,0,P|256:136|256:96,1,60,8|0,0:0|0:0,0:0:0:0:
320,80,232359,2,0,B|344:112|344:112|360:216,1,120,8|8,0:0|0:0,0:0:0:0:
348,264,232959,2,0,P|384:292|460:264,2,120,0|0|0,0:0|0:0|0:0,0:0:0:0:
300,208,233959,1,8,0:0:0:0:
160,244,234359,1,8,0:0:0:0:
168,100,234759,6,0,P|200:96|252:24,2,120,8|8|8,0:0|0:0|0:0,0:0:0:0:
116,152,235759,2,0,L|52:152,2,60,0|8|0,0:0|0:0|0:0,0:0:0:0:
172,200,236359,6,0,P|180:240|136:312,2,120,8|8|8,0:0|0:0|0:0,0:0:0:0:
228,152,237359,2,0,P|264:160|292:152,2,60,0|8|0,0:0|0:0|0:0,0:0:0:0:
256,192,237959,12,0,239559,3:0:0:0:
216,92,240359,1,4,3:0:0:0:
284,116,240559,2,0,L|360:112,2,60,4|4|4,3:0|3:0|3:0,0:0:0:0:
268,188,241159,6,0,L|352:184,2,60,8|0|8,0:0|0:0|0:0,0:0:0:0:
180,300,241959,2,0,B|140:292|140:292|40:312,2,120,8|8|8,0:0|0:0|0:0,0:0:0:0:
248,320,242959,1,0,0:0:0:0:
316,292,243159,2,0,P|308:244|360:172,2,120,8|8|8,0:0|0:0|0:0,0:0:0:0:
248,320,244159,6,0,P|236:272|250:183,1,120,8|0,0:0|0:0,0:0:0:0:
272,60,244959,2,0,L|216:28,2,60,0|8|0,0:0|0:0|0:0,0:0:0:0:
280,132,245559,1,8,0:0:0:0:
352,140,245759,2,0,B|348:184|348:184|376:280,1,120,8|0,0:0|0:0,0:0:0:0:
304,292,246359,2,0,L|280:208,2,60,8|0|8,0:0|0:0|0:0,0:0:0:0:
180,364,247159,1,8,0:0:0:0:
100,244,247559,6,0,P|116:200|116:172,2,60,8|0|8,0:0|0:0|0:0,0:0:0:0:
164,280,248159,1,0,0:0:0:0:
228,248,248359,2,0,B|272:256|272:256|368:236,2,120,8|8|8,0:0|0:0|0:0,0:0:0:0:
252,180,249359,2,0,L|336:164,2,60,0|8|0,0:0|0:0|0:0,0:0:0:0:
232,112,249959,2,0,L|88:136,1,120,8|8,0:0|0:0,0:0:0:0:
72,192,250559,1,0,0:0:0:0:
132,236,250759,6,0,P|148:276|100:360,2,120,8|8|8,0:0|0:0|0:0,0:0:0:0:
276,220,251959,1,8,0:0:0:0:
412,168,252359,2,0,P|396:128|440:40,2,120,8|8|8,0:0|0:0|0:0,0:0:0:0:
324,284,253559,1,8,0:0:0:0:
260,156,253959,6,0,L|272:76,2,60,8|0|8,0:0|0:0|0:0,0:0:0:0:
188,144,254559,1,0,0:0:0:0:
213,211,254759,2,0,P|263:231|327:176,2,120,8|8|8,0:0|0:0|0:0,0:0:0:0:
188,144,255759,1,0,0:0:0:0:
143,200,255959,2,0,B|135:252|135:252|95:312,2,120,8|8|8,0:0|0:0|0:0,0:0:0:0:
188,144,256959,6,0,B|240:152|240:152|332:132,1,120,8|0,0:0|0:0,0:0:0:0:
344,200,257559,2,0,L|264:220,2,60,8|0|8,0:0|0:0|0:0,0:0:0:0:
348,272,258159,2,0,L|272:292,1,60,0|8,0:0|0:0,0:0:0:0:
256,352,258559,2,0,B|224:336|224:336|132:316,1,120
156,248,259159,2,0,L|92:236,2,60,8|0|8,0:0|0:0|0:0,0:0:0:0:
264,152,259959,2,0,L|344:116,1,60
392,128,260359,6,0,B|388:168|388:168|416:268,2,120,8|8|8,0:0|0:0|0:0,0:0:0:0:
252,104,261559,1,8,0:0:0:0:
140,196,261959,2,0,L|152:280,2,60,8|0|8,0:0|0:0|0:0,0:0:0:0:
252,104,262759,1,8,0:0:0:0:
316,232,263159,2,0,L|332:308,1,60,8|0,0:0|0:0,0:0:0:0:
256,192,263559,12,0,265959,0:0:0:0:
140,192,266759,6,0,L|144:116,2,60,2|2|2,0:0|0:0|0:0,0:0:0:0:
280,232,267559,2,0,B|328:220|328:220|420:228,2,120,2|2|2,0:0|0:0|0:0,0:0:0:0:
208,240,268559,1,2,0:0:0:0:
236,172,268759,2,0,P|244:124|196:44,2,120,2|2|0,0:0|0:0|0:0,0:0:0:0:
208,240,269759,6,0,P|264:244|312:176,1,120,2|2,0:0|0:0,0:0:0:0:
376,184,270359,2,2,P|376:220|356:264,2,60,2|2|2,0:0|0:0|0:0,0:0:0:0:
432,136,270959,2,0,P|400:112|360:112,1,60,2|0,0:0|0:0,0:0:0:0:
312,96,271359,2,0,B|272:100|272:100|172:72,1,120,2|0,0:0|0:0,0:0:0:0:
164,144,271959,2,0,L|240:168,2,60,2|2|2,0:0|0:0|0:0,0:0:0:0:
80,264,272759,2,0,P|116:284|148:284,1,60
208,284,273159,6,0,P|248:272|348:296,2,120,2|2|2,0:0|0:0|0:0,0:0:0:0:
304,176,274359,1,2,0:0:0:0:
420,88,274759,2,0,L|428:164,2,60,2|2|2,0:0|0:0|0:0,0:0:0:0:
280,48,275559,1,2,0:0:0:0:
196,164,275959,2,0,L|192:232,1,60
212,296,276359,6,0,B|256:284|340:316|340:316|388:264,2,180,2|2|2,0:0|0:0|0:0,0:0:0:0:
152,256,277759,1,0,0:0:0:0:
116,192,277959,2,0,L|120:104,2,60,2|2|2,0:0|0:0|0:0,0:0:0:0:
252,148,278759,2,0,L|260:68,2,60,2|2|2,0:0|0:0|0:0,0:0:0:0:
380,256,279559,6,0,L|312:280,2,60,2|2|2,0:0|0:0|0:0,0:0:0:0:
408,188,280159,1,0,0:0:0:0:
360,136,280359,2,0,B|364:92|364:92|440:28,2,120,2|2|2,0:0|0:0|0:0,0:0:0:0:
228,192,281559,2,0,P|184:192|128:120,2,120,2|2|0,0:0|0:0|0:0,0:0:0:0:
268,132,282559,6,0,B|296:100|296:100|396:84,1,120,2|2,0:0|0:0,0:0:0:0:
400,156,283159,2,0,L|328:168,2,60,2|2|2,0:0|0:0|0:0,0:0:0:0:
452,204,283759,2,0,P|452:240|444:268,1,60
388,308,284159,2,0,P|344:296|256:332,1,120,2|0,0:0|0:0,0:0:0:0:
200,320,284759,2,0,L|192:236,2,60,2|2|2,0:0|0:0|0:0,0:0:0:0:
96,220,285559,2,0,L|88:132,1,60,0|0,0:0|0:0,0:0:0:0:
132,100,285959,1,0,0:0:0:0:
