osu file format v13

[General]
AudioFilename: Star Driver - 5 Centimeters Per Second [Anime Music Video].mp3
AudioLeadIn: 0
PreviewTime: 138756
Countdown: 1
SampleSet: Soft
StackLeniency: 0.7
Mode: 0
LetterboxInBreaks: 0
WidescreenStoryboard: 0

[Editor]
Bookmarks: 24489,88487,202086,253285,278884,298084
DistanceSpacing: 1
BeatDivisor: 4
GridSize: 4
TimelineZoom: 1

[Metadata]
Title:5 Centimeters Per Second
TitleUnicode:5 Centimeters Per Second
Artist:Star Driver
ArtistUnicode:Star Driver
Creator:Come[Back]Home
Version:Hard
Source:
Tags:Hardstyle Florian Billan D3-Structive Records
BeatmapID:556326
BeatmapSetID:239787

[Difficulty]
HPDrainRate:6
CircleSize:4
OverallDifficulty:6
ApproachRate:8
SliderMultiplier:1.6
SliderTickRate:1

[Events]
//Background and Video events
0,0,"151.jpg",0,0
//Break Periods
2,84559,102809
2,135759,138009
2,164559,176409
2,215759,222809
//Storyboard Layer 0 (Background)
//Storyboard Layer 1 (Fail)
//Storyboard Layer 2 (Pass)
//Storyboard Layer 3 (Foreground)
//Storyboard Sound Samples

[TimingPoints]
13959,400,4,2,0,70,1,0
26159,-100,4,3,0,30,0,0
26759,-100,4,2,1,70,0,0
52359,-100,4,3,0,70,0,0
52959,-100,4,2,0,70,0,0
111159,-100,4,2,0,55,0,0
189959,-80,4,1,0,70,0,1
202759,-80,4,2,0,70,0,0
203159,-80,4,1,0,70,0,1
215559,-80,4,1,0,70,0,0
228159,-100,4,2,0,70,0,0
241159,-90.9090909090909,4,1,1,70,0,1
263559,-100,4,2,0,70,0,1
266759,-100,4,2,0,70,0,0

[HitObjects]
104,192,13959,6,0,B|112:152|112:152|92:24,2,160,6|2|2,0:0|0:0|0:0,0:0:0:0:
184,212,14959,1,0,0:0:0:0:
252,168,15159,1,2,0:0:0:0:
324,200,15359,1,0,0:0:0:0:
396,164,15559,2,0,P|388:120|448:28,2,160,2|2|2,0:0|0:0|0:0,0:0:0:0:
392,244,16559,1,0,0:0:0:0:
324,288,16759,1,2,0:0:0:0:
248,316,16959,6,0,B|204:304|204:304|68:312,1,160,2|0,0:0|0:0,0:0:0:0:
108,232,17559,2,0,L|192:228,1,80,2|0,0:0|0:0,0:0:0:0:
224,156,17959,2,0,L|140:160,2,80,2|2|2,0:0|0:0|0:0,0:0:0:0:
284,104,18559,2,0,P|324:116|436:60,1,160,2|0,0:0|0:0,0:0:0:0:
480,132,19159,1,2,0:0:0:0:
448,208,19359,1,0,0:0:0:0:
456,288,19559,1,2,0:0:0:0:
304,332,19959,1,0,0:0:0:0:
184,224,20359,5,2,0:0:0:0:
128,280,20559,1,0,0:0:0:0:
76,220,20759,1,2,0:0:0:0:
96,144,20959,1,0,0:0:0:0:
152,84,21159,2,0,P|196:88|240:72,1,80,2|0,0:0|0:0,0:0:0:0:
308,100,21559,2,0,B|296:148|296:148|300:272,1,160,2|2,0:0|0:0,0:0:0:0:
372,296,22159,1,2,0:0:0:0:
304,340,22359,2,0,L|140:328,1,160,2|2,0:0|0:0,0:0:0:0:
104,260,22959,1,0,0:0:0:0:
144,192,23159,1,0,0:0:0:0:
128,112,23359,1,0,0:0:0:0:
256,192,23559,12,0,25159,0:0:0:0:
136,204,25959,5,0,0:0:0:0:
100,184,26059,1,0,0:0:0:0:
84,148,26159,1,4,0:0:0:0:
88,108,26259,1,4,0:0:0:0:
112,76,26359,1,4,0:0:0:0:
148,64,26459,1,4,0:0:0:0:
188,68,26559,1,4,0:0:0:0:
216,96,26659,1,4,0:0:0:0:
232,132,26759,6,0,P|236:180|156:268,1,160,10|8,0:0|0:0,0:0:0:0:
192,340,27359,1,2,0:0:0:0:
272,328,27559,2,0,L|360:320,1,80,8|2,0:0|0:0,0:0:0:0:
420,280,27959,1,8,0:0:0:0:
352,240,28159,1,2,0:0:0:0:
420,200,28359,2,0,L|416:112,1,80,8|0,0:0|0:0,0:0:0:0:
352,76,28759,1,8,0:0:0:0:
296,132,28959,1,0,0:0:0:0:
216,120,29159,2,0,B|188:88|188:88|60:48,1,160,8|8,0:0|0:0,0:0:0:0:
32,120,29759,1,0,0:0:0:0:
88,180,29959,6,0,P|100:224|40:320,1,160,10|10,0:0|0:0,0:0:0:0:
112,364,30559,1,2,0:0:0:0:
188,340,30759,2,0,L|276:336,1,80,8|0,0:0|0:0,0:0:0:0:
328,284,31159,1,10,0:0:0:0:
412,148,31559,5,10,0:0:0:0:
412,148,31659,1,0,0:0:0:0:
412,148,31759,1,2,0:0:0:0:
340,112,31959,1,10,0:0:0:0:
188,168,32359,1,10,0:0:0:0:
176,88,32559,5,2,0:0:0:0:
188,168,32759,1,10,0:0:0:0:
164,200,32859,1,0,0:0:0:0:
128,216,32959,1,2,0:0:0:0:
56,180,33159,6,0,P|44:224|128:296,1,160,10|8,0:0|0:0,0:0:0:0:
196,276,33759,1,2,0:0:0:0:
276,264,33959,2,0,L|352:288,2,80,8|2|8,0:0|0:0|0:0,0:0:0:0:
296,184,34559,1,2,0:0:0:0:
376,168,34759,2,0,B|372:124|372:124|412:16,2,160,8|8|8,0:0|0:0|0:0,0:0:0:0:
296,184,35759,1,0,0:0:0:0:
248,120,35959,1,8,0:0:0:0:
168,104,36159,1,0,0:0:0:0:
92,132,36359,6,0,P|92:176|72:216,2,80,10|2|10,0:0|0:0|0:0,0:0:0:0:
38,68,36959,2,0,P|112:50|168:104,1,160,2|0,0:0|0:0,0:0:0:0:
92,132,37559,1,10,0:0:0:0:
92,132,37659,1,0,0:0:0:0:
92,132,37759,2,0,L|104:224,1,80,2|2,0:0|0:0,0:0:0:0:
180,200,38159,1,2,0:0:0:0:
240,144,38359,1,10,0:0:0:0:
392,92,38759,1,10,0:0:0:0:
388,172,38959,1,2,0:0:0:0:
324,220,39159,1,0,0:0:0:0:
168,244,39559,6,0,L|144:324,1,80,10|0,0:0|0:0,0:0:0:0:
64,332,39959,2,0,L|116:172,1,160,10|10,0:0|0:0,0:0:0:0:
188,148,40559,1,0,0:0:0:0:
264,172,40759,2,0,P|304:180|348:176,2,80,8|2|8,0:0|0:0|0:0,0:0:0:0:
248,92,41359,1,0,0:0:0:0:
188,148,41559,2,0,P|168:72|224:12,2,160,8|8|8,0:0|0:0|0:0,0:0:0:0:
248,92,42559,1,0,0:0:0:0:
264,172,42759,6,0,P|288:212|228:304,1,160,10|10,0:0|0:0,0:0:0:0:
160,320,43359,1,2,0:0:0:0:
96,276,43559,2,0,L|108:188,1,80,10|0,0:0|0:0,0:0:0:0:
64,128,43959,1,10,0:0:0:0:
196,36,44359,2,0,L|200:80,2,40,10|0|2,0:0|0:0|0:0,0:0:0:0:
116,24,44759,1,10,0:0:0:0:
272,52,45159,1,10,0:0:0:0:
316,120,45359,1,2,0:0:0:0:
328,200,45559,1,10,0:0:0:0:
328,200,45659,1,0,0:0:0:0:
328,200,45759,1,8,0:0:0:0:
404,228,45959,6,0,P|376:272|268:256,1,160,8|8,0:0|0:0,0:0:0:0:
224,208,46559,1,0,0:0:0:0:
196,292,46759,2,0,B|160:272|160:272|36:264,1,160,10|8,0:0|0:0,0:0:0:0:
12,188,47359,1,2,0:0:0:0:
84,152,47559,2,0,L|168:156,1,80,8|0,0:0|0:0,0:0:0:0:
140,80,47959,2,0,L|220:84,1,80,8|0,0:0|0:0,0:0:0:0:
272,144,48359,1,8,0:0:0:0:
416,80,48759,1,8,0:0:0:0:
272,144,49159,6,0,B|288:192|288:192|292:316,2,160,12|12|12,0:0|0:0|0:0,0:0:0:0:
112,124,50359,1,12,0:0:0:0:
192,264,50759,5,0,0:0:0:0:
264,232,50959,1,0,0:0:0:0:
264,232,51059,1,0,0:0:0:0:
264,232,51159,1,0,0:0:0:0:
336,268,51359,1,0,0:0:0:0:
376,264,51459,1,0,0:0:0:0:
400,232,51559,1,0,0:0:0:0:
380,156,51759,1,0,0:0:0:0:
380,156,51859,1,0,0:0:0:0:
380,156,51959,1,0,0:0:0:0:
236,92,52359,5,4,0:0:0:0:
224,172,52559,1,4,0:0:0:0:
304,164,52759,1,4,0:0:0:0:
304,164,53159,6,0,L|312:248,1,80,4|0,3:0|0:0,0:0:0:0:
372,296,53559,2,0,P|324:320|232:256,2,160,4|4|4,3:0|3:0|3:0,0:0:0:0:
440,256,54559,1,0,0:0:0:0:
424,176,54759,2,0,B|404:136|404:136|432:16,1,160,4|4,3:0|3:0,0:0:0:0:
352,32,55359,2,0,L|312:188,1,160
244,232,55959,1,4,3:0:0:0:
164,228,56159,2,0,P|136:200|120:160,1,80,0|4,0:0|3:0,0:0:0:0:
184,116,56559,2,0,P|148:92|44:152,1,160
28,212,57159,5,4,3:0:0:0:
84,268,57359,1,0,0:0:0:0:
108,344,57559,1,4,3:0:0:0:
268,340,57959,1,4,3:0:0:0:
328,288,58159,1,0,0:0:0:0:
352,212,58359,1,4,3:0:0:0:
336,132,58559,1,0,0:0:0:0:
268,88,58759,6,0,L|176:80,1,80,4|0,3:0|0:0,0:0:0:0:
124,132,59159,1,4,3:0:0:0:
120,212,59359,2,0,L|212:220,1,80,0|4,0:0|3:0,0:0:0:0:
260,168,59759,1,0,0:0:0:0:
304,236,59959,1,4,3:0:0:0:
380,264,60159,2,0,P|416:244|456:132,1,160
400,84,60759,1,4,3:0:0:0:
324,112,60959,1,0,0:0:0:0:
248,92,61159,2,0,B|200:80|200:80|88:88,2,160,4|4|4,3:0|3:0|3:0,0:0:0:0:
268,168,62159,5,0,0:0:0:0:
216,228,62359,2,0,L|204:312,1,80,4|0,3:0|0:0,0:0:0:0:
128,328,62759,2,0,L|144:228,1,80,4|0,3:0|0:0,0:0:0:0:
76,200,63159,2,0,L|60:292,1,80,4|0,3:0|0:0,0:0:0:0:
128,328,63559,1,4,3:0:0:0:
208,328,63759,1,0,0:0:0:0:
284,300,63959,2,0,B|328:312|328:312|456:304,1,160,4|4,3:0|3:0,0:0:0:0:
476,232,64559,1,0,0:0:0:0:
420,172,64759,1,4,3:0:0:0:
388,100,64959,1,4,3:0:0:0:
388,100,65059,1,0,0:0:0:0:
388,100,65159,6,0,L|304:104,1,80,4|0,3:0|0:0,0:0:0:0:
236,68,65559,1,2,0:0:0:0:
184,128,65759,2,0,L|176:208,1,80,0|2,0:0|0:0,0:0:0:0:
152,284,66159,1,0,0:0:0:0:
80,316,66359,1,2,0:0:0:0:
24,260,66559,2,0,P|40:220|20:100,1,160
84,52,67159,2,0,B|128:60|128:60|260:40,2,160,2|2|2,0:0|0:0|0:0,0:0:0:0:
24,108,68159,5,0,0:0:0:0:
100,132,68359,2,0,P|136:148|168:260,1,160,2|2,0:0|0:0,0:0:0:0:
180,336,68959,1,0,0:0:0:0:
244,288,69159,2,0,B|288:276|288:276|404:292,1,160,2|2,0:0|0:0,0:0:0:0:
480,308,69759,1,0,0:0:0:0:
456,232,69959,6,0,L|452:140,1,80,2|0,0:0|0:0,0:0:0:0:
392,100,70359,2,0,B|352:104|352:104|224:80,2,160,2|2|2,0:0|0:0|0:0,0:0:0:0:
448,44,71359,1,0,0:0:0:0:
448,164,71559,6,0,L|448:260,2,80,2|0|2,0:0|0:0|0:0,0:0:0:0:
368,164,72159,2,0,P|344:196|216:204,1,160
160,176,72759,1,2,0:0:0:0:
112,112,72959,1,0,0:0:0:0:
80,184,73159,6,0,P|96:224|128:248,2,80,2|0|2,0:0|0:0|0:0,0:0:0:0:
112,112,73759,2,0,P|60:104|4:208,1,160
80,184,74359,1,2,0:0:0:0:
160,176,74559,2,0,P|188:140|148:40,1,160
112,112,75159,1,2,0:0:0:0:
216,232,75559,1,2,0:0:0:0:
376,212,75959,1,2,0:0:0:0:
428,152,76159,1,0,0:0:0:0:
424,112,76259,1,0,0:0:0:0:
404,76,76359,1,4,0:0:0:0:
164,92,76959,5,0,0:0:0:0:
148,172,77159,1,0,0:0:0:0:
164,92,77359,2,0,B|200:64|200:64|320:44,1,160
256,192,77959,12,0,84359,0:0:0:0:
256,192,103559,12,0,109559,0:0:0:0:
256,192,109959,5,0,0:0:0:0:
128,316,111159,2,0,L|112:156,1,160,2|0,0:0|0:0,0:0:0:0:
384,60,112759,5,2,0:0:0:0:
360,136,112959,1,0,0:0:0:0:
388,212,113159,1,2,0:0:0:0:
468,352,113559,1,2,0:0:0:0:
312,324,113959,1,0,0:0:0:0:
312,324,114159,2,0,L|296:240,1,80,0|2,0:0|0:0,0:0:0:0:
256,176,114559,2,0,P|216:208|112:152,2,160,0|0|0,0:0|0:0|0:0,0:0:0:0:
44,68,115959,1,2,0:0:0:0:
188,136,116359,5,2,0:0:0:0:
172,216,116559,1,0,0:0:0:0:
188,136,116759,2,0,P|212:100|224:56,1,80,2|0,0:0|0:0,0:0:0:0:
304,64,117159,2,0,L|312:248,1,160,0|2,0:0|0:0,0:0:0:0:
376,268,117759,1,0,0:0:0:0:
64,348,118559,1,0,0:0:0:0:
124,292,118759,2,0,B|120:240|120:240|144:124,1,160,2|0,0:0|0:0,0:0:0:0:
216,104,119359,1,0,0:0:0:0:
364,248,120159,6,0,L|356:332,2,80,0|2|0,0:0|0:0|0:0,0:0:0:0:
212,300,120959,1,0,0:0:0:0:
256,192,121159,12,2,122759,0:0:0:0:
108,256,123159,5,2,0:0:0:0:
176,216,123359,1,0,0:0:0:0:
252,240,123559,1,2,0:0:0:0:
328,220,123759,1,0,0:0:0:0:
400,252,123959,1,2,0:0:0:0:
448,188,124159,2,0,P|444:144|516:52,1,160
440,12,124759,1,2,0:0:0:0:
284,44,125159,1,2,0:0:0:0:
124,36,125559,1,2,0:0:0:0:
124,36,125759,5,0,0:0:0:0:
96,116,125959,2,0,P|116:160|76:264,1,160,2|2,0:0|0:0,0:0:0:0:
52,332,126559,1,0,0:0:0:0:
132,324,126759,2,0,B|180:312|180:312|296:320,1,160,2|2,0:0|0:0,0:0:0:0:
356,364,127359,1,0,0:0:0:0:
360,284,127559,2,0,P|364:204|312:136,2,160,2|2|2,0:0|0:0|0:0,0:0:0:0:
448,152,128759,1,2,0:0:0:0:
332,40,129159,6,0,L|252:52,2,80,2|0|2,0:0|0:0|0:0,0:0:0:0:
396,88,129759,2,0,P|364:132|412:232,1,160
368,300,130359,1,2,0:0:0:0:
292,276,130559,1,0,0:0:0:0:
212,260,130759,2,0,P|168:260|132:276,2,80,2|0|2,0:0|0:0|0:0,0:0:0:0:
292,276,131359,2,0,P|288:232|184:184,1,160
144,120,131959,1,2,0:0:0:0:
216,84,132159,2,0,L|380:56,1,160,0|0,0:0|0:0,0:0:0:0:
424,120,132759,2,0,L|332:136,1,80,2|0,0:0|0:0,0:0:0:0:
300,200,133159,1,2,0:0:0:0:
256,192,133259,12,0,135559,0:0:0:0:
88,60,138759,6,0,L|176:64,1,80,8|0,0:0|0:0,0:0:0:0:
196,140,139159,1,8,0:0:0:0:
168,64,139359,1,0,0:0:0:0:
196,140,139559,2,0,L|108:136,1,80,8|0,0:0|0:0,0:0:0:0:
80,208,139959,2,0,L|168:212,1,80,8|0,0:0|0:0,0:0:0:0:
180,288,140359,5,8,0:0:0:0:
160,212,140559,1,0,0:0:0:0:
180,288,140759,2,0,L|92:284,1,80,8|0,0:0|0:0,0:0:0:0:
68,360,141159,2,0,L|236:364,1,160,8|8,0:0|0:0,0:0:0:0:
304,344,141759,6,0,B|296:304|296:304|316:172,1,160,8|0,0:0|0:0,0:0:0:0:
392,164,142359,1,8,0:0:0:0:
314,187,142559,1,0,0:0:0:0:
392,164,142759,2,0,L|376:268,2,80,8|0|8,0:0|0:0|0:0,0:0:0:0:
332,108,143359,2,0,P|288:108|232:200,1,160,8|0,0:0|0:0,0:0:0:0:
256,276,143959,2,0,P|208:276|168:248,1,80,8|0,0:0|0:0,0:0:0:0:
144,188,144359,2,0,B|156:144|156:144|128:24,1,160,8|8,0:0|0:0,0:0:0:0:
208,12,144959,1,0,0:0:0:0:
280,48,145159,5,8,0:0:0:0:
320,116,145359,1,0,0:0:0:0:
316,196,145559,1,8,0:0:0:0:
320,116,145759,1,0,0:0:0:0:
396,88,145959,2,0,L|480:96,1,80,8|0,0:0|0:0,0:0:0:0:
504,172,146359,2,0,L|412:164,1,80,8|0,0:0|0:0,0:0:0:0:
388,236,146759,1,8,0:0:0:0:
408,312,146959,1,0,0:0:0:0:
332,292,147159,2,0,B|288:280|288:280|152:296,1,160,8|8,0:0|0:0,0:0:0:0:
76,168,147959,1,8,0:0:0:0:
152,144,148159,1,0,0:0:0:0:
232,148,148359,6,0,P|276:160|380:20,2,240,8|0|8,0:0|0:0|0:0,0:0:0:0:
188,216,149759,1,0,0:0:0:0:
260,248,149959,2,0,B|256:288|256:288|272:368,2,120,8|0|0,0:0|0:0|0:0,0:0:0:0:
340,252,150759,2,0,P|328:208|256:168,2,120,8|0|0,0:0|0:0|0:0,0:0:0:0:
420,268,151559,5,8,0:0:0:0:
480,212,151759,1,0,0:0:0:0:
472,132,151959,1,8,0:0:0:0:
400,92,152159,1,0,0:0:0:0:
332,136,152359,2,0,P|316:84|400:8,1,160,8|8,0:0|0:0,0:0:0:0:
224,48,153159,1,8,0:0:0:0:
212,128,153359,1,0,0:0:0:0:
224,48,153559,2,0,P|172:56|132:152,1,160,8|8,0:0|0:0,0:0:0:0:
236,264,154359,1,8,0:0:0:0:
236,264,154559,6,0,B|280:252|280:252|404:272,1,160,8|0,0:0|0:0,0:0:0:0:
432,200,155159,2,8,L|340:184,2,80,8|0|8,0:0|0:0|0:0,0:0:0:0:
480,136,155759,1,0,0:0:0:0:
448,64,155959,1,8,0:0:0:0:
368,48,156159,2,0,P|328:60|220:16,1,160,8|0,0:0|0:0,0:0:0:0:
144,40,156759,2,0,L|136:124,2,80,8|0|8,0:0|0:0|0:0,0:0:0:0:
64,176,157559,1,8,0:0:0:0:
136,212,157759,1,0,0:0:0:0:
136,212,157959,6,0,P|176:208|244:296,1,160,8|8,0:0|0:0,0:0:0:0:
324,308,158559,1,0,0:0:0:0:
396,276,158759,2,0,L|412:184,1,80,8|0,0:0|0:0,0:0:0:0:
488,184,159159,2,0,L|480:96,1,80,8|0,0:0|0:0,0:0:0:0:
416,56,159559,1,8,0:0:0:0:
348,100,159759,1,0,0:0:0:0:
272,72,159959,2,0,B|232:64|232:64|112:84,1,160,8|8,0:0|0:0,0:0:0:0:
84,240,160759,1,8,0:0:0:0:
160,264,160959,1,0,0:0:0:0:
236,236,161159,6,0,B|312:268|312:268|348:248|396:248|396:248|480:304,2,240,8|0|8,0:0|0:0|0:0,0:0:0:0:
180,180,162559,1,0,0:0:0:0:
108,143,162759,2,0,P|169:97|240:128,2,160,8|8|8,0:0|0:0|0:0,0:0:0:0:
396,100,163959,1,8,0:0:0:0:
396,260,164359,1,8,0:0:0:0:
120,192,177159,6,0,L|128:272,1,80,2|0,0:0|0:0,0:0:0:0:
204,296,177559,2,0,B|248:288|248:288|368:304,2,160,2|2|2,0:0|0:0|0:0,0:0:0:0:
204,216,178559,1,0,0:0:0:0:
280,192,178759,6,0,L|284:112,1,80,2|0,0:0|0:0,0:0:0:0:
360,80,179159,2,0,L|352:248,2,160,2|2|2,0:0|0:0|0:0,0:0:0:0:
296,32,180159,1,0,0:0:0:0:
220,60,180359,6,0,P|176:64|140:52,1,80,2|0,0:0|0:0,0:0:0:0:
88,112,180759,2,0,P|96:156|48:256,2,160,2|2|2,0:0|0:0|0:0,0:0:0:0:
168,132,181759,1,0,0:0:0:0:
228,184,181959,5,2,0:0:0:0:
304,204,182159,1,0,0:0:0:0:
384,212,182359,2,0,B|424:192|424:192|476:80,2,160,2|2|2,0:0|0:0|0:0,0:0:0:0:
336,276,183359,1,0,0:0:0:0:
256,272,183559,6,0,P|212:264|152:280,1,80,2|0,0:0|0:0,0:0:0:0:
177,269,183859,1,0,0:0:0:0:
177,269,183959,1,2,0:0:0:0:
128,332,184159,1,0,0:0:0:0:
96,260,184359,2,0,P|112:220|160:192,1,80,2|0,0:0|0:0,0:0:0:0:
140,197,184659,1,0,0:0:0:0:
140,197,184759,1,2,0:0:0:0:
220,200,184959,1,0,0:0:0:0:
184,128,185159,6,0,P|132:116|96:128,1,80,2|0,0:0|0:0,0:0:0:0:
107,122,185459,1,0,0:0:0:0:
107,122,185559,1,2,0:0:0:0:
48,176,185759,1,0,0:0:0:0:
32,96,185959,2,0,P|52:64|112:44,1,80,2|0,0:0|0:0,0:0:0:0:
88,45,186259,1,0,0:0:0:0:
88,45,186359,1,2,0:0:0:0:
168,44,186559,1,0,0:0:0:0:
244,76,186759,6,0,L|247:36,2,40,0|0|0,0:0|0:0|0:0,0:0:0:0:
272,152,187159,1,0,0:0:0:0:
252,188,187259,1,0,0:0:0:0:
220,208,187359,1,0,0:0:0:0:
204,284,187559,2,0,L|164:284,2,40,0|0|0,0:0|0:0|0:0,0:0:0:0:
284,284,187959,1,0,0:0:0:0:
284,284,188059,1,0,0:0:0:0:
284,284,188159,2,0,P|268:336|236:356,1,80,0|4,0:0|3:0,0:0:0:0:
96,328,188759,5,4,3:0:0:0:
112,168,189159,1,4,3:0:0:0:
156,100,189359,1,4,3:0:0:0:
156,100,189459,1,0,0:0:0:0:
156,100,189559,1,4,3:0:0:0:
232,76,189759,1,4,3:0:0:0:
316,84,189959,6,0,L|324:184,1,100,6|0,0:0|0:0,0:0:0:0:
252,252,190359,2,0,L|244:144,1,100,0|2,0:0|0:0,0:0:0:0:
156,100,190759,2,0,L|164:200,1,100,0|2,0:0|0:0,0:0:0:0:
252,252,191159,1,0,0:0:0:0:
344,292,191359,1,2,0:0:0:0:
440,260,191559,6,0,P|428:204|476:120,1,150,2|2,0:0|0:0,0:0:0:0:
436,88,191959,2,0,L|332:80,1,100,2|2,0:0|0:0,0:0:0:0:
260,148,192359,1,0,0:0:0:0:
84,204,192559,2,0,L|184:212,2,100,2|2|2,0:0|0:0|0:0,0:0:0:0:
260,148,193159,6,0,P|280:208|228:296,1,150,2|2,0:0|0:0,0:0:0:0:
284,316,193559,2,0,L|384:332,1,100,2|2,0:0|0:0,0:0:0:0:
460,268,193959,1,0,0:0:0:0:
404,184,194159,2,0,P|396:120|404:80,2,100,2|2|2,0:0|0:0|0:0,0:0:0:0:
316,136,194759,6,0,B|272:116|272:116|156:104,1,150,2|2,0:0|0:0,0:0:0:0:
136,140,195159,2,0,P|152:192|140:244,1,100,2|2,0:0|0:0,0:0:0:0:
84,316,195559,1,0,0:0:0:0:
184,320,195759,2,0,L|288:308,1,100,2|2,0:0|0:0,0:0:0:0:
372,260,196159,1,2,0:0:0:0:
324,172,196359,6,0,P|320:120|380:44,1,150,2|2,0:0|0:0,0:0:0:0:
332,20,196759,2,0,L|224:28,1,100,2|2,0:0|0:0,0:0:0:0:
180,112,197159,1,0,0:0:0:0:
36,211,197359,2,0,L|136:204,2,100,2|2|2,0:0|0:0|0:0,0:0:0:0:
108,300,197959,6,0,L|264:288,1,150,2|2,0:0|0:0,0:0:0:0:
280,244,198359,2,0,P|272:188|284:144,1,100,2|2,0:0|0:0,0:0:0:0:
368,96,198759,2,0,P|376:152|364:196,2,100,0|2|2,0:0|0:0|0:0,0:0:0:0:
276,56,199359,1,2,0:0:0:0:
188,100,199559,6,0,B|136:116|136:116|24:108,1,150,2|2,0:0|0:0,0:0:0:0:
12,152,199959,2,0,L|28:256,1,100,2|2,0:0|0:0,0:0:0:0:
124,280,200359,1,0,0:0:0:0:
239,358,200559,2,0,L|224:260,1,100,2|2,0:0|0:0,0:0:0:0:
300,196,200959,1,2,0:0:0:0:
400,176,201159,6,0,B|408:124|408:124|392:76|392:76|396:28,1,150,2|2,0:0|0:0,0:0:0:0:
348,12,201559,2,0,P|296:28|248:24,1,100,2|2,0:0|0:0,0:0:0:0:
172,84,201959,1,0,0:0:0:0:
72,88,202159,2,0,P|84:28|132:0,2,100,2|2|2,0:0|0:0|0:0,0:0:0:0:
124,172,202759,1,8,0:0:0:0:
124,172,203159,6,0,B|176:188|176:188|224:184|224:184|292:208,1,150,2|2,0:0|0:0,0:0:0:0:
316,216,203559,2,0,P|320:276|304:320,1,100,2|2,0:0|0:0,0:0:0:0:
404,344,203959,1,0,0:0:0:0:
472,272,204159,1,2,0:0:0:0:
460,172,204359,6,0,P|408:144|408:48,1,150,2|2,0:0|0:0,0:0:0:0:
352,40,204759,2,0,L|244:52,1,100,2|2,0:0|0:0,0:0:0:0:
196,136,205159,2,0,L|308:120,2,100,0|2|2,0:0|0:0|0:0,0:0:0:0:
112,192,205759,1,2,0:0:0:0:
200,244,205959,6,0,B|248:264|248:264|320:344,1,150,2|2,0:0|0:0,0:0:0:0:
364,344,206359,2,0,P|380:296|376:244,1,100,2|2,0:0|0:0,0:0:0:0:
304,180,206759,1,0,0:0:0:0:
364,100,206959,2,0,L|472:80,2,100,2|2|2,0:0|0:0|0:0,0:0:0:0:
304,180,207559,6,0,P|268:132|296:28,1,150,2|2,0:0|0:0,0:0:0:0:
232,24,207959,2,0,L|128:40,1,100,2|2,0:0|0:0,0:0:0:0:
80,124,208359,1,0,0:0:0:0:
116,216,208559,2,0,P|120:272|112:320,2,100,2|2|2,0:0|0:0|0:0,0:0:0:0:
212,192,209159,6,0,B|264:204|264:204|376:192,1,150,2|2,0:0|0:0,0:0:0:0:
400,164,209559,2,0,B|384:116|384:116|380:64,1,100,2|2,0:0|0:0,0:0:0:0:
288,24,209959,2,0,L|296:136,2,100,0|2|2,0:0|0:0|0:0,0:0:0:0:
188,20,210559,1,2,0:0:0:0:
108,80,210759,6,0,B|120:160|120:160|96:260,1,150,2|2,0:0|0:0,0:0:0:0:
136,268,211159,2,0,L|240:284,1,100,2|2,0:0|0:0,0:0:0:0:
320,232,211559,1,0,0:0:0:0:
404,176,211759,1,2,0:0:0:0:
392,76,211959,2,0,L|288:60,1,100,2|2,0:0|0:0,0:0:0:0:
192,52,212359,6,0,P|192:104|92:164,1,150,2|2,0:0|0:0,0:0:0:0:
92,204,212759,2,0,L|96:304,1,100,2|2,0:0|0:0,0:0:0:0:
192,336,213159,1,0,0:0:0:0:
276,280,213359,2,0,P|332:272|376:280,2,100,2|2|2,0:0|0:0|0:0,0:0:0:0:
216,200,213959,1,4,0:0:0:0:
256,192,214059,12,4,215559,0:0:0:0:
256,192,223559,12,0,227959,0:0:0:0:
176,192,228359,6,0,P|188:148|180:100,1,80,8|0,0:0|0:0,0:0:0:0:
260,84,228759,2,0,B|304:92|304:92|432:72,2,160,8|8|8,0:0|0:0|0:0,0:0:0:0:
264,164,229759,1,0,0:0:0:0:
240,240,229959,6,0,P|204:268|152:268,1,80,8|0,0:0|0:0,0:0:0:0:
160,352,230359,2,0,L|320:360,2,160,8|8|8,0:0|0:0|0:0,0:0:0:0:
92,308,231359,6,0,P|76:272|144:188,1,160
216,152,231959,1,8,0:0:0:0:
280,104,232159,2,0,L|272:24,2,80,0|8|0,0:0|0:0|0:0,0:0:0:0:
348,144,232759,1,8,0:0:0:0:
328,220,232959,2,0,P|316:264|368:364,2,160,0|0|0,0:0|0:0|0:0,0:0:0:0:
404,200,233959,1,8,0:0:0:0:
256,144,234359,1,8,0:0:0:0:
104,196,234759,5,8,0:0:0:0:
124,120,234959,1,0,0:0:0:0:
180,176,235159,2,0,P|180:220|152:260,2,80,8|0|8,0:0|0:0|0:0,0:0:0:0:
256,36,235959,1,8,0:0:0:0:
256,36,236159,6,0,B|260:88|260:88|300:196,1,160
376,208,236759,1,8,0:0:0:0:
320,268,236959,1,0,0:0:0:0:
244,288,237159,2,0,P|208:268|88:268,1,160,8|8,0:0|0:0,0:0:0:0:
40,208,237759,1,0,0:0:0:0:
72,136,237959,2,0,B|112:124|112:124|200:40,2,160,8|8|8,0:0|0:0|0:0,0:0:0:0:
228,176,239159,1,8,0:0:0:0:
348,72,239559,5,4,3:0:0:0:
392,224,239959,1,4,3:0:0:0:
276,336,240359,1,4,3:0:0:0:
236,328,240459,1,0,0:0:0:0:
204,304,240559,1,4,3:0:0:0:
188,224,240759,2,0,L|200:184,2,40,4|0|4,3:0|0:0|3:0,0:0:0:0:
108,192,241159,5,12,0:0:0:0:
140,112,241359,1,0,0:0:0:0:
220,76,241559,2,0,L|308:72,1,88.000002685547,8|0,0:0|0:0,0:0:0:0:
372,132,241959,2,0,P|352:180|380:296,1,176.000005371094,8|8,0:0|0:0,0:0:0:0:
304,340,242559,1,0,0:0:0:0:
224,300,242759,2,0,L|216:208,2,88.000002685547,8|0|8,0:0|0:0|0:0,0:0:0:0:
48,320,243559,1,8,0:0:0:0:
124,160,243959,1,8,0:0:0:0:
124,160,244159,6,0,P|160:124|276:140,1,176.000005371094,8|0,0:0|0:0,0:0:0:0:
336,204,244759,2,0,L|432:196,1,88.000002685547,8|0,0:0|0:0,0:0:0:0:
388,276,245159,2,0,L|475:268,2,88.000002685547,8|0|8,0:0|0:0|0:0,0:0:0:0:
300,284,245759,2,0,P|256:240|288:132,1,176.000005371094,8|0,0:0|0:0,0:0:0:0:
220,72,246359,1,8,0:0:0:0:
132,88,246559,1,0,0:0:0:0:
220,72,246759,1,8,0:0:0:0:
388,120,247159,1,8,0:0:0:0:
388,120,247359,1,0,0:0:0:0:
388,120,247559,6,0,L|384:216,2,88.000002685547,8|0|8,0:0|0:0|0:0,0:0:0:0:
312,72,248159,1,0,0:0:0:0:
256,140,248359,2,0,P|248:200|144:256,2,176.000005371094,8|8|8,0:0|0:0|0:0,0:0:0:0:
184,88,249359,1,0,0:0:0:0:
132,160,249559,2,0,L|44:172,1,88.000002685547,8|0,0:0|0:0,0:0:0:0:
8,92,249959,2,0,L|96:80,1,88.000002685547,8|0,0:0|0:0,0:0:0:0:
132,160,250359,1,8,0:0:0:0:
164,240,250559,1,8,0:0:0:0:
240,288,250759,6,0,B|284:272|284:272|416:276,2,176.000005371094,8|8|8,0:0|0:0|0:0,0:0:0:0:
240,200,251759,1,0,0:0:0:0:
328,196,251959,2,0,L|424:200,1,88.000002685547,8|0,0:0|0:0,0:0:0:0:
464,124,252359,2,0,L|288:116,2,176.000005371094,8|8|8,0:0|0:0|0:0,0:0:0:0:
316,28,253559,1,8,0:0:0:0:
156,104,253959,5,12,0:0:0:0:
68,92,254159,1,0,0:0:0:0:
156,104,254359,2,0,P|148:156|156:196,1,88.000002685547,8|0,0:0|0:0,0:0:0:0:
220,252,254759,2,0,P|172:280|64:196,2,176.000005371094,8|8|8,0:0|0:0|0:0,0:0:0:0:
276,184,255759,1,0,0:0:0:0:
324,108,255959,2,0,B|372:120|372:120|496:100,2,176.000005371094,8|8|8,0:0|0:0|0:0,0:0:0:0:
252,56,256959,6,0,P|208:76|88:32,1,176.000005371094,8|0,0:0|0:0,0:0:0:0:
40,108,257559,1,8,0:0:0:0:
100,224,257759,1,0,0:0:0:0:
40,108,257959,2,0,L|20:204,1,88.000002685547,8|0,0:0|0:0,0:0:0:0:
36,280,258359,1,8,0:0:0:0:
120,304,258559,2,0,P|160:280|152:160,1,176.000005371094,8|0,0:0|0:0,0:0:0:0:
236,124,259159,2,0,L|248:32,2,88.000002685547,8|0|8,0:0|0:0|0:0,0:0:0:0:
360,252,259959,1,8,0:0:0:0:
416,184,260159,1,0,0:0:0:0:
360,252,260359,6,0,L|368:352,2,88.000002685547,8|0|8,0:0|0:0|0:0,0:0:0:0:
280,212,260959,1,0,0:0:0:0:
200,252,261159,2,0,P|188:204|272:120,2,176.000005371094,8|8|8,0:0|0:0|0:0,0:0:0:0:
128,300,262159,1,0,0:0:0:0:
112,212,262359,2,0,P|128:140|224:56,2,176.000005371094,8|8|8,0:0|0:0|0:0,0:0:0:0:
128,300,263359,1,0,0:0:0:0:
204,328,263559,1,4,0:0:0:0:
256,192,263659,12,0,266359,0:0:0:0:
108,236,266759,6,0,L|100:156,1,80,2|0,0:0|0:0,0:0:0:0:
168,112,267159,2,0,L|176:192,1,80,2|0,0:0|0:0,0:0:0:0:
252,220,267559,2,0,L|236:56,2,160,2|2|2,0:0|0:0|0:0,0:0:0:0:
328,244,268559,1,2,0:0:0:0:
395,200,268759,2,0,P|407:248|327:324,2,160,2|2|0,0:0|0:0|0:0,0:0:0:0:
328,244,269759,6,0,B|272:256|272:256|160:232,1,160,2|0,0:0|0:0,0:0:0:0:
128,168,270359,1,2,0:0:0:0:
180,108,270559,1,2,0:0:0:0:
216,36,270759,1,2,0:0:0:0:
292,64,270959,1,0,0:0:0:0:
368,40,271159,1,2,0:0:0:0:
440,184,271559,5,2,0:0:0:0:
440,184,271659,1,0,0:0:0:0:
440,184,271759,1,2,0:0:0:0:
400,252,271959,1,2,0:0:0:0:
248,296,272359,1,2,0:0:0:0:
292,228,272559,1,0,0:0:0:0:
248,296,272759,1,2,0:0:0:0:
248,296,272859,1,0,0:0:0:0:
248,296,272959,1,2,0:0:0:0:
248,296,273059,1,0,0:0:0:0:
248,296,273159,6,0,P|220:264|212:208,2,80,2|0|2,0:0|0:0|0:0,0:0:0:0:
292,228,273759,1,0,0:0:0:0:
248,160,273959,2,0,P|196:152|132:232,2,160,2|2|2,0:0|0:0|0:0,0:0:0:0:
304,104,274959,1,2,0:0:0:0:
372,144,275159,2,0,B|368:184|368:184|396:308,2,160,2|2|0,0:0|0:0|0:0,0:0:0:0:
304,104,276159,1,0,0:0:0:0:
224,120,276359,6,0,L|144:128,2,80,2|2|2,0:0|0:0|0:0,0:0:0:0:
268,184,276959,2,0,P|256:228|296:344,1,160,2|0,0:0|0:0,0:0:0:0:
368,344,277559,1,2,0:0:0:0:
400,320,277659,1,0,0:0:0:0:
420,284,277759,1,2,0:0:0:0:
432,244,277859,1,0,0:0:0:0:
432,204,277959,2,0,P|424:160|404:120,2,80,2|2|2,0:0|0:0|0:0,0:0:0:0:
300,116,278759,1,2,0:0:0:0:
236,164,278959,1,2,0:0:0:0:
156,164,279159,1,2,0:0:0:0:
156,164,279559,6,0,P|168:208|200:236,2,80,2|0|2,0:0|0:0|0:0,0:0:0:0:
236,164,280159,1,0,0:0:0:0:
196,96,280359,2,0,P|152:84|76:164,2,160,2|2|2,0:0|0:0|0:0,0:0:0:0:
236,164,281359,1,2,0:0:0:0:
308,200,281559,2,0,L|396:192,1,80,2|0,0:0|0:0,0:0:0:0:
444,248,281959,1,2,0:0:0:0:
292,300,282359,1,0,0:0:0:0:
292,300,282559,6,0,P|244:288|140:336,1,160,2|0,0:0|0:0,0:0:0:0:
84,280,283159,2,0,L|96:192,2,80,2|2|2,0:0|0:0|0:0,0:0:0:0:
196,164,283959,1,2,0:0:0:0:
348,112,284359,5,2,0:0:0:0:
348,112,284459,1,0,0:0:0:0:
348,112,284559,1,2,0:0:0:0:
316,184,284759,1,2,0:0:0:0:
380,332,285159,1,2,0:0:0:0:
308,300,285359,1,2,0:0:0:0:
228,292,285559,2,0,L|180:304,1,40,2|0,0:0|0:0,0:0:0:0:
156,276,285759,2,0,L|108:276,1,40,2|0,0:0|0:0,0:0:0:0:
92,244,285959,1,2,0:0:0:0:
