osu file format v13

[General]
AudioFilename: Star Driver - 5 Centimeters Per Second [Anime Music Video].mp3
AudioLeadIn: 0
PreviewTime: 138756
Countdown: 1
SampleSet: Soft
StackLeniency: 0.7
Mode: 0
LetterboxInBreaks: 0
WidescreenStoryboard: 0

[Editor]
Bookmarks: 24489,88487,202086,253285,278884,298084
DistanceSpacing: 0.8
BeatDivisor: 2
GridSize: 4
TimelineZoom: 1

[Metadata]
Title:5 Centimeters Per Second
TitleUnicode:5 Centimeters Per Second
Artist:Star Driver
ArtistUnicode:Star Driver
Creator:Come[Back]Home
Version:Easy
Source:
Tags:Hardstyle Florian Billan D3-Structive Records
BeatmapID:556472
BeatmapSetID:239787

[Difficulty]
HPDrainRate:2
CircleSize:3
OverallDifficulty:2
ApproachRate:3
SliderMultiplier:1.2
SliderTickRate:1

[Events]
//Background and Video events
0,0,"151.jpg",0,0
//Break Periods
2,84559,102119
2,135759,137319
2,164559,175719
2,215759,220519
//Storyboard Layer 0 (Background)
//Storyboard Layer 1 (Fail)
//Storyboard Layer 2 (Pass)
//Storyboard Layer 3 (Foreground)
//Storyboard Sound Samples

[TimingPoints]
13959,400,4,2,0,70,1,0
26759,-100,4,2,1,70,0,0
52359,-100,4,3,0,70,0,0
52959,-100,4,2,0,70,0,0
111559,-100,4,2,0,55,0,0
189959,-100,4,1,0,70,0,1
202759,-100,4,2,0,70,0,0
203159,-100,4,1,0,70,0,1
215559,-100,4,1,0,70,0,0
226759,-100,4,2,0,70,0,0
228159,-100,4,2,0,70,0,0
241159,-100,4,1,1,70,0,1
263559,-100,4,2,0,70,0,1
266759,-100,4,2,0,70,0,0

[HitObjects]
60,96,13959,6,0,P|120:116|276:40,1,240,6|2,0:0|0:0,0:0:0:0:
360,84,15159,2,0,B|356:140|356:140|372:212,2,120,2|2|2,0:0|0:0|0:0,0:0:0:0:
272,128,16359,2,0,L|256:272,1,120,2|0,0:0|0:0,0:0:0:0:
176,296,17159,6,0,P|140:284|128:108,1,240,2|0,0:0|0:0,0:0:0:0:
220,112,18359,1,0,0:0:0:0:
304,160,18759,2,0,B|360:172|360:172|428:160,2,120,2|0|0,0:0|0:0|0:0,0:0:0:0:
264,72,19959,1,2,0:0:0:0:
176,108,20359,6,0,B|156:168|156:168|164:272|164:272|136:344,1,240,2|2,0:0|0:0,0:0:0:0:
232,352,21559,1,2,0:0:0:0:
316,304,21959,2,0,P|376:288|444:304,2,120,2|2|2,0:0|0:0|0:0,0:0:0:0:
232,352,23159,1,2,0:0:0:0:
256,192,23559,12,4,25159,3:0:0:0:
256,84,26759,6,0,P|320:96|384:72,2,120,10|8|8,0:0|0:0|0:0,0:0:0:0:
168,120,27959,1,10,0:0:0:0:
88,172,28359,2,0,B|96:232|96:232|80:308,2,120,10|8|8,0:0|0:0|0:0,0:0:0:0:
168,120,29559,1,8,0:0:0:0:
256,84,29959,6,0,P|300:100|296:284,1,240,10|10,0:0|0:0,0:0:0:0:
228,300,31159,1,10,0:0:0:0:
136,332,31559,2,0,B|104:272|104:272|108:212,1,120,10|10,0:0|0:0,0:0:0:0:
68,132,32359,1,8,0:0:0:0:
248,196,33159,6,0,P|307:201|361:177,2,120,10|8|8,0:0|0:0|0:0,0:0:0:0:
200,280,34359,1,10,0:0:0:0:
160,192,34759,2,0,P|172:152|240:108,2,120,10|8|8,0:0|0:0|0:0,0:0:0:0:
200,280,35959,1,8,0:0:0:0:
292,304,36359,6,0,B|436:244|412:96,1,240,10|10,0:0|0:0,0:0:0:0:
340,56,37559,1,10,0:0:0:0:
256,104,37959,2,0,P|200:108|132:92,2,120,10|10|10,0:0|0:0|0:0,0:0:0:0:
268,200,39159,1,10,0:0:0:0:
180,236,39559,6,0,L|168:356,2,120,10|10|10,0:0|0:0|0:0,0:0:0:0:
256,180,40759,1,8,0:0:0:0:
332,236,41159,2,0,L|344:356,2,120,8|8|8,0:0|0:0|0:0,0:0:0:0:
256,180,42359,1,8,0:0:0:0:
160,164,42759,6,0,P|192:104|288:92,1,120,10|10,0:0|0:0,0:0:0:0:
328,120,43559,1,10,0:0:0:0:
344,220,43959,2,0,B|384:236|384:236|464:232,2,120,10|10|10,0:0|0:0|0:0,0:0:0:0:
256,180,45159,1,10,0:0:0:0:
168,220,45559,1,10,0:0:0:0:
80,180,45959,6,0,P|84:128|48:64,2,120,10|10|10,0:0|0:0|0:0,0:0:0:0:
168,220,47159,1,8,0:0:0:0:
260,248,47559,2,8,P|256:300|292:364,2,120,8|8|8,0:0|0:0|0:0,0:0:0:0:
276,152,48759,1,8,0:0:0:0:
368,128,49159,6,8,P|348:84|248:64,2,120,12|12|12,0:0|0:0|0:0,0:0:0:0:
428,204,50359,1,12,0:0:0:0:
484,280,50759,1,4,0:0:0:0:
312,196,51559,2,0,P|344:140|332:80,2,120,0|0|4,0:0|0:0|0:0,0:0:0:0:
252,124,52759,5,4,0:0:0:0:
164,156,53159,2,0,L|148:280,2,120,4|4|4,3:0|3:0|3:0,0:0:0:0:
176,60,54359,2,0,P|118:70|78:114,2,120,4|4|4,3:0|3:0|3:0,0:0:0:0:
252,116,55559,6,0,P|288:128|444:20,1,240,4|4,3:0|3:0,0:0:0:0:
500,108,56759,1,4,3:0:0:0:
452,192,57159,2,0,B|440:232|440:232|448:312,2,120,4|4|4,3:0|3:0|3:0,0:0:0:0:
356,184,58359,1,4,3:0:0:0:
280,244,58759,6,0,B|220:260|220:260|40:204,1,240,4|4,3:0|3:0,0:0:0:0:
20,116,59959,1,4,3:0:0:0:
112,140,60359,2,0,L|232:176,2,120,4|4|4,3:0|3:0|3:0,0:0:0:0:
84,48,61559,1,4,3:0:0:0:
180,52,61959,6,0,P|260:60|344:200,1,240,4|4,3:0|3:0,0:0:0:0:
320,276,63159,1,4,3:0:0:0:
228,296,63559,2,0,L|108:284,2,120,4|4|4,3:0|3:0|3:0,0:0:0:0:
256,204,64759,1,4,3:0:0:0:
188,136,65159,6,0,B|180:96|180:96|199:19,2,120,2|2|2,0:0|0:0|0:0,0:0:0:0:
256,204,66359,1,2,0:0:0:0:
324,136,66759,2,0,B|332:96|332:96|313:19,2,120,2|2|2,0:0|0:0|0:0,0:0:0:0:
256,204,67959,1,2,0:0:0:0:
348,236,68359,6,0,P|280:300|160:208,1,240,2|2,0:0|0:0,0:0:0:0:
188,144,69559,1,2,0:0:0:0:
260,80,69959,2,0,B|316:92|316:92|388:84,2,120,2|2|2,0:0|0:0|0:0,0:0:0:0:
188,144,71159,1,2,0:0:0:0:
112,204,71559,6,0,L|116:340,2,120,2|2|2,0:0|0:0|0:0,0:0:0:0:
188,144,72759,1,2,0:0:0:0:
276,180,73159,2,0,P|332:184|392:152,2,120,2|2|2,0:0|0:0|0:0,0:0:0:0:
188,144,74359,1,2,0:0:0:0:
120,76,74759,6,0,P|64:72|4:104,2,120,2|2|2,0:0|0:0|0:0,0:0:0:0:
188,144,75959,1,2,0:0:0:0:
260,208,76359,1,0,0:0:0:0:
256,192,77959,12,0,84359,0:0:0:0:
256,192,103559,12,0,109959,0:0:0:0:
112,192,111559,5,2,0:0:0:0:
400,192,112759,2,0,L|408:48,1,120,2|2,0:0|0:0,0:0:0:0:
216,56,113959,2,0,B|156:72|156:72|76:64,1,120,2|0,0:0|0:0,0:0:0:0:
76,160,114759,2,0,L|84:292,2,120,0|0|0,0:0|0:0|0:0,0:0:0:0:
172,172,115959,1,0,0:0:0:0:
200,264,116359,6,0,P|264:200|204:80,1,240,2|2,0:0|0:0,0:0:0:0:
296,44,117559,2,0,L|420:60,2,120,0|2|0,0:0|0:0|0:0,0:0:0:0:
200,52,118759,1,2,0:0:0:0:
176,144,119159,6,0,L|52:128,2,120,2|2|0,0:0|0:0|0:0,0:0:0:0:
252,88,120359,2,0,P|272:132|148:236,1,240
168,192,122759,6,0,B|160:252|160:252|128:312,2,120,2|2|2,0:0|0:0|0:0,0:0:0:0:
256,152,123959,1,2,0:0:0:0:
344,192,124359,2,0,B|352:252|352:252|384:312,2,120,2|2|2,0:0|0:0|0:0,0:0:0:0:
256,152,125559,1,2,0:0:0:0:
160,136,125959,6,0,P|212:64|344:120,1,240,2|2,0:0|0:0,0:0:0:0:
364,200,127159,1,2,0:0:0:0:
276,236,127559,2,0,B|272:272|272:272|292:360,2,120,2|2|2,0:0|0:0|0:0,0:0:0:0:
180,248,128759,1,2,0:0:0:0:
92,208,129159,6,0,L|88:80,2,120,2|2|2,0:0|0:0|0:0,0:0:0:0:
180,248,130359,1,2,0:0:0:0:
232,168,130759,2,0,P|264:176|352:136,2,120,2|2|2,0:0|0:0|0:0,0:0:0:0:
272,80,131959,1,2,0:0:0:0:
256,192,132359,12,0,135559,0:0:0:0:
136,192,138759,6,0,L|124:64,2,120,8|8|8,0:0|0:0|0:0,0:0:0:0:
228,220,139959,1,8,0:0:0:0:
320,192,140359,2,0,B|368:200|368:200|440:184,2,120,8|8|8,0:0|0:0|0:0,0:0:0:0:
228,220,141559,1,8,0:0:0:0:
148,272,141959,6,0,P|132:220|260:128,1,240,8|8,0:0|0:0,0:0:0:0:
324,200,143159,1,8,0:0:0:0:
388,272,143559,2,0,P|412:300|492:312,2,120,8|8|8,0:0|0:0|0:0,0:0:0:0:
324,200,144759,1,8,0:0:0:0:
252,136,145159,6,0,B|194:101|194:101|142:93,2,120,8|8|8,0:0|0:0|0:0,0:0:0:0:
324,200,146359,1,8,0:0:0:0:
256,268,146759,2,0,L|132:280,2,120,8|8|8,0:0|0:0|0:0,0:0:0:0:
324,200,147959,1,8,0:0:0:0:
256,192,148359,12,0,149959,0:0:0:0:
148,192,151559,6,0,P|156:228|116:312,2,120,12|8|8,3:0|0:0|2:0,0:0:0:0:
232,148,152759,1,8,0:0:0:0:
312,200,153159,2,0,B|368:208|368:208|440:196,2,120,8|8|8,0:0|0:0|0:0,0:0:0:0:
232,148,154359,1,8,0:0:0:0:
144,184,154759,6,0,P|140:112|296:80,1,240,8|8,0:0|0:0,0:0:0:0:
336,140,155959,1,8,0:0:0:0:
296,228,156359,2,0,L|292:352,2,120,8|8|8,0:0|0:0|0:0,0:0:0:0:
336,140,157559,1,8,0:0:0:0:
248,96,157959,6,0,P|204:96|136:52,2,120,8|8|8,0:0|0:0|0:0,0:0:0:0:
232,192,159159,1,8,0:0:0:0:
248,288,159559,2,0,P|204:288|136:332,2,120,8|8|8,0:0|0:0|0:0,0:0:0:0:
320,352,160759,1,8,0:0:0:0:
256,192,161159,12,0,164359,0:0:0:0:
172,192,177159,6,0,L|160:64,2,120,2|2|2,0:0|0:0|0:0,0:0:0:0:
256,240,178359,1,2,0:0:0:0:
340,192,178759,2,0,L|352:64,2,120,2|2|2,0:0|0:0|0:0,0:0:0:0:
256,240,179959,1,2,0:0:0:0:
168,280,180359,6,0,B|144:212|184:168|212:156|212:156|208:44,1,240,2|2,0:0|0:0,0:0:0:0:
304,36,181559,1,2,0:0:0:0:
352,120,181959,2,0,L|368:240,2,120,2|2|2,0:0|0:0|0:0,0:0:0:0:
304,36,183159,1,2,0:0:0:0:
224,88,183559,6,0,B|184:96|184:96|92:80,2,120,2|2|2,0:0|0:0|0:0,0:0:0:0:
256,180,184759,1,2,0:0:0:0:
284,272,185159,2,0,B|324:264|324:264|416:280,2,120,2|2|2,0:0|0:0|0:0,0:0:0:0:
192,304,186359,1,2,0:0:0:0:
256,192,186759,12,0,188359,0:0:0:0:
124,192,189959,6,0,L|120:68,2,120,6|2|0,0:0|0:0|0:0,0:0:0:0:
208,240,191159,1,2,0:0:0:0:
288,184,191559,2,0,B|324:172|324:172|412:164,2,120,2|2|0,0:0|0:0|0:0,0:0:0:0:
208,240,192759,1,2,0:0:0:0:
116,260,193159,6,0,P|80:216|124:48,1,240,2|0,0:0|0:0,0:0:0:0:
204,92,194359,1,2,0:0:0:0:
292,132,194759,2,0,B|332:136|332:136|412:116,2,120,2|0|0,0:0|0:0|0:0,0:0:0:0:
216,192,195959,1,2,0:0:0:0:
260,280,196359,6,0,L|380:284,2,120,2|2|0,0:0|0:0|0:0,0:0:0:0:
164,272,197559,1,2,0:0:0:0:
120,184,197959,2,0,P|132:144|212:100,2,120,2|2|0,0:0|0:0|0:0,0:0:0:0:
216,192,199159,1,2,0:0:0:0:
284,124,199559,6,0,P|328:104|432:232,1,240,2|0,0:0|0:0,0:0:0:0:
384,304,200759,1,2,0:0:0:0:
292,276,201159,2,0,B|240:264|240:264|152:272,2,120,2|0|0,0:0|0:0|0:0,0:0:0:0:
384,304,202359,1,2,0:0:0:0:
364,212,202759,1,8,0:0:0:0:
288,152,203159,6,0,P|200:152|168:116,1,120,6|0,0:0|0:0,0:0:0:0:
140,48,203959,1,2,0:0:0:0:
72,116,204359,2,0,L|60:240,2,120,2|2|0,0:0|0:0|0:0,0:0:0:0:
140,48,205559,1,2,0:0:0:0:
236,64,205959,6,0,B|268:68|268:68|360:44,2,120,2|2|0,0:0|0:0|0:0,0:0:0:0:
240,160,207159,1,2,0:0:0:0:
320,216,207559,2,0,P|312:256|332:340,2,120,2|2|0,0:0|0:0|0:0,0:0:0:0:
240,160,208759,1,2,0:0:0:0:
176,228,209159,6,0,P|152:180|280:76,1,240,2|0,0:0|0:0,0:0:0:0:
348,124,210359,1,2,0:0:0:0:
344,220,210759,2,0,B|340:264|340:264|364:344,2,120,2|2|0,0:0|0:0|0:0,0:0:0:0:
260,176,211959,1,2,0:0:0:0:
172,220,212359,6,0,P|160:176|312:92,1,240,2|0,0:0|0:0,0:0:0:0:
360,168,213559,1,2,0:0:0:0:
444,216,213959,2,0,L|460:88,2,120,0|0|0,0:0|0:0|0:0,0:0:0:0:
364,272,215159,1,0,0:0:0:0:
268,256,215559,1,4,0:0:0:0:
256,192,221959,12,0,226759,0:0:0:0:
88,192,228359,6,0,L|224:200,2,120,8|8|8,0:0|0:0|0:0,0:0:0:0:
52,104,229559,1,8,0:0:0:0:
148,108,229959,2,0,L|284:116,2,120,8|8|8,0:0|0:0|0:0,0:0:0:0:
100,24,231159,1,8,0:0:0:0:
196,24,231559,6,0,B|240:32|240:32|328:28,1,120,8|8,0:0|0:0,0:0:0:0:
380,100,232359,2,0,P|376:140|432:200,1,120,8|8,0:0|0:0,0:0:0:0:
372,280,233159,2,0,B|312:324|240:268,2,120,8|8|8,0:0|0:0|0:0,0:0:0:0:
316,204,234359,1,8,0:0:0:0:
220,204,234759,6,0,P|180:148|52:216,1,240,8|8,0:0|0:0,0:0:0:0:
12,300,235959,1,8,0:0:0:0:
104,328,236359,2,0,B|161:281|137:221,2,120,8|8|8,0:0|0:0|0:0,0:0:0:0:
196,356,237559,1,8,0:0:0:0:
256,192,237959,12,0,239559,0:0:0:0:
108,192,241159,6,0,L|100:72,2,120,12|8|8,0:0|0:0|0:0,0:0:0:0:
200,160,242359,2,0,L|208:296,1,120,8|8,0:0|0:0,0:0:0:0:
300,308,243159,2,0,L|292:168,2,120,8|8|8,0:0|0:0|0:0,0:0:0:0:
396,312,244359,6,0,P|428:288|404:104,1,240,8|8,0:0|0:0,0:0:0:0:
324,148,245559,1,8,0:0:0:0:
228,160,245959,2,0,B|192:152|192:152|140:80,2,120,8|8|8,0:0|0:0|0:0,0:0:0:0:
288,236,247159,1,8,0:0:0:0:
380,268,247559,6,0,B|416:276|416:276|468:348,2,120,8|8|8,0:0|0:0|0:0,0:0:0:0:
360,176,248759,1,8,0:0:0:0:
320,88,249159,2,0,P|378:79|430:106,2,120,8|8|8,0:0|0:0|0:0,0:0:0:0:
256,160,250359,1,8,0:0:0:0:
164,180,250759,6,0,P|180:220|344:192,2,240,8|8|8,0:0|0:0|0:0,0:0:0:0:
188,88,252759,1,8,0:0:0:0:
96,115,253159,2,0,P|72:155|84:239,1,120,8|8,0:0|0:0,0:0:0:0:
145,292,253959,6,0,P|169:252|157:168,2,120,12|8|8,0:0|0:0|0:0,0:0:0:0:
232,332,255159,2,0,B|292:316|292:316|372:320,1,120,8|8,0:0|0:0,0:0:0:0:
412,244,255959,2,0,L|288:236,2,120,8|8|8,0:0|0:0|0:0,0:0:0:0:
452,156,257159,6,0,P|424:120|248:132,1,240,8|8,0:0|0:0,0:0:0:0:
188,208,258359,1,8,0:0:0:0:
92,192,258759,2,0,B|96:152|96:152|72:68,2,120,8|8|8,0:0|0:0|0:0,0:0:0:0:
124,284,259959,1,8,0:0:0:0:
220,288,260359,6,0,P|256:280|340:304,2,120,8|8|8,0:0|0:0|0:0,0:0:0:0:
196,196,261559,1,8,0:0:0:0:
284,160,261959,2,0,L|288:40,2,120,8|8|8,0:0|0:0|0:0,0:0:0:0:
372,196,263159,1,8,0:0:0:0:
256,192,263559,12,0,265159,0:0:0:0:
136,192,266759,6,0,L|132:320,2,120,2|2|2,0:0|0:0|0:0,0:0:0:0:
44,160,267959,2,0,P|64:124|152:96,1,120,2|2,0:0|0:0,0:0:0:0:
216,148,268759,1,2,0:0:0:0:
292,204,269159,2,0,P|348:185|384:139,1,120,2|0,0:0|0:0,0:0:0:0:
384,44,269959,6,0,B|320:56|320:56|140:32,1,240,2|2,0:0|0:0,0:0:0:0:
60,76,271159,1,2,0:0:0:0:
104,160,271559,2,0,B|112:200|112:200|96:288,2,120,2|2|2,0:0|0:0|0:0,0:0:0:0:
196,136,272759,1,2,0:0:0:0:
272,192,273159,6,0,L|304:332,2,120,2|2|2,0:0|0:0|0:0,0:0:0:0:
352,140,274359,1,2,0:0:0:0:
448,140,274759,2,0,P|440:108|472:8,2,120,2|2|2,0:0|0:0|0:0,0:0:0:0:
352,140,275959,1,0,0:0:0:0:
264,100,276359,6,0,P|228:80|96:200,1,240,2|0,0:0|0:0,0:0:0:0:
164,252,277559,1,2,0:0:0:0:
256,284,277959,2,0,L|376:280,2,120,2|2|2,0:0|0:0|0:0,0:0:0:0:
236,188,279159,1,2,0:0:0:0:
328,156,279559,6,0,L|336:32,2,120,2|2|2,0:0|0:0|0:0,0:0:0:0:
236,188,280759,1,2,0:0:0:0:
148,224,281159,2,0,L|140:348,2,120,2|2|2,0:0|0:0|0:0,0:0:0:0:
236,188,282359,1,0,0:0:0:0:
324,228,282759,6,0,P|328:152|172:116,1,240,2|2,0:0|0:0,0:0:0:0:
112,148,283959,1,2,0:0:0:0:
96,244,284359,2,0,B|104:284|104:284|92:372,2,120,2|2|2,0:0|0:0|0:0,0:0:0:0:
188,216,285559,1,2,0:0:0:0:
276,256,285959,1,0,0:0:0:0:
