osu file format v14

[General]
AudioFilename: Star Driver - 5 Centimeters Per Second.mp3
AudioLeadIn: 0
PreviewTime: 163151
Countdown: 0
SampleSet: Soft
StackLeniency: 0.4
Mode: 0
LetterboxInBreaks: 0
WidescreenStoryboard: 0

[Editor]
Bookmarks: 24153,76853,102453,147253,176053,188853,201653,214453,240053,264053,291253,316851,342453
DistanceSpacing: 1
BeatDivisor: 4
GridSize: 4
TimelineZoom: 1.1

[Metadata]
Title:5 Centimeters Per Second
TitleUnicode:5 Centimeters Per Second
Artist:Star Driver
ArtistUnicode:Star Driver
Creator:Come[Back]Home
Version:Cherry Blossom
Source:
Tags:Hardstyle Florian Billan D3-Structive Records
BeatmapID:795834
BeatmapSetID:362335

[Difficulty]
HPDrainRate:7
CircleSize:5
OverallDifficulty:8.4
ApproachRate:9
SliderMultiplier:1.8
SliderTickRate:2

[Events]
//Background and Video events
0,0,"151.jpg",0,0
//Break Periods
2,109051,129051
//Storyboard Layer 0 (Background)
//Storyboard Layer 1 (Fail)
//Storyboard Layer 2 (Pass)
//Storyboard Layer 3 (Foreground)
//Storyboard Sound Samples

[TimingPoints]
51,400,4,1,0,100,1,0
12651,-133.333333333333,4,2,1,70,0,0
25651,-117.647058823529,4,2,1,70,0,0
51251,-100,4,2,1,70,0,0
63651,-200,4,2,1,70,0,0
64051,-100,4,2,1,70,0,0
76451,-200,4,2,1,70,0,0
76851,-100,4,2,1,70,0,0
107051,-100,4,2,1,40,0,0
108851,-100,4,2,1,70,0,0
135651,-117.647058823529,4,2,1,70,0,0
147251,-100,4,2,1,70,0,0
214451,-80,4,1,1,70,0,1
240051,-100,4,2,1,70,0,0
252851,-100,4,2,0,70,0,0
265651,-80,4,1,1,70,0,1
288051,-80,4,2,1,70,0,1
291251,-100,4,2,1,70,0,0
343251,-100,4,2,1,50,0,0
344051,-100,4,2,1,40,0,0
344851,-100,4,2,1,30,0,0
345651,-100,4,2,1,20,0,0
346451,-100,4,2,1,15,0,0
347251,-100,4,2,1,10,0,0
348051,-100,4,2,1,5,0,0

[Colours]
Combo1 : 224,210,112
Combo2 : 181,184,204
Combo3 : 216,139,214
Combo4 : 141,203,175

[HitObjects]
256,192,9651,12,0,12651,0:0:0:0:
132,304,12851,6,0,B|140:264|140:264|132:232,1,67.5000025749208,2|0,0:0|0:0,0:0:0:0:
80,200,13251,2,0,B|73:174|73:174|81:134,1,67.5000025749208,2|0,0:0|0:0,0:0:0:0:
144,104,13651,1,2,0:0:0:0:
268,160,14051,1,2,0:0:0:0:
388,100,14451,6,0,P|384:144|392:172,1,67.5000025749208,2|0,0:0|0:0,0:0:0:0:
440,212,14851,2,0,P|446:244|441:278,1,67.5000025749208,2|0,0:0|0:0,0:0:0:0:
400,332,15251,1,2,0:0:0:0:
272,296,15651,1,2,0:0:0:0:
136,320,16051,6,0,L|124:236,1,67.5000025749208,2|0,0:0|0:0,0:0:0:0:
72,216,16451,2,0,L|84:128,1,67.5000025749208,2|0,0:0|0:0,0:0:0:0:
40,96,16851,1,2,0:0:0:0:
176,84,17251,1,2,0:0:0:0:
284,168,17651,6,0,B|316:176|316:176|352:168,1,67.5000025749208,2|0,0:0|0:0,0:0:0:0:
380,108,18051,2,0,P|424:104|452:108,1,67.5000025749208,2|0,0:0|0:0,0:0:0:0:
492,156,18451,1,2,0:0:0:0:
440,280,18851,1,2,0:0:0:0:
320,344,19251,5,2,0:0:0:0:
252,336,19451,1,0,0:0:0:0:
184,328,19651,1,2,0:0:0:0:
116,320,19851,1,0,0:0:0:0:
156,264,20051,5,2,0:0:0:0:
224,272,20251,1,0,0:0:0:0:
292,280,20451,1,2,0:0:0:0:
360,288,20651,1,0,0:0:0:0:
332,224,20851,5,2,0:0:0:0:
264,216,21051,1,0,0:0:0:0:
196,204,21251,1,2,0:0:0:0:
128,196,21451,1,0,0:0:0:0:
168,140,21651,5,2,0:0:0:0:
236,152,21851,1,0,0:0:0:0:
304,164,22051,1,2,0:0:0:0:
372,176,22251,1,0,0:0:0:0:
348,112,22451,5,2,0:0:0:0:
381,109,22551,1,0,0:0:0:0:
412,122,22651,1,0,0:0:0:0:
433,147,22751,1,0,0:0:0:0:
439,180,22851,1,2,0:0:0:0:
429,212,22951,1,0,0:0:0:0:
404,234,23051,1,0,0:0:0:0:
371,243,23151,1,0,0:0:0:0:
338,235,23251,5,2,0:0:0:0:
334,268,23351,1,0,0:0:0:0:
318,297,23451,1,0,0:0:0:0:
290,316,23551,1,0,0:0:0:0:
257,324,23651,1,2,0:0:0:0:
223,319,23751,1,0,0:0:0:0:
196,298,23851,1,0,0:0:0:0:
182,266,23951,1,0,0:0:0:0:
186,232,24051,6,0,L|35:242,1,135.000005149842,2|2,0:0|0:0,0:0:0:0:
7,121,24851,1,2,0:0:0:0:
33,253,25251,1,2,0:0:0:0:
71,308,25451,1,0,0:0:0:0:
72,308,25651,5,14,0:0:0:0:
144,276,25851,1,2,0:0:0:0:
216,300,26051,1,2,0:0:0:0:
288,272,26251,1,2,0:0:0:0:
356,308,26451,2,0,B|400:312|400:312|448:304,1,76.5000014591217,2|0,0:0|0:0,0:0:0:0:
264,188,26851,2,0,B|220:184|220:184|172:192,1,76.5000014591217,2|0,0:0|0:0,0:0:0:0:
288,272,27251,5,2,0:0:0:0:
340,215,27451,1,2,0:0:0:0:
296,72,27651,2,0,L|289:148,1,76.5000014591217,2|0,0:0|0:0,0:0:0:0:
95,111,28052,2,0,P|102:74|126:45,1,76.5000014591217,2|0,0:0|0:0,0:0:0:0:
272,167,28451,1,2,0:0:0:0:
212,332,28651,6,0,L|368:340,1,153.000002918243,2|2,0:0|0:0,0:0:0:0:
424,292,29251,1,2,0:0:0:0:
464,356,29451,1,2,0:0:0:0:
480,208,29651,1,2,0:0:0:0:
432,364,29851,1,2,0:0:0:0:
336,236,30051,1,2,0:0:0:0:
460,184,30251,6,0,P|476:140|408:56,1,153.000002918243,2|2,0:0|0:0,0:0:0:0:
344,60,30851,1,2,0:0:0:0:
392,184,31051,1,2,0:0:0:0:
232,152,31251,2,0,B|192:156|192:156|128:152|128:152|76:160,1,153.000002918243,2|0,0:0|0:0,0:0:0:0:
40,224,31851,1,2,0:0:0:0:
84,288,32051,6,0,B|124:292|124:292|160:280,1,76.5000014591217,2|2,0:0|0:0,0:0:0:0:
158,280,32351,1,0,0:0:0:0:
158,280,32451,1,2,0:0:0:0:
204,220,32651,1,2,0:0:0:0:
304,324,32851,1,0,0:0:0:0:
384,168,33051,1,2,0:0:0:0:
384,168,33151,1,0,0:0:0:0:
384,168,33251,1,2,0:0:0:0:
408,288,33451,1,2,0:0:0:0:
496,132,33651,5,2,0:0:0:0:
332,240,33851,1,2,0:0:0:0:
440,352,34051,2,0,B|480:356|480:356|516:344,1,76.5000014591217,2|0,0:0|0:0,0:0:0:0:
368,136,34451,2,0,B|328:132|328:132|292:144,1,76.5000014591217,2|0,0:0|0:0,0:0:0:0:
256,212,34851,1,0,0:0:0:0:
268,288,35051,1,2,0:0:0:0:
80,328,35251,6,0,P|120:264|88:184,1,153.000002918243,2|0,0:0|0:0,0:0:0:0:
180,24,35851,2,0,P|140:88|172:168,1,153.000002918243,2|0,0:0|0:0,0:0:0:0:
232,192,36451,1,2,0:0:0:0:
204,264,36651,1,2,0:0:0:0:
256,192,36851,12,0,38051,0:0:0:0:
420,340,38451,5,4,0:0:0:0:
256,312,38651,1,2,0:0:0:0:
392,204,38851,1,2,0:0:0:0:
328,356,39051,1,2,0:0:0:0:
256,208,39251,2,0,P|260:160|296:120,1,76.5000014591217,2|0,0:0|0:0,0:0:0:0:
128,56,39651,2,0,L|132:148,1,76.5000014591217,2|0,0:0|0:0,0:0:0:0:
53,206,40051,5,2,0:0:0:0:
264,248,40251,1,2,0:0:0:0:
140,340,40451,2,0,B|100:344|100:344|56:332,1,76.5000014591217,2|0,0:0|0:0,0:0:0:0:
280,216,40851,2,0,B|320:212|320:212|364:224,1,76.5000014591217,2|0,0:0|0:0,0:0:0:0:
380,296,41251,1,2,0:0:0:0:
208,232,41451,6,0,B|200:188|224:164|240:152|240:152|236:116|276:96,1,153.000002918243,2|0,0:0|0:0,0:0:0:0:
340,88,42051,1,2,0:0:0:0:
176,120,42251,1,2,0:0:0:0:
384,212,42451,1,2,0:0:0:0:
312,64,42651,1,2,0:0:0:0:
268,272,42851,1,2,0:0:0:0:
156,144,43051,6,0,B|152:188|152:188|164:248|164:248|160:300,1,153.000002918243,2|0,0:0|0:0,0:0:0:0:
100,340,43651,1,2,0:0:0:0:
256,240,43851,1,2,0:0:0:0:
156,120,44051,2,0,B|112:124|112:124|72:108,1,76.5000014591217,2|0,0:0|0:0,0:0:0:0:
216,28,44451,2,0,L|308:40,1,76.5000014591217,0|2,0:0|0:0,0:0:0:0:
392,96,44851,5,6,0:0:0:0:
328,240,45051,1,2,0:0:0:0:
340,244,45151,1,0,0:0:0:0:
352,248,45251,1,2,0:0:0:0:
456,184,45451,1,2,0:0:0:0:
376,336,45651,1,0,0:0:0:0:
388,104,45851,1,2,0:0:0:0:
384,112,45951,1,0,0:0:0:0:
380,123,46051,1,2,0:0:0:0:
216,192,46251,1,2,0:0:0:0:
124,52,46451,5,6,0:0:0:0:
92,264,46651,1,2,0:0:0:0:
40,136,46851,1,2,0:0:0:0:
216,280,47051,1,0,0:0:0:0:
148,72,47251,1,2,0:0:0:0:
40,208,47451,1,0,0:0:0:0:
232,120,47651,1,0,0:0:0:0:
120,288,47851,1,2,0:0:0:0:
68,72,48051,5,4,0:0:0:0:
108,72,48151,1,0,0:0:0:0:
148,72,48251,1,0,0:0:0:0:
188,72,48351,1,0,0:0:0:0:
228,72,48451,1,0,0:0:0:0:
212,108,48551,1,0,0:0:0:0:
192,140,48651,1,0,0:0:0:0:
172,172,48751,1,0,0:0:0:0:
152,204,48851,5,4,0:0:0:0:
192,204,48951,1,0,0:0:0:0:
232,204,49051,1,0,0:0:0:0:
272,204,49151,1,0,0:0:0:0:
312,204,49251,1,0,0:0:0:0:
296,240,49351,1,0,0:0:0:0:
276,272,49451,1,0,0:0:0:0:
256,304,49551,1,0,0:0:0:0:
232,336,49651,6,0,L|328:332,1,76.5000014591217,4|0,0:0|0:0,0:0:0:0:
404,200,50051,1,0,0:0:0:0:
448,344,50251,1,0,0:0:0:0:
460,112,50451,5,0,0:0:0:0:
428,92,50551,1,0,0:0:0:0:
388,96,50651,1,0,0:0:0:0:
352,112,50751,1,0,0:0:0:0:
324,136,50851,1,8,1:0:0:0:
292,156,50951,1,0,0:0:0:0:
252,156,51051,1,0,0:0:0:0:
216,144,51151,1,0,0:0:0:0:
192,112,51251,6,0,P|188:64|212:28,1,90,10|2,0:0|0:0,0:0:0:0:
209,30,51551,1,0,0:0:0:0:
209,30,51651,1,2,0:0:0:0:
280,88,51851,1,2,0:0:0:0:
120,184,52051,1,8,0:0:0:0:
308,256,52251,1,2,0:0:0:0:
284,260,52351,1,0,0:0:0:0:
260,264,52451,1,2,0:0:0:0:
196,324,52651,1,2,0:0:0:0:
376,300,52851,6,0,P|388:256|368:204,1,90,8|0,0:0|0:0,0:0:0:0:
296,172,53251,1,0,0:0:0:0:
448,148,53451,1,0,0:0:0:0:
348,32,53651,1,8,0:0:0:0:
288,208,53851,1,0,0:0:0:0:
436,58,54051,2,0,L|448:150,1,90
288,364,54451,6,0,B|292:315|292:315|271:255,1,90,10|0,0:0|0:0,0:0:0:0:
195,312,54851,1,2,0:0:0:0:
288,208,55051,1,2,0:0:0:0:
136,232,55251,2,0,B|88:236|88:236|40:220,1,90,10|0,0:0|0:0,0:0:0:0:
224,76,55651,2,0,B|272:72|272:72|320:88,1,90,2|0,0:0|0:0,0:0:0:0:
368,240,56051,5,10,0:0:0:0:
376,212,56151,1,0,0:0:0:0:
384,188,56251,1,2,0:0:0:0:
412,328,56451,2,0,L|312:332,1,90,2|0,0:0|0:0,0:0:0:0:
256,268,56851,1,10,0:0:0:0:
392,164,57051,1,2,0:0:0:0:
220,92,57251,1,10,0:0:0:0:
244,84,57351,1,0,0:0:0:0:
268,76,57451,1,10,0:0:0:0:
192,188,57651,6,0,L|96:180,1,90,10|2,0:0|0:0,0:0:0:0:
102,180,57951,1,0,0:0:0:0:
102,180,58051,1,2,0:0:0:0:
56,256,58251,1,2,0:0:0:0:
120,84,58451,1,8,0:0:0:0:
200,320,58651,1,2,0:0:0:0:
208,292,58751,1,0,0:0:0:0:
216,264,58851,1,2,0:0:0:0:
300,236,59051,1,2,0:0:0:0:
440,348,59251,6,0,P|432:304|448:260,1,90,8|0,0:0|0:0,0:0:0:0:
500,188,59651,2,0,L|400:172,1,90
348,236,60051,1,8,0:0:0:0:
340,108,60251,1,0,0:0:0:0:
216,256,60451,1,0,0:0:0:0:
304,48,60651,1,0,0:0:0:0:
168,128,60851,5,10,0:0:0:0:
328,264,61051,1,2,0:0:0:0:
276,72,61251,1,2,0:0:0:0:
192,284,61451,2,0,P|140:304|52:224,1,180,2|0,0:0|0:0,0:0:0:0:
104,64,62051,2,0,L|152:76,1,45,2|0,0:0|0:0,0:0:0:0:
216,168,62251,2,0,L|264:156,1,45,2|0,0:0|0:0,0:0:0:0:
352,76,62451,5,10,0:0:0:0:
324,252,62651,1,2,0:0:0:0:
508,188,62851,2,0,B|448:204|448:204|352:164,1,135,2|0,0:0|0:0,0:0:0:0:
347,144,63251,5,10,0:0:0:0:
360,280,63451,1,2,0:0:0:0:
504,156,63651,6,0,L|428:168,1,67.5
296,72,64051,6,0,P|248:76|208:56,1,90,14|2,0:0|0:0,0:0:0:0:
211,58,64351,1,0,0:0:0:0:
211,58,64451,1,2,0:0:0:0:
128,96,64651,1,2,0:0:0:0:
236,232,64851,1,8,0:0:0:0:
64,308,65051,1,2,0:0:0:0:
88,312,65151,1,0,0:0:0:0:
113,316,65251,1,2,0:0:0:0:
172,172,65451,1,2,0:0:0:0:
260,324,65651,6,0,B|304:328|304:328|352:320,1,90,8|0,0:0|0:0,0:0:0:0:
456,180,66051,2,0,P|448:128|480:88,1,90
215,34,66451,2,0,B|258:52|258:52|327:39,1,90,8|0,0:0|0:0,0:0:0:0:
386,15,66851,1,0,0:0:0:0:
368,103,67051,1,0,0:0:0:0:
220,120,67251,6,0,P|176:132|96:36,1,180,10|2,0:0|0:0,0:0:0:0:
24,100,67851,1,2,0:0:0:0:
64,180,68051,2,0,P|72:224|52:268,1,90,10|0,0:0|0:0,0:0:0:0:
280,356,68451,2,0,B|272:312|272:312|292:268,1,90,2|0,0:0|0:0,0:0:0:0:
376,236,68851,5,10,0:0:0:0:
400,240,68951,1,0,0:0:0:0:
424,244,69051,1,2,0:0:0:0:
328,128,69251,2,0,L|236:136,1,90,2|0,0:0|0:0,0:0:0:0:
156,96,69651,5,10,0:0:0:0:
200,248,69851,1,2,0:0:0:0:
84,172,70051,2,0,L|92:216,1,45,10|0,0:0|0:0,0:0:0:0:
36,268,70251,2,0,L|28:320,1,45,10|0,0:0|0:0,0:0:0:0:
92,360,70451,5,10,0:0:0:0:
276,328,70651,1,2,0:0:0:0:
248,324,70751,1,0,0:0:0:0:
220,320,70851,1,2,0:0:0:0:
184,160,71051,1,2,0:0:0:0:
308,332,71251,1,8,0:0:0:0:
388,148,71451,1,2,0:0:0:0:
384,176,71551,1,0,0:0:0:0:
380,208,71651,1,2,0:0:0:0:
440,276,71851,1,2,0:0:0:0:
444,64,72051,6,0,B|400:72|400:72|344:56,1,90,8|0,0:0|0:0,0:0:0:0:
96,155,72451,2,0,B|140:147|140:147|196:163,1,90
220,244,72851,1,8,0:0:0:0:
272,92,73051,1,0,0:0:0:0:
364,220,73251,1,0,0:0:0:0:
120,316,73451,1,0,0:0:0:0:
232,208,73651,5,12,0:0:0:0:
260,348,73851,1,0,0:0:0:0:
364,144,74051,2,0,P|360:100|384:60,1,90,12|0,0:0|0:0,0:0:0:0:
176,88,74451,2,0,B|180:132|180:132|156:172,1,90,12|0,0:0|0:0,0:0:0:0:
68,192,74851,1,12,0:0:0:0:
188,292,75051,1,0,0:0:0:0:
196,76,75251,5,12,0:0:0:0:
104,272,75451,1,0,0:0:0:0:
104,272,75551,1,0,0:0:0:0:
104,272,75651,1,0,0:0:0:0:
280,216,75851,2,0,L|312:208,4,22.5
404,72,76251,1,0,0:0:0:0:
400,96,76351,1,0,0:0:0:0:
395,120,76451,6,0,L|383:192,1,67.5
432,296,76851,5,10,0:0:0:0:
404,72,77051,1,8,0:0:0:0:
280,216,77251,1,8,0:0:0:0:
280,216,77651,2,0,B|232:220|232:220|184:208,1,90,8|0,0:0|0:0,0:0:0:0:
28,328,78051,2,0,L|120:352,1,90,2|0,0:0|0:0,0:0:0:0:
360,308,78451,6,0,P|392:264|392:208,1,90,10|0,0:0|0:0,0:0:0:0:
348,152,78851,1,0,0:0:0:0:
196,244,79051,1,0,0:0:0:0:
188,52,79251,2,0,B|176:100|176:100|196:160,1,90,8|0,0:0|0:0,0:0:0:0:
264,192,79651,1,2,0:0:0:0:
104,240,79851,1,2,0:0:0:0:
292,340,80051,6,0,L|400:332,1,90,8|0,0:0|0:0,0:0:0:0:
472,156,80451,2,0,L|382:149,1,90,2|2,0:0|0:0,0:0:0:0:
176,176,80851,2,0,P|168:124|188:84,1,90,8|2,0:0|0:0,0:0:0:0:
440,112,81251,2,0,P|448:164|428:204,1,90,0|2,0:0|0:0,0:0:0:0:
348,232,81651,5,8,0:0:0:0:
456,292,81851,1,2,0:0:0:0:
408,96,82051,1,0,0:0:0:0:
360,272,82251,1,2,0:0:0:0:
244,128,82451,1,8,0:0:0:0:
440,72,82651,1,2,0:0:0:0:
228,248,82851,1,8,0:0:0:0:
328,60,83051,1,8,0:0:0:0:
440,200,83251,5,14,0:0:0:0:
284,192,83451,1,2,0:0:0:0:
408,68,83651,1,2,0:0:0:0:
372,260,83851,1,2,0:0:0:0:
296,84,84051,2,0,B|248:96|248:96|104:68,1,180,10|2,0:0|0:0,0:0:0:0:
44,24,84651,1,2,0:0:0:0:
20,112,84851,6,0,L|24:220,1,90,8|0,0:0|0:0,0:0:0:0:
216,352,85251,2,0,P|219:307|188:248,1,90,0|2,0:0|0:0,0:0:0:0:
116,244,85651,1,10,0:0:0:0:
272,176,85851,1,2,0:0:0:0:
108,88,86051,1,0,0:0:0:0:
72,324,86251,1,2,0:0:0:0:
288,208,86451,6,0,B|340:212|340:212|392:200,1,90,8|0,0:0|0:0,0:0:0:0:
208,55,86851,2,0,B|156:51|156:51|120:60,1,90,0|2,0:0|0:0,0:0:0:0:
76,140,87251,1,10,0:0:0:0:
244,124,87451,1,2,0:0:0:0:
176,224,87651,1,0,0:0:0:0:
116,48,87851,1,2,0:0:0:0:
252,200,88051,6,0,P|296:184|312:128,1,90,10|2,0:0|0:0,0:0:0:0:
313,146,88351,1,0,0:0:0:0:
313,146,88451,1,2,0:0:0:0:
388,364,88651,2,0,L|298:356,1,90,2|8,0:0|0:0,0:0:0:0:
440,240,89051,1,2,0:0:0:0:
448,216,89151,1,0,0:0:0:0:
456,192,89251,1,10,0:0:0:0:
288,240,89451,1,10,0:0:0:0:
292,284,89551,1,0,0:0:0:0:
296,328,89651,6,0,B|252:336|252:336|204:320,1,90,10|0,0:0|0:0,0:0:0:0:
160,248,90051,1,2,0:0:0:0:
72,352,90251,1,0,0:0:0:0:
44,160,90451,1,10,0:0:0:0:
209,321,90651,1,0,0:0:0:0:
240,136,90851,1,2,0:0:0:0:
60,188,91051,1,0,0:0:0:0:
200,60,91251,6,0,P|248:52|292:68,1,90,10|0,0:0|0:0,0:0:0:0:
324,148,91651,1,2,0:0:0:0:
400,32,91851,1,0,0:0:0:0:
468,228,92051,1,10,0:0:0:0:
372,48,92251,1,0,0:0:0:0:
264,244,92451,1,2,0:0:0:0:
472,268,92651,1,0,0:0:0:0:
324,148,92851,6,0,P|272:136|148:196,1,180,10|2,0:0|0:0,0:0:0:0:
91,320,93451,1,0,0:0:0:0:
100,325,93551,1,0,0:0:0:0:
108,328,93651,6,0,L|288:340,1,180,10|2,0:0|0:0,0:0:0:0:
417,289,94251,1,0,0:0:0:0:
406,291,94351,1,0,0:0:0:0:
396,292,94451,6,0,P|352:276|392:172,1,180,10|2,0:0|0:0,0:0:0:0:
472,160,95051,1,0,0:0:0:0:
400,104,95251,2,0,B|352:108|352:108|312:88,1,90,10|0,0:0|0:0,0:0:0:0:
252,24,95651,1,10,0:0:0:0:
88,100,95851,1,8,0:0:0:0:
304,204,96051,5,14,0:0:0:0:
140,236,96251,1,0,0:0:0:0:
208,124,96451,1,6,0:0:0:0:
51,229,96651,2,0,B|38:282|38:282|112:306|140:234,1,180
48,92,97251,2,0,L|172:84,1,90,6|0,0:0|0:0,0:0:0:0:
304,232,97651,5,14,0:0:0:0:
187,130,97851,1,0,0:0:0:0:
355,39,98051,1,6,0:0:0:0:
223,76,98251,2,0,P|251:138|168:193,1,180
104,148,98851,1,6,0:0:0:0:
112,236,99051,1,0,0:0:0:0:
168,308,99251,6,0,B|232:328|232:328|288:312,1,90,14|0,0:0|0:0,0:0:0:0:
432,164,99651,2,0,B|368:144|368:144|312:160,1,90,6|0,0:0|0:0,0:0:0:0:
296,224,100051,1,14,0:0:0:0:
380,256,100251,1,0,0:0:0:0:
248,148,100451,1,6,0:0:0:0:
196,224,100651,1,0,0:0:0:0:
188,76,100851,6,0,P|280:108|344:56,1,180,10|0,0:0|0:0,0:0:0:0:
260,20,101451,1,2,0:0:0:0:
409,111,101651,2,0,L|399:211,1,90,2|2,0:0|0:0,0:0:0:0:
500,350,102251,1,2,0:0:0:0:
256,192,102451,12,0,107051,0:0:0:0:
256,192,107251,12,12,108851,0:0:0:0:
256,192,129651,12,2,134451,0:0:0:0:
120,312,135651,6,0,L|303:324,1,153.000002918243,2|2,0:0|0:0,0:0:0:0:
468,52,137251,1,2,0:0:0:0:
408,120,137451,2,0,B|347:153|347:153|317:108|256:84|190:138,1,229.500004377365,2|0,0:0|0:0,0:0:0:0:
266,196,138251,5,2,0:0:0:0:
354,220,138451,1,2,0:0:0:0:
285,281,138651,2,0,P|235:283|180:188,1,153.000002918243,2|2,0:0|0:0,0:0:0:0:
40,329,139451,2,0,L|64:146,1,153.000002918243,2|2,0:0|0:0,0:0:0:0:
304,49,140451,1,2,0:0:0:0:
240,220,140851,5,2,0:0:0:0:
372,196,141051,1,2,0:0:0:0:
268,132,141251,1,2,0:0:0:0:
320,272,141451,1,2,0:0:0:0:
356,112,141651,2,0,P|416:120|452:227,1,153.000002918243,2|0,0:0|0:0,0:0:0:0:
427,281,142251,1,2,0:0:0:0:
128,92,143051,5,2,0:0:0:0:
60,152,143251,2,0,L|85:338,1,153.000002918243,2|0,0:0|0:0,0:0:0:0:
153,359,143851,1,2,0:0:0:0:
344,52,144651,5,2,0:0:0:0:
400,120,144851,2,0,B|408:168|408:168|400:213,1,76.5000014591217,2|2,0:0|0:0,0:0:0:0:
477,363,145451,2,0,B|288:343|288:343|257:279,1,229.500004377365,2|0,0:0|0:0,0:0:0:0:
172,152,146451,2,0,L|158:328,1,153.000002918243,2|0,0:0|0:0,0:0:0:0:
320,356,147251,5,10,0:0:0:0:
320,356,147451,1,0,0:0:0:0:
280,276,147651,1,2,0:0:0:0:
280,276,147851,1,0,0:0:0:0:
340,208,148051,1,2,0:0:0:0:
340,208,148251,1,0,0:0:0:0:
284,140,148451,1,2,0:0:0:0:
284,140,148651,1,0,0:0:0:0:
340,68,148851,6,0,B|384:64|384:64|432:72,1,90,10|0,0:0|0:0,0:0:0:0:
476,148,149251,2,0,B|432:152|432:152|384:144,1,90,2|0,0:0|0:0,0:0:0:0:
336,220,149651,2,0,B|380:216|380:216|428:224,2,90,2|0|2,0:0|0:0|0:0,0:0:0:0:
204,300,150251,1,0,0:0:0:0:
204,300,150351,1,0,0:0:0:0:
204,300,150451,6,0,P|228:240|140:172,1,180,10|2,0:0|0:0,0:0:0:0:
113,335,151051,1,0,0:0:0:0:
113,335,151151,1,0,0:0:0:0:
113,335,151251,2,0,B|157:327|157:327|253:335|253:335|309:327,1,180,2|2,0:0|0:0,0:0:0:0:
411,256,151851,1,0,0:0:0:0:
411,256,151951,1,0,0:0:0:0:
411,256,152051,5,2,0:0:0:0:
469,165,152251,1,0,0:0:0:0:
344,100,152451,1,2,0:0:0:0:
344,208,152651,1,0,0:0:0:0:
252,150,152851,2,0,P|208:158|156:138,1,90,2|0,0:0|0:0,0:0:0:0:
80,78,153251,1,2,0:0:0:0:
80,78,153451,1,0,0:0:0:0:
88,240,153651,5,10,0:0:0:0:
236,276,153851,1,0,0:0:0:0:
172,104,154051,1,2,0:0:0:0:
216,312,154251,2,0,B|272:328|272:328|400:304,1,180
440,232,154851,1,2,0:0:0:0:
440,232,155051,1,0,0:0:0:0:
388,76,155251,5,10,0:0:0:0:
284,204,155451,1,0,0:0:0:0:
456,144,155651,1,2,0:0:0:0:
296,112,155851,2,0,P|244:124|168:32,1,180
167,38,156451,1,2,0:0:0:0:
84,76,156651,1,0,0:0:0:0:
40,156,156851,6,0,B|44:200|44:200|28:256,1,90,10|0,0:0|0:0,0:0:0:0:
144,348,157251,2,0,P|140:304|176:256,1,90,2|0,0:0|0:0,0:0:0:0:
268,120,157651,2,0,L|280:224,1,90,2|0,0:0|0:0,0:0:0:0:
360,248,158051,1,2,0:0:0:0:
360,248,158251,1,0,0:0:0:0:
268,92,158451,6,0,L|180:108,1,90,10|0,0:0|0:0,0:0:0:0:
56,200,158851,1,2,0:0:0:0:
144,216,159051,1,0,0:0:0:0:
320,340,159251,2,0,B|272:348|272:348|232:336,1,90,10|0,0:0|0:0,0:0:0:0:
208,156,159651,1,2,0:0:0:0:
144,216,159851,1,0,0:0:0:0:
52,24,160051,5,14,0:0:0:0:
256,192,160151,12,8,162851,0:0:0:0:
136,332,163251,5,10,0:0:0:0:
152,160,163451,1,2,0:0:0:0:
256,300,163651,1,2,0:0:0:0:
100,336,163851,1,2,0:0:0:0:
184,140,164051,2,0,L|296:148,1,90,10|0,0:0|0:0,0:0:0:0:
456,256,164451,2,0,L|352:264,1,90,10|0,0:0|0:0,0:0:0:0:
288,80,164851,5,10,0:0:0:0:
216,296,165051,1,2,0:0:0:0:
384,164,165251,2,0,P|432:168|480:144,1,90,2|0,0:0|0:0,0:0:0:0:
288,80,165651,2,0,L|192:88,1,90,10|0,0:0|0:0,0:0:0:0:
116,56,166051,1,10,0:0:0:0:
40,308,166251,6,0,B|48:260|48:260|36:184|36:184|48:120,1,180,2|2,0:0|0:0,0:0:0:0:
200,208,166851,1,2,0:0:0:0:
64,108,167051,1,2,0:0:0:0:
60,328,167251,1,10,0:0:0:0:
136,144,167451,1,2,0:0:0:0:
224,308,167651,1,10,0:0:0:0:
320,96,167851,6,0,P|304:160|400:216,1,180,2|2,0:0|0:0,0:0:0:0:
444,148,168451,1,2,0:0:0:0:
480,232,168651,1,2,0:0:0:0:
424,304,168851,2,0,P|372:312|232:256,1,180,10|8,0:0|0:0,0:0:0:0:
208,196,169451,1,2,0:0:0:0:
148,264,169651,5,10,0:0:0:0:
116,104,169851,1,2,0:0:0:0:
44,308,170051,1,2,0:0:0:0:
240,208,170251,1,2,0:0:0:0:
88,104,170451,2,0,L|-16:112,1,90,10|0,0:0|0:0,0:0:0:0:
152,296,170851,2,0,L|256:304,1,90,10|0,0:0|0:0,0:0:0:0:
320,260,171251,5,10,0:0:0:0:
408,372,171451,1,2,0:0:0:0:
480,188,171651,2,0,B|488:140|488:140|476:80,1,90,2|0,0:0|0:0,0:0:0:0:
240,32,172051,2,0,B|220:84|276:124,1,90,10|0,0:0|0:0,0:0:0:0:
176,296,172451,2,0,L|200:200,1,90,8|2,0:0|0:0,0:0:0:0:
132,148,172851,6,0,B|208:176|208:176|312:132,1,180,10|0,0:0|0:0,0:0:0:0:
352,64,173451,2,0,P|328:124|420:180,1,180,2|0,0:0|0:0,0:0:0:0:
480,128,174051,1,10,0:0:0:0:
492,216,174251,1,0,0:0:0:0:
460,300,174451,6,0,B|416:308|416:308|360:292,1,90,8|0,0:0|0:0,0:0:0:0:
300,240,174851,2,0,B|256:227|256:227|212:235,1,90
148,300,175251,1,8,0:0:0:0:
236,304,175451,1,0,0:0:0:0:
188,380,175651,1,8,0:0:0:0:
100,376,175851,1,0,0:0:0:0:
72,184,176051,5,14,0:0:0:0:
232,276,176251,1,2,0:0:0:0:
100,376,176451,1,2,0:0:0:0:
152,160,176651,1,2,0:0:0:0:
280,340,176851,2,0,B|328:344|328:344|376:332,1,90,10|0,0:0|0:0,0:0:0:0:
456,188,177251,2,0,B|408:184|408:184|360:196,1,90,10|0,0:0|0:0,0:0:0:0:
444,352,177651,5,10,0:0:0:0:
488,192,177851,1,2,0:0:0:0:
292,264,178051,2,0,P|248:272|196:256,1,90,2|0,0:0|0:0,0:0:0:0:
80,100,178451,2,0,B|124:92|124:92|176:108,1,90,10|0,0:0|0:0,0:0:0:0:
232,168,178851,1,10,0:0:0:0:
424,272,179051,6,0,L|232:296,1,180,2|2,0:0|0:0,0:0:0:0:
164,256,179651,1,2,0:0:0:0:
132,340,179851,1,2,0:0:0:0:
68,196,180051,2,0,B|76:148|76:148|56:104,1,90,10|2,0:0|0:0,0:0:0:0:
12,36,180451,1,10,0:0:0:0:
208,120,180651,6,0,P|256:132|356:56,1,180,2|2,0:0|0:0,0:0:0:0:
436,20,181251,1,2,0:0:0:0:
468,104,181451,1,2,0:0:0:0:
408,172,181651,2,0,B|404:224|404:224|412:316|412:316|408:360,1,180,10|8,0:0|0:0,0:0:0:0:
320,376,182251,1,2,0:0:0:0:
128,300,182451,5,10,0:0:0:0:
256,184,182651,1,2,0:0:0:0:
296,348,182851,1,2,0:0:0:0:
348,152,183051,1,2,0:0:0:0:
160,208,183251,2,0,P|112:208|72:192,1,90,10|0,0:0|0:0,0:0:0:0:
304,260,183651,2,0,P|352:260|392:244,1,90,10|0,0:0|0:0,0:0:0:0:
432,100,184051,5,10,0:0:0:0:
416,312,184251,1,2,0:0:0:0:
312,144,184451,2,0,B|300:96|300:96|316:56,1,90,2|0,0:0|0:0,0:0:0:0:
92,124,184851,2,0,B|104:172|104:172|88:212,1,90,10|0,0:0|0:0,0:0:0:0:
8,252,185251,1,8,0:0:0:0:
88,292,185451,1,2,0:0:0:0:
168,336,185651,6,0,L|356:324,1,180,10|0,0:0|0:0,0:0:0:0:
420,272,186251,2,0,P|384:220|464:128,1,180,2|0,0:0|0:0,0:0:0:0:
400,48,186851,2,0,L|296:60,1,90,10|0,0:0|0:0,0:0:0:0:
168,112,187251,5,8,0:0:0:0:
256,132,187451,1,0,0:0:0:0:
92,156,187651,2,0,P|80:200|96:244,1,90
184,260,188051,1,8,0:0:0:0:
49,320,188251,1,0,0:0:0:0:
200,348,188451,2,0,L|300:344,1,90,8|0,0:0|0:0,0:0:0:0:
360,288,188851,5,10,0:0:0:0:
420,220,189051,2,0,L|412:172,2,45,0|0|2,0:0|0:0|0:0,0:0:0:0:
344,176,189451,2,0,L|352:128,2,45,0|0|2,0:0|0:0|0:0,0:0:0:0:
264,216,189851,1,0,0:0:0:0:
244,223,189951,1,0,0:0:0:0:
220,232,190051,2,0,L|176:248,2,45,2|0|0,0:0|0:0|0:0,0:0:0:0:
97,328,190451,5,2,0:0:0:0:
47,139,190651,1,0,0:0:0:0:
50,168,190751,1,0,0:0:0:0:
54,199,190851,1,2,0:0:0:0:
146,97,191051,2,0,L|150:66,4,22.5,0|0|0|0|2,0:0|0:0|0:0|0:0|0:0,0:0:0:0:
225,138,191451,1,0,0:0:0:0:
248,135,191551,1,0,0:0:0:0:
269,132,191651,1,2,0:0:0:0:
418,232,192051,5,2,0:0:0:0:
438,144,192251,1,0,0:0:0:0:
431,116,192351,1,0,0:0:0:0:
425,86,192451,1,2,0:0:0:0:
323,198,192651,1,0,0:0:0:0:
317,228,192751,1,0,0:0:0:0:
310,256,192851,1,2,0:0:0:0:
184,148,193051,1,0,0:0:0:0:
177,120,193151,1,0,0:0:0:0:
171,90,193251,1,2,0:0:0:0:
89,52,193451,1,0,0:0:0:0:
45,250,193651,5,2,0:0:0:0:
115,306,193851,2,0,L|163:310,2,45,0|0|2,0:0|0:0|0:0,0:0:0:0:
176,240,194251,2,0,L|234:235,2,45,0|0|2,0:0|0:0|0:0,0:0:0:0:
228,166,194651,2,0,L|274:158,2,45,0|0|2,0:0|0:0|0:0,0:0:0:0:
138,155,195051,1,0,0:0:0:0:
332,258,195251,5,2,0:0:0:0:
200,341,195451,1,0,0:0:0:0:
174,345,195551,1,0,0:0:0:0:
143,344,195651,1,2,0:0:0:0:
54,163,195851,1,0,0:0:0:0:
50,191,195951,1,0,0:0:0:0:
47,217,196051,1,2,0:0:0:0:
217,138,196251,1,0,0:0:0:0:
213,106,196351,1,0,0:0:0:0:
201,81,196451,2,0,L|171:43,2,45,2|0|0,0:0|0:0|0:0,0:0:0:0:
306,175,196851,5,2,0:0:0:0:
366,241,197051,1,0,0:0:0:0:
397,238,197151,1,0,0:0:0:0:
426,234,197251,1,2,0:0:0:0:
310,338,197451,2,0,L|277:332,4,22.5,0|0|0|0|2,0:0|0:0|0:0|0:0|0:0,0:0:0:0:
205,232,197851,1,0,0:0:0:0:
175,235,197951,1,0,0:0:0:0:
145,237,198051,1,2,0:0:0:0:
42,88,198451,5,2,0:0:0:0:
121,130,198651,1,0,0:0:0:0:
155,122,198751,1,0,0:0:0:0:
185,113,198851,1,2,0:0:0:0:
290,44,199051,1,0,0:0:0:0:
324,48,199151,1,0,0:0:0:0:
355,52,199251,1,2,0:0:0:0:
422,250,199451,1,0,0:0:0:0:
409,223,199551,1,0,0:0:0:0:
406,192,199651,1,2,0:0:0:0:
450,129,199851,1,0,0:0:0:0:
351,284,200051,5,2,0:0:0:0:
131,248,200251,1,0,0:0:0:0:
160,251,200351,1,0,0:0:0:0:
193,253,200451,1,2,0:0:0:0:
316,111,200651,1,0,0:0:0:0:
310,140,200751,1,0,0:0:0:0:
315,172,200851,1,2,0:0:0:0:
472,324,201051,1,0,0:0:0:0:
478,295,201151,1,0,0:0:0:0:
473,263,201251,1,2,0:0:0:0:
409,198,201451,1,0,0:0:0:0:
274,330,201651,6,0,B|228:336|228:336|177:322,1,90,2|0,0:0|0:0,0:0:0:0:
148,244,202051,1,2,0:0:0:0:
92,312,202251,1,0,0:0:0:0:
128,108,202451,2,0,L|244:120,1,90,2|0,0:0|0:0,0:0:0:0:
292,64,202851,1,2,0:0:0:0:
300,152,203051,1,0,0:0:0:0:
416,344,203251,6,0,P|408:296|440:248,1,90,2|0,0:0|0:0,0:0:0:0:
468,180,203651,2,0,L|368:188,1,90,2|0,0:0|0:0,0:0:0:0:
228,296,204051,2,0,B|180:300|180:300|132:288,1,90,2|0,0:0|0:0,0:0:0:0:
124,200,204451,2,0,P|132:152|112:112,1,90,2|0,0:0|0:0,0:0:0:0:
44,64,204851,5,2,0:0:0:0:
44,64,205051,1,0,0:0:0:0:
132,40,205251,1,2,0:0:0:0:
132,40,205451,1,0,0:0:0:0:
280,148,205651,1,2,0:0:0:0:
280,148,205851,1,0,0:0:0:0:
368,164,206051,1,2,0:0:0:0:
368,164,206251,1,0,0:0:0:0:
312,232,206451,6,0,B|296:280|296:280|312:328,1,90,2|0,0:0|0:0,0:0:0:0:
396,340,206851,2,0,L|424:236,1,90,2|0,0:0|0:0,0:0:0:0:
240,208,207251,2,0,L|204:300,1,90,2|0,0:0|0:0,0:0:0:0:
136,348,207651,2,0,P|116:300|140:240,1,90,2|0,0:0|0:0,0:0:0:0:
152,180,208051,5,2,0:0:0:0:
64,196,208251,1,2,0:0:0:0:
64,196,208351,1,0,0:0:0:0:
64,196,208451,1,2,0:0:0:0:
96,112,208651,1,2,0:0:0:0:
120,256,208851,5,2,0:0:0:0:
16,128,209051,1,2,0:0:0:0:
16,128,209151,1,0,0:0:0:0:
16,128,209251,1,2,0:0:0:0:
180,100,209451,1,2,0:0:0:0:
40,276,209651,6,0,P|64:324|112:336,1,90,2|2,0:0|0:0,0:0:0:0:
95,336,209951,1,0,0:0:0:0:
95,336,210051,1,2,0:0:0:0:
180,308,210251,1,2,0:0:0:0:
256,128,210451,6,0,B|300:120|300:120|352:132,1,90,2|2,0:0|0:0,0:0:0:0:
344,130,210751,1,0,0:0:0:0:
344,130,210851,1,2,0:0:0:0:
388,208,211051,1,2,0:0:0:0:
352,292,211251,5,2,0:0:0:0:
312,312,211351,1,0,0:0:0:0:
268,321,211451,1,2,0:0:0:0:
223,314,211551,1,0,0:0:0:0:
187,285,211651,1,2,0:0:0:0:
171,242,211751,1,0,0:0:0:0:
175,197,211851,1,2,0:0:0:0:
195,156,211951,1,0,0:0:0:0:
232,131,212051,5,2,0:0:0:0:
217,88,212151,1,0,0:0:0:0:
174,72,212251,1,2,0:0:0:0:
129,72,212351,1,0,0:0:0:0:
88,91,212451,1,2,0:0:0:0:
67,131,212551,1,0,0:0:0:0:
77,174,212651,1,2,0:0:0:0:
101,211,212751,1,0,0:0:0:0:
142,228,212851,5,2,0:0:0:0:
142,228,212951,1,0,0:0:0:0:
142,228,213051,1,0,0:0:0:0:
326,63,213251,1,2,0:0:0:0:
326,63,213351,1,0,0:0:0:0:
326,63,213451,1,0,0:0:0:0:
364,317,213651,1,2,0:0:0:0:
364,317,213751,1,0,0:0:0:0:
364,317,213851,1,2,0:0:0:0:
142,228,214051,1,2,0:0:0:0:
159,186,214151,1,0,0:0:0:0:
165,141,214251,1,2,0:0:0:0:
156,96,214351,1,0,0:0:0:0:
138,54,214451,6,0,B|212:65|212:65|282:43,1,112.5,6|0,0:0|0:0,0:0:0:0:
376,10,214851,2,0,P|367:71|409:113,1,112.5,2|0,0:0|0:0,0:0:0:0:
497,198,215251,1,2,0:0:0:0:
362,183,215451,1,2,0:0:0:0:
288,296,215651,1,0,0:0:0:0:
422,307,215851,1,2,0:0:0:0:
241,180,216051,6,0,B|184:175|184:175|138:207,1,112.5,2|0,0:0|0:0,0:0:0:0:
52,311,216451,2,0,L|42:185,1,112.5,2|0,0:0|0:0,0:0:0:0:
104,78,216851,1,2,0:0:0:0:
241,179,217051,1,2,0:0:0:0:
153,298,217251,1,0,0:0:0:0:
199,86,217451,1,2,0:0:0:0:
284,305,217651,6,0,B|354:314|354:314|418:296,1,112.5,2|0,0:0|0:0,0:0:0:0:
476,89,218051,2,0,B|424:63|342:98,1,112.5,2|0,0:0|0:0,0:0:0:0:
276,190,218451,1,2,0:0:0:0:
410,178,218651,1,2,0:0:0:0:
121,147,218851,1,0,0:0:0:0:
250,301,219051,1,2,0:0:0:0:
343,49,219251,6,0,P|326:104|347:161,1,112.5,2|0,0:0|0:0,0:0:0:0:
464,212,219651,1,2,0:0:0:0:
343,273,219851,1,0,0:0:0:0:
113,232,220051,2,0,B|177:225|177:225|220:250,1,112.5,2|2,0:0|0:0,0:0:0:0:
291,363,220451,1,0,0:0:0:0:
414,309,220651,1,2,0:0:0:0:
329,60,220851,6,0,P|332:117|294:156,1,112.5,2|0,0:0|0:0,0:0:0:0:
164,187,221251,2,0,L|289:235,1,112.5,2|0,0:0|0:0,0:0:0:0:
404,234,221651,1,2,0:0:0:0:
435,102,221851,1,2,0:0:0:0:
456,334,222051,1,0,0:0:0:0:
322,312,222251,1,2,0:0:0:0:
295,105,222451,6,0,B|302:165|302:165|271:227,1,112.5,2|0,0:0|0:0,0:0:0:0:
231,85,222851,2,0,L|346:65,1,112.5,2|0,0:0|0:0,0:0:0:0:
144,250,223251,1,2,0:0:0:0:
295,104,223451,1,2,0:0:0:0:
322,236,223651,1,0,0:0:0:0:
90,162,223851,1,2,0:0:0:0:
182,260,224051,6,0,B|193:315|193:315|143:353,1,112.5,2|0,0:0|0:0,0:0:0:0:
56,251,224451,2,0,B|45:196|45:196|95:158,1,112.5,2|0,0:0|0:0,0:0:0:0:
223,140,224851,1,2,0:0:0:0:
106,71,225051,1,2,0:0:0:0:
267,228,225251,1,0,0:0:0:0:
83,265,225451,1,2,0:0:0:0:
298,313,225651,6,0,P|344:279|353:226,1,112.5,2|0,0:0|0:0,0:0:0:0:
314,97,226051,2,0,B|369:111|369:111|430:85,1,112.5,2|0,0:0|0:0,0:0:0:0:
302,21,226451,5,2,0:0:0:0:
302,21,226651,1,0,0:0:0:0:
165,164,226851,1,2,0:0:0:0:
165,164,227051,1,0,0:0:0:0:
78,60,227251,5,4,0:0:0:0:
78,60,227651,2,0,B|83:124|83:124|55:169,1,112.5,2|0,0:0|0:0,0:0:0:0:
136,274,228051,1,2,0:0:0:0:
1,267,228251,1,2,0:0:0:0:
179,344,228451,2,0,L|295:338,1,112.5,0|2,0:0|0:0,0:0:0:0:
381,270,228851,6,0,B|371:210|371:210|392:161,1,112.5,2|0,0:0|0:0,0:0:0:0:
303,67,229251,2,0,P|232:72|194:41,1,112.5,2|0,0:0|0:0,0:0:0:0:
91,129,229651,1,2,0:0:0:0:
241,248,229851,1,2,0:0:0:0:
303,67,230051,1,0,0:0:0:0:
60,126,230251,1,2,0:0:0:0:
267,277,230451,6,0,B|323:284|323:284|396:262,1,112.5,2|0,0:0|0:0,0:0:0:0:
428,142,230851,2,0,P|427:202|481:234,1,112.5,2|0,0:0|0:0,0:0:0:0:
447,366,231251,1,2,0:0:0:0:
495,166,231451,1,2,0:0:0:0:
288,199,231651,1,0,0:0:0:0:
481,268,231851,1,2,0:0:0:0:
277,233,232051,6,0,P|217:238|163:205,1,112.5,2|0,0:0|0:0,0:0:0:0:
135,84,232451,1,2,0:0:0:0:
51,190,232651,1,0,0:0:0:0:
246,332,232851,2,0,B|306:334|306:334|364:313,1,112.5,2|2,0:0|0:0,0:0:0:0:
408,191,233251,1,0,0:0:0:0:
460,315,233451,1,2,0:0:0:0:
303,112,233651,6,0,P|241:122|194:92,1,112.5,6|0,0:0|0:0,0:0:0:0:
79,37,234051,2,0,L|83:166,1,112.5,2|0,0:0|0:0,0:0:0:0:
204,208,234451,1,2,0:0:0:0:
68,261,234651,1,2,0:0:0:0:
344,335,234851,1,0,0:0:0:0:
160,313,235051,1,2,0:0:0:0:
318,226,235251,6,0,B|373:233|373:233|445:209,1,112.5,2|0,0:0|0:0,0:0:0:0:
340,110,235651,2,0,L|214:92,1,112.5,2|0,0:0|0:0,0:0:0:0:
108,32,236051,1,2,0:0:0:0:
100,166,236251,1,2,0:0:0:0:
217,232,236451,1,0,0:0:0:0:
228,94,236651,1,2,0:0:0:0:
100,166,236851,6,0,B|78:226|78:226|94:286,1,112.5,2|0,0:0|0:0,0:0:0:0:
207,341,237251,2,0,B|269:317|330:341,1,112.5,2|0,0:0|0:0,0:0:0:0:
447,372,237651,1,2,0:0:0:0:
447,372,237851,1,2,0:0:0:0:
405,243,238051,1,0,0:0:0:0:
405,243,238251,1,2,0:0:0:0:
74,163,238451,6,0,P|191:207|299:158,3,225,4|4|4|4,0:0|0:0|0:0|0:0,0:0:0:0:
312,336,240051,6,0,L|417:342,1,90,2|0,0:0|0:0,0:0:0:0:
460,272,240451,2,0,B|448:224|448:224|460:180,1,90,2|0,0:0|0:0,0:0:0:0:
396,120,240851,2,0,P|340:132|260:40,1,180,2|2,0:0|0:0,0:0:0:0:
80,72,241651,6,0,L|84:184,1,90,2|0,0:0|0:0,0:0:0:0:
168,188,242051,2,0,L|160:284,1,90,2|0,0:0|0:0,0:0:0:0:
84,324,242451,2,0,B|168:308|168:308|276:332,1,180,2|2,0:0|0:0,0:0:0:0:
432,272,243251,6,0,P|424:224|448:184,1,90,2|0,0:0|0:0,0:0:0:0:
390,40,243651,2,0,P|398:84|380:124,1,90,2|0,0:0|0:0,0:0:0:0:
308,72,244051,2,0,L|124:76,1,180,2|2,0:0|0:0,0:0:0:0:
60,248,244851,6,0,L|164:244,1,90,2|0,0:0|0:0,0:0:0:0:
212,309,245251,2,0,B|258:313|258:313|307:298,1,90,2|0,0:0|0:0,0:0:0:0:
353,228,245651,2,0,P|336:177|450:108,1,180,2|2,0:0|0:0,0:0:0:0:
248,38,246451,5,2,0:0:0:0:
158,47,246651,1,0,0:0:0:0:
114,125,246851,1,2,0:0:0:0:
203,119,247051,1,0,0:0:0:0:
163,199,247251,2,0,B|156:246|156:246|170:330|170:330|161:378,1,180,2|2,0:0|0:0,0:0:0:0:
256,192,248051,12,0,252651,0:0:0:0:
126,294,252851,6,0,B|136:241|136:241|126:197,1,90,8|0,0:0|0:0,0:0:0:0:
200,152,253251,2,0,B|192:116|192:116|202:63,1,90,8|0,0:0|0:0,0:0:0:0:
309,63,253651,2,0,B|319:116|319:116|312:152,1,90,8|0,0:0|0:0,0:0:0:0:
383,205,254051,2,0,B|376:241|376:241|386:294,1,90,8|0,0:0|0:0,0:0:0:0:
318,353,254451,5,8,0:0:0:0:
256,288,254651,1,0,0:0:0:0:
194,353,254851,1,8,0:0:0:0:
132,288,255051,1,0,0:0:0:0:
68,352,255251,2,0,P|44:304|48:252,1,90,8|0,0:0|0:0,0:0:0:0:
104,204,255651,2,0,B|120:160|120:160|112:112,1,90,8|0,0:0|0:0,0:0:0:0:
84,32,256051,6,0,L|184:28,1,90,8|0,0:0|0:0,0:0:0:0:
248,76,256451,1,8,0:0:0:0:
248,76,256651,1,0,0:0:0:0:
308,144,256851,2,0,B|316:192|316:192|300:240,1,90,8|0,0:0|0:0,0:0:0:0:
224,272,257251,1,8,0:0:0:0:
304,316,257451,1,0,0:0:0:0:
152,312,257651,6,0,P|140:264|172:216,1,90,8|0,0:0|0:0,0:0:0:0:
208,156,258051,2,0,P|224:115|212:72,1,90,8|0,0:0|0:0,0:0:0:0:
132,32,258451,2,0,L|320:40,1,180,8|8,0:0|0:0,0:0:0:0:
440,168,259251,5,10,0:0:0:0:
392,244,259451,1,2,0:0:0:0:
392,244,259551,1,0,0:0:0:0:
392,244,259651,1,10,0:0:0:0:
392,244,259851,1,2,0:0:0:0:
316,92,260051,5,10,0:0:0:0:
304,180,260251,1,2,0:0:0:0:
304,180,260351,1,0,0:0:0:0:
304,180,260451,1,10,0:0:0:0:
304,180,260651,1,2,0:0:0:0:
196,48,260851,5,10,0:0:0:0:
212,136,261051,1,2,0:0:0:0:
212,136,261151,1,0,0:0:0:0:
212,136,261251,1,10,0:0:0:0:
212,136,261451,1,2,0:0:0:0:
68,40,261651,5,10,0:0:0:0:
104,120,261851,1,2,0:0:0:0:
104,120,261951,1,0,0:0:0:0:
104,120,262051,1,10,0:0:0:0:
104,120,262251,1,2,0:0:0:0:
148,196,262451,6,2,P|124:208|100:204,1,45,10|2,0:0|0:0,0:0:0:0:
208,220,262651,2,0,P|200:236|173:254,1,45,10|0,0:0|0:0,0:0:0:0:
272,212,262851,2,0,P|271:231|259:259,1,45,10|0,0:0|0:0,0:0:0:0:
330,180,263051,2,0,P|336:197|336:227,1,45,10|0,0:0|0:0,0:0:0:0:
308,48,263251,6,0,P|339:46|362:50,1,45,10|0,0:0|0:0,0:0:0:0:
332,112,263451,2,0,P|359:118|381:134,1,45,10|0,0:0|0:0,0:0:0:0:
264,100,263651,2,0,P|262:123|278:156,1,45,10|0,0:0|0:0,0:0:0:0:
238,41,263851,2,0,P|218:53|206:78,1,45,10|0,0:0|0:0,0:0:0:0:
198,135,264051,5,2,0:0:0:0:
198,135,264151,1,0,0:0:0:0:
198,135,264251,1,0,0:0:0:0:
134,325,264451,1,2,0:0:0:0:
134,325,264551,1,0,0:0:0:0:
134,325,264651,1,0,0:0:0:0:
335,300,264851,5,2,0:0:0:0:
350,257,264951,1,0,0:0:0:0:
344,212,265051,1,2,0:0:0:0:
323,171,265151,1,0,0:0:0:0:
311,127,265251,1,2,0:0:0:0:
328,85,265351,1,0,0:0:0:0:
368,65,265451,1,2,0:0:0:0:
412,62,265551,1,0,0:0:0:0:
448,88,265651,5,12,0:0:0:0:
435,244,265851,1,0,0:0:0:0:
218,170,266051,1,8,0:0:0:0:
400,150,266251,1,0,0:0:0:0:
218,170,266451,2,0,P|219:114|258:62,1,112.5,8|0,0:0|0:0,0:0:0:0:
100,157,266851,2,0,L|106:296,1,112.5,8|0,0:0|0:0,0:0:0:0:
208,315,267251,5,8,0:0:0:0:
103,123,267451,1,0,0:0:0:0:
40,352,267651,2,0,B|48:292|48:292|26:229,1,112.5,8|0,0:0|0:0,0:0:0:0:
29,33,268051,2,0,P|87:54|148:24,1,112.5,8|0,0:0|0:0,0:0:0:0:
241,9,268451,1,8,0:0:0:0:
352,256,268651,6,0,B|347:198|347:198|359:95|359:95|351:27,1,225,8|0,0:0|0:0,0:0:0:0:
462,10,269251,1,8,0:0:0:0:
245,103,269451,1,0,0:0:0:0:
431,151,269651,1,8,0:0:0:0:
281,197,269851,1,0,0:0:0:0:
381,248,270051,1,8,0:0:0:0:
138,306,270251,6,0,P|199:317|231:180,1,225,8|0,0:0|0:0,0:0:0:0:
133,151,270851,1,8,0:0:0:0:
311,120,271051,1,0,0:0:0:0:
133,151,271251,2,0,B|73:152|73:152|17:118,1,112.5,8|0,0:0|0:0,0:0:0:0:
112,49,271651,2,0,B|172:48|172:48|228:82,1,112.5,8|0,0:0|0:0,0:0:0:0:
238,185,272051,5,8,0:0:0:0:
282,27,272251,1,0,0:0:0:0:
404,182,272451,1,8,0:0:0:0:
216,75,272651,1,0,0:0:0:0:
325,230,272851,2,0,P|331:290|306:337,1,112.5,8|0,0:0|0:0,0:0:0:0:
215,269,273251,2,0,L|83:266,1,112.5,8|0,0:0|0:0,0:0:0:0:
43,170,273651,5,8,0:0:0:0:
133,358,273851,1,0,0:0:0:0:
183,101,274051,2,0,B|176:165|176:165|228:188,1,112.5,8|0,0:0|0:0,0:0:0:0:
42,169,274451,2,0,L|54:58,1,112.5,8|0,0:0|0:0,0:0:0:0:
156,11,274851,1,8,0:0:0:0:
261,50,275051,1,0,0:0:0:0:
137,202,275251,6,0,B|244:213|244:213|372:164,1,225,8|8,0:0|0:0,0:0:0:0:
393,65,275851,1,0,0:0:0:0:
462,153,276051,2,0,L|459:278,1,112.5,8|0,0:0|0:0,0:0:0:0:
360,319,276451,2,0,B|364:247|364:247|346:197,1,112.5,8|0,0:0|0:0,0:0:0:0:
176,176,276851,6,0,P|251:194|264:55,1,225,8|8,0:0|0:0,0:0:0:0:
187,27,277451,1,0,0:0:0:0:
97,94,277651,2,0,B|41:98|41:98|68:37,1,112.5,8|0,0:0|0:0,0:0:0:0:
176,176,278051,2,0,B|232:172|232:172|205:233,1,112.5,8|0,0:0|0:0,0:0:0:0:
100,253,278451,5,12,0:0:0:0:
298,293,278651,1,0,0:0:0:0:
105,357,278851,1,8,0:0:0:0:
266,132,279051,1,0,0:0:0:0:
334,290,279251,2,0,B|404:298|404:298|438:266,1,112.5,8|0,0:0|0:0,0:0:0:0:
330,105,279651,2,0,L|196:99,1,112.5,8|0,0:0|0:0,0:0:0:0:
124,37,280051,5,8,0:0:0:0:
160,229,280251,1,0,0:0:0:0:
274,38,280451,2,0,L|393:45,1,112.5,8|0,0:0|0:0,0:0:0:0:
456,132,280851,2,0,P|435:189|462:241,1,112.5,8|0,0:0|0:0,0:0:0:0:
504,335,281251,1,8,0:0:0:0:
186,301,281451,6,0,B|248:307|248:307|349:300|349:300|424:312,1,225,8|0,0:0|0:0,0:0:0:0:
500,376,282051,1,8,0:0:0:0:
398,162,282251,1,0,0:0:0:0:
337,298,282451,1,8,0:0:0:0:
273,104,282651,1,0,0:0:0:0:
487,138,282851,1,8,0:0:0:0:
284,207,283051,6,0,B|201:193|185:144|185:144|137:178|76:151,1,225,8|0,0:0|0:0,0:0:0:0:
26,249,283651,1,8,0:0:0:0:
65,61,283851,1,0,0:0:0:0:
156,275,284051,2,0,B|210:293|210:293|268:282,1,112.5,8|0,0:0|0:0,0:0:0:0:
442,201,284451,2,0,B|388:183|388:183|334:194,1,112.5,8|0,0:0|0:0,0:0:0:0:
465,311,284851,5,12,0:0:0:0:
301,168,285051,1,0,0:0:0:0:
271,337,285251,1,12,0:0:0:0:
470,274,285451,1,0,0:0:0:0:
295,133,285651,2,0,L|161:130,1,112.5,12|0,0:0|0:0,0:0:0:0:
86,190,286051,2,0,P|97:126|58:88,1,112.5,12|0,0:0|0:0,0:0:0:0:
68,92,286451,5,12,0:0:0:0:
258,48,286651,1,0,0:0:0:0:
196,232,286851,2,0,B|282:240|282:240|311:228,1,112.5,12|0,0:0|0:0,0:0:0:0:
416,208,287251,2,0,L|409:339,1,112.5,12|0,0:0|0:0,0:0:0:0:
264,160,287651,2,0,L|257:29,1,112.5,12|0,0:0|0:0,0:0:0:0:
148,32,288051,5,8,0:0:0:0:
138,64,288151,1,0,0:0:0:0:
113,87,288251,1,0,0:0:0:0:
84,105,288351,1,0,0:0:0:0:
91,138,288451,1,8,0:0:0:0:
113,163,288551,1,0,0:0:0:0:
117,196,288651,1,0,0:0:0:0:
99,224,288751,1,0,0:0:0:0:
70,241,288851,5,8,0:0:0:0:
79,273,288951,1,0,0:0:0:0:
109,286,289051,1,0,0:0:0:0:
142,284,289151,1,0,0:0:0:0:
171,267,289251,1,8,0:0:0:0:
201,281,289351,1,0,0:0:0:0:
234,278,289451,1,0,0:0:0:0:
264,263,289551,1,0,0:0:0:0:
280,233,289651,5,8,0:0:0:0:
256,192,289751,12,0,291051,0:0:0:0:
188,212,291251,5,2,0:0:0:0:
356,248,291451,1,2,0:0:0:0:
188,212,291651,1,2,0:0:0:0:
356,248,291851,1,2,0:0:0:0:
188,212,292051,2,0,B|196:160|196:160|180:120,1,90,2|0,0:0|0:0,0:0:0:0:
84,268,292451,2,0,P|116:308|168:324,1,90,2|0,0:0|0:0,0:0:0:0:
236,292,292851,5,2,0:0:0:0:
92,180,293051,1,2,0:0:0:0:
264,144,293251,2,0,P|312:148|360:128,1,90,2|0,0:0|0:0,0:0:0:0:
480,28,293651,2,0,L|476:124,1,90,2|0,0:0|0:0,0:0:0:0:
416,184,294051,1,0,0:0:0:0:
304,56,294251,1,2,0:0:0:0:
196,248,294451,6,0,P|212:200|140:104,1,180,2|2,0:0|0:0,0:0:0:0:
98,203,295051,1,2,0:0:0:0:
151,337,295251,2,0,B|211:341|211:341|251:325,1,90,2|0,0:0|0:0,0:0:0:0:
408,136,295651,2,0,B|348:132|348:132|308:148,1,90,2|0,0:0|0:0,0:0:0:0:
288,228,296051,5,2,0:0:0:0:
332,236,296151,1,0,0:0:0:0:
376,244,296251,1,2,0:0:0:0:
460,208,296451,1,2,0:0:0:0:
328,332,296851,5,2,0:0:0:0:
256,152,297051,1,2,0:0:0:0:
448,180,297251,1,2,0:0:0:0:
444,136,297351,1,0,0:0:0:0:
440,92,297451,1,2,0:0:0:0:
360,48,297651,5,2,0:0:0:0:
196,108,297851,1,2,0:0:0:0:
360,172,298051,1,2,0:0:0:0:
432,24,298251,1,2,0:0:0:0:
192,136,298451,2,0,B|144:144|144:144|92:128,1,90,2|0,0:0|0:0,0:0:0:0:
64,304,298851,2,0,B|112:296|112:296|164:312,1,90,2|0,0:0|0:0,0:0:0:0:
220,364,299251,5,2,0:0:0:0:
264,192,299451,1,2,0:0:0:0:
56,272,299651,2,0,P|64:224|48:180,1,90,2|0,0:0|0:0,0:0:0:0:
156,32,300051,2,0,P|148:80|164:124,1,90,2|0,0:0|0:0,0:0:0:0:
252,112,300451,1,0,0:0:0:0:
212,192,300651,1,2,0:0:0:0:
416,304,300851,6,0,L|316:312,1,90,2|2,0:0|0:0,0:0:0:0:
256,256,301251,1,2,0:0:0:0:
100,316,301451,2,0,B|104:268|104:268|92:176|92:176|96:136,1,180,2|0,0:0|0:0,0:0:0:0:
152,68,302051,1,2,0:0:0:0:
196,80,302151,1,0,0:0:0:0:
240,72,302251,1,2,0:0:0:0:
284,84,302351,1,0,0:0:0:0:
328,72,302451,5,2,0:0:0:0:
408,28,302651,1,2,0:0:0:0:
408,116,302851,2,0,B|388:208|388:208|428:300,1,180,2|2,0:0|0:0,0:0:0:0:
492,344,303451,1,2,0:0:0:0:
404,368,303651,1,2,0:0:0:0:
240,296,304051,5,6,0:0:0:0:
152,312,304251,1,2,0:0:0:0:
228,176,304451,1,2,0:0:0:0:
320,336,304651,1,2,0:0:0:0:
140,208,304851,2,0,P|136:160|172:108,1,90,2|0,0:0|0:0,0:0:0:0:
336,48,305251,2,0,L|328:152,1,90,2|0,0:0|0:0,0:0:0:0:
396,200,305651,5,2,0:0:0:0:
328,16,305851,1,2,0:0:0:0:
240,148,306051,2,0,B|232:192|232:192|248:248,1,90,2|0,0:0|0:0,0:0:0:0:
260,324,306451,2,0,L|360:320,1,90,2|0,0:0|0:0,0:0:0:0:
424,268,306851,1,0,0:0:0:0:
428,356,307051,1,2,0:0:0:0:
340,239,307251,6,0,B|349:138|349:138|304:72,1,180,2|2,0:0|0:0,0:0:0:0:
216,56,307851,1,2,0:0:0:0:
156,124,308051,2,0,L|56:132,1,90,2|0,0:0|0:0,0:0:0:0:
180,312,308451,2,0,L|280:320,1,90,2|0,0:0|0:0,0:0:0:0:
344,268,308851,5,2,0:0:0:0:
360,312,308951,1,0,0:0:0:0:
376,352,309051,1,2,0:0:0:0:
452,304,309251,2,0,B|468:156|468:156|456:120,1,180,2|2,0:0|0:0,0:0:0:0:
376,92,309851,1,2,0:0:0:0:
292,128,310051,1,2,0:0:0:0:
268,168,310151,1,0,0:0:0:0:
256,212,310251,1,2,0:0:0:0:
276,300,310451,5,2,0:0:0:0:
192,272,310651,1,2,0:0:0:0:
192,272,310751,1,0,0:0:0:0:
192,272,310851,1,2,0:0:0:0:
124,332,311051,1,2,0:0:0:0:
104,244,311251,1,2,0:0:0:0:
168,184,311451,1,0,0:0:0:0:
168,184,311551,1,0,0:0:0:0:
168,184,311651,1,2,0:0:0:0:
84,156,311851,1,0,0:0:0:0:
148,92,312051,5,2,0:0:0:0:
24,212,312251,1,2,0:0:0:0:
224,256,312451,2,0,P|268:260|320:240,1,90,2|0,0:0|0:0,0:0:0:0:
408,108,312851,2,0,B|400:160|400:160|416:208,1,90,2|0,0:0|0:0,0:0:0:0:
480,256,313251,1,0,0:0:0:0:
404,304,313451,1,2,0:0:0:0:
340,239,313651,6,0,B|248:225|248:225|156:252,3,180,4|4|4|4,0:0|0:0|0:0|0:0,0:0:0:0:
256,192,315251,12,0,316651,0:0:0:0:
128,296,316851,5,2,0:0:0:0:
208,256,317051,1,2,0:0:0:0:
208,256,317151,1,0,0:0:0:0:
208,256,317251,1,2,0:0:0:0:
288,300,317451,1,2,0:0:0:0:
372,140,317651,1,0,0:0:0:0:
348,228,317851,1,2,0:0:0:0:
348,228,317951,1,0,0:0:0:0:
348,228,318051,1,2,0:0:0:0:
404,296,318251,1,2,0:0:0:0:
292,164,318451,6,0,B|244:168|244:168|188:152,1,90,2|0,0:0|0:0,0:0:0:0:
144,92,318851,2,0,P|112:136|124:192,1,90,2|0,0:0|0:0,0:0:0:0:
180,232,319251,2,0,L|-4:168,1,180,2|2,0:0|0:0,0:0:0:0:
180,108,320051,6,0,B|224:112|224:112|272:96,1,90,2|0,0:0|0:0,0:0:0:0:
336,40,320451,2,0,P|360:84|348:140,1,90,2|0,0:0|0:0,0:0:0:0:
292,184,320851,2,0,P|272:276|316:360,1,180,2|2,0:0|0:0,0:0:0:0:
126,358,321651,6,0,B|131:311|131:311|112:257,1,90,2|0,0:0|0:0,0:0:0:0:
52,206,322051,2,0,B|37:165|37:165|42:118,1,90,2|0,0:0|0:0,0:0:0:0:
105,53,322451,2,0,L|294:59,1,180,2|2,0:0|0:0,0:0:0:0:
327,137,323051,1,0,0:0:0:0:
196,237,323251,6,0,L|292:241,1,90,2|2,0:0|0:0,0:0:0:0:
331,244,323551,1,0,0:0:0:0:
331,244,323651,1,2,0:0:0:0:
300,328,323851,1,2,0:0:0:0:
126,262,324051,2,0,P|125:215|163:172,1,90,0|2,0:0|0:0,0:0:0:0:
191,165,324351,1,0,0:0:0:0:
191,165,324451,1,2,0:0:0:0:
126,102,324651,1,2,0:0:0:0:
196,45,324851,6,0,L|299:48,1,90,2|0,0:0|0:0,0:0:0:0:
348,112,325251,2,0,B|340:162|340:162|359:213,1,90,2|0,0:0|0:0,0:0:0:0:
429,248,325651,2,0,P|372:229|296:312,1,180,2|2,0:0|0:0,0:0:0:0:
123,359,326451,6,0,L|126:261,1,90,2|0,0:0|0:0,0:0:0:0:
45,227,326851,2,0,L|41:126,1,90,2|0,0:0|0:0,0:0:0:0:
91,62,327251,2,0,B|145:70|186:56|186:56|234:70|280:51,1,180,2|2,0:0|0:0,0:0:0:0:
440,108,328051,5,2,0:0:0:0:
436,197,328251,1,0,0:0:0:0:
353,233,328451,1,2,0:0:0:0:
354,143,328651,1,0,0:0:0:0:
276,188,328851,2,0,B|247:247|286:301|286:301|221:329,1,180,2|2,0:0|0:0,0:0:0:0:
93,292,329651,5,6,0:0:0:0:
137,213,329851,1,2,0:0:0:0:
137,213,329951,1,0,0:0:0:0:
137,213,330051,1,2,0:0:0:0:
120,124,330251,1,2,0:0:0:0:
42,78,330451,1,2,0:0:0:0:
122,36,330651,1,0,0:0:0:0:
122,36,330751,1,0,0:0:0:0:
122,36,330851,1,2,0:0:0:0:
200,80,331051,1,0,0:0:0:0:
283,113,331251,6,0,B|335:118|335:118|396:103,1,90,2|0,0:0|0:0,0:0:0:0:
449,154,331651,2,0,L|446:251,1,90,2|0,0:0|0:0,0:0:0:0:
395,319,332051,2,0,P|351:324|307:304,1,90,2|0,0:0|0:0,0:0:0:0:
272,224,332451,2,0,P|231:206|186:211,1,90,2|0,0:0|0:0,0:0:0:0:
98,227,332851,6,0,L|109:123,1,90,2|0,0:0|0:0,0:0:0:0:
181,85,333251,2,0,B|228:91|228:91|272:77,1,90,2|0,0:0|0:0,0:0:0:0:
350,39,333651,2,0,B|390:26|390:26|437:32,1,90,2|0,0:0|0:0,0:0:0:0:
491,104,334051,2,0,L|480:208,1,90,2|0,0:0|0:0,0:0:0:0:
427,266,334451,5,2,0:0:0:0:
427,266,334651,1,0,0:0:0:0:
358,323,334851,2,0,L|254:319,1,90,2|0,0:0|0:0,0:0:0:0:
197,263,335251,1,2,0:0:0:0:
181,351,335451,1,0,0:0:0:0:
111,293,335651,2,0,P|108:244|138:197,1,90,2|0,0:0|0:0,0:0:0:0:
208,173,336051,5,6,0:0:0:0:
291,206,336251,1,2,0:0:0:0:
291,206,336351,1,0,0:0:0:0:
291,206,336451,2,0,L|385:198,1,90,2|2,0:0|0:0,0:0:0:0:
443,263,336851,1,2,0:0:0:0:
496,190,337051,1,0,0:0:0:0:
496,190,337151,1,0,0:0:0:0:
496,190,337251,2,0,B|488:144|488:144|500:103,1,90,2|0,0:0|0:0,0:0:0:0:
447,29,337651,6,0,L|351:36,1,90,2|0,0:0|0:0,0:0:0:0:
295,101,338051,2,0,B|244:106|244:106|186:95,1,90,2|0,0:0|0:0,0:0:0:0:
125,57,338451,2,0,P|114:113|137:154,1,90,2|0,0:0|0:0,0:0:0:0:
207,182,338851,2,0,P|220:224|208:266,1,90,2|0,0:0|0:0,0:0:0:0:
160,343,339251,6,0,L|366:349,1,180,6|2,0:0|0:0,0:0:0:0:
421,309,339851,2,0,P|401:240|486:165,1,180,2|0,0:0|0:0,0:0:0:0:
449,78,340451,2,0,L|354:90,1,90,2|0,0:0|0:0,0:0:0:0:
277,51,340851,5,6,0:0:0:0:
252,137,341051,1,0,0:0:0:0:
108,130,341251,1,2,0:0:0:0:
122,218,341451,1,0,0:0:0:0:
77,296,341651,1,2,0:0:0:0:
249,346,342051,5,2,0:0:0:0:
337,329,342251,1,2,0:0:0:0:
279,259,342451,1,4,0:0:0:0:
256,192,342551,12,2,348851,0:0:0:0:
