osu file format v12

[General]
AudioFilename: Stan SB - Let This Go.mp3
AudioLeadIn: 0
PreviewTime: 131742
Countdown: 0
SampleSet: Normal
StackLeniency: 0.7
Mode: 0
LetterboxInBreaks: 0

[Editor]
Bookmarks: 22057,65951,109837,219551,263437,307323,329222,351165,373108,395051,416994,425222
DistanceSpacing: 0.8
BeatDivisor: 4
GridSize: 4

[Metadata]
Title:Let This Go
TitleUnicode:Let This Go
Artist:Stan SB
ArtistUnicode:Stan SB
Creator:Kyshiro
Version:Gone
Source:
Tags:breakcore jungle dnb drum and bass [luanny] phnyx KSHRO CUTS edit extended version splorg
BeatmapID:244230
BeatmapSetID:89912

[Difficulty]
HPDrainRate:7
CircleSize:4
OverallDifficulty:8
ApproachRate:9
SliderMultiplier:2
SliderTickRate:2

[Events]
//Background and Video events
0,0,"bg.jpg",0,0
//Break Periods
2,307480,317651
//Storyboard Layer 0 (Background)
//Storyboard Layer 1 (Fail)
//Storyboard Layer 2 (Pass)
//Storyboard Layer 3 (Foreground)
//Storyboard Sound Samples
//Background Colour Transformations
3,100,163,162,255

[TimingPoints]
114.519668162743,342.857142857143,4,2,1,100,1,0
22057,-133.333333333333,4,2,1,60,0,0
44514,-117.647058823529,4,2,1,80,0,0
63200,-117.647058823529,4,2,1,100,0,0
65600,-117.647058823529,4,1,1,60,0,0
65948,342.857142857143,4,1,1,80,1,0
65948,-117.647058823529,4,1,1,80,0,0
75205,-200,4,1,1,80,0,0
76919,-117.647058823529,4,1,1,80,0,0
109800,342.857142857143,4,1,1,100,1,1
129000,-100,4,3,1,100,0,0
131742,-100,4,1,1,100,0,1
153685,-100,4,1,1,100,0,0
197914,-117.647058823529,4,2,1,60,0,0
200314,-117.647058823529,4,2,1,35,0,0
200657,-117.647058823529,4,2,1,60,0,0
208542,-117.647058823529,4,2,1,35,0,0
208885,-117.647058823529,4,2,1,80,0,0
219171,-117.647058823529,4,1,1,80,0,0
219510,342.857142857143,4,1,1,80,1,0
219510,-117.647058823529,4,1,1,80,0,0
228767,-200,4,1,1,80,0,0
230481,-117.647058823529,4,1,1,80,0,0
263398,342.857142857143,4,1,1,100,1,0
263398,-90.9090909090909,4,1,1,100,0,1
282598,-133.333333333333,4,3,1,100,0,0
285340,-90.9090909090909,4,1,1,100,0,1
307280,342.857142857143,4,1,1,100,1,0
318251,-142.857142857143,4,2,1,50,0,0
329222,-117.647058823529,4,1,1,70,0,0
349794,-105.263157894737,4,1,1,70,0,0
351165,-100,4,1,1,80,0,1
361280,-133.333333333333,4,1,1,80,0,1
362137,-100,4,1,1,80,0,1
373108,-90.9090909090909,4,1,1,80,0,1
395051,-117.647058823529,4,1,1,70,0,0
425222,-117.647058823529,4,2,1,5,0,0

[Colours]
Combo1 : 164,225,249
Combo2 : 135,20,239
Combo3 : 64,148,251
Combo4 : 241,86,254

[HitObjects]
96,272,22057,1,4,0:0:0:0:
448,128,23085,5,0,0:0:0:0:
360,212,23428,2,0,P|288:232|208:180,2,150.000005722046,2|0|0,0:0|0:0|0:0,0:0:0:0:
300,108,24457,2,0,P|172:92|116:244,2,300.000011444092,2|0|0,0:0|0:0|0:0,0:0:0:0:
432,192,26171,6,0,L|472:340,1,150.000005722046,2|0,0:0|0:0,0:0:0:0:
332,172,26857,2,0,L|304:332,1,150.000005722046
188,216,27543,2,0,L|228:372,1,150.000005722046,2|0,0:0|0:0,0:0:0:0:
104,188,28228,2,0,L|84:352,1,150.000005722046
16,300,28743,5,0,0:0:0:0:
4,224,28914,2,0,P|12:140|80:88,1,150.000005722046,2|0,0:0|0:0,0:0:0:0:
120,56,29428,2,0,P|168:112|256:112,1,150.000005722046,2|0,0:0|0:0,0:0:0:0:
312,92,29943,2,0,P|392:88|444:276,2,300.000011444092,2|0|0,0:0|0:0|0:0,0:0:0:0:
188,220,31657,6,0,L|172:304,2,75.0000028610231,2|0|0,0:0|0:0|0:0,0:0:0:0:
256,368,32343,2,0,L|256:284,2,75.0000028610231,2|0|0,0:0|0:0|0:0,0:0:0:0:
324,220,33028,2,0,L|340:304,2,75.0000028610231,2|0|0,0:0|0:0|0:0,0:0:0:0:
452,340,33714,1,0,0:0:0:0:
432,192,34057,6,0,P|448:140|464:116,1,75.0000028610231,2|0,0:0|0:0,0:0:0:0:
384,108,34400,2,0,P|324:132|244:112,1,150.000005722046,2|0,0:0|0:0,0:0:0:0:
188,64,34914,1,0,0:0:0:0:
260,40,35085,1,2,0:0:0:0:
184,204,35428,1,0,0:0:0:0:
304,340,35771,6,0,P|368:356|436:308,1,150.000005722046,2|0,0:0|0:0,0:0:0:0:
212,352,36457,2,0,P|148:336|80:384,1,150.000005722046,2|0,0:0|0:0,0:0:0:0:
304,228,37143,2,0,P|244:120|208:228,2,300.000011444092,2|0|2,0:0|0:0|0:0,0:0:0:0:
388,328,38857,5,0,0:0:0:0:
388,328,39028,2,0,P|448:296|496:224,1,150.000005722046,2|0,0:0|0:0,0:0:0:0:
400,228,39543,2,0,P|336:260|184:240,2,225.000008583069,2|2|2,0:0|0:0|0:0,0:0:0:0:
424,156,40743,1,0,0:0:0:0:
352,172,40914,1,0,0:0:0:0:
220,104,41257,6,0,P|148:96|80:144,1,150.000005722046,2|0,0:0|0:0,0:0:0:0:
292,280,41943,2,0,P|364:288|432:240,1,150.000005722046,2|0,0:0|0:0,0:0:0:0:
168,228,42628,2,0,P|160:300|208:368,1,150.000005722046,2|0,0:0|0:0,0:0:0:0:
344,156,43314,2,0,P|352:84|304:16,1,150.000005722046,2|0,0:0|0:0,0:0:0:0:
256,192,44000,1,4,0:0:0:0:
440,292,44514,5,0,0:0:0:0:
440,292,44685,2,0,P|448:196|496:136,1,170.000003242493,2|0,0:0|0:0,0:0:0:0:
436,76,45200,2,0,P|348:117|272:105,1,170.000003242493,2|0,0:0|0:0,0:0:0:0:
208,56,45714,1,0,0:0:0:0:
124,44,45885,1,0,0:0:0:0:
72,112,46057,2,0,P|88:212|160:240,1,170.000003242493,2|2,0:0|0:0,0:0:0:0:
220,204,46571,1,0,0:0:0:0:
304,216,46743,1,0,0:0:0:0:
368,164,46914,6,0,L|368:76,2,85.0000016212464,0|0|0,0:0|0:0|0:0,0:0:0:0:
288,132,47428,2,0,P|224:96|160:104,1,127.50000243187,2|0,0:0|0:0,0:0:0:0:
64,184,47943,2,0,P|46:267|72:352,1,170.000003242493,2|0,0:0|0:0,0:0:0:0:
136,288,48457,1,0,0:0:0:0:
216,260,48628,2,0,P|312:272|340:348,1,170.000003242493,2|0,0:0|0:0,0:0:0:0:
256,336,49143,2,0,P|316:252|400:240,1,170.000003242493,2|0,0:0|0:0,0:0:0:0:
392,320,49657,5,0,0:0:0:0:
476,328,49828,1,0,0:0:0:0:
504,248,50000,1,0,0:0:0:0:
484,168,50171,2,0,P|448:128|400:120,1,85.0000016212464,2|0,0:0|0:0,0:0:0:0:
268,108,50514,2,0,P|304:148|352:156,1,85.0000016212464
348,72,50857,5,2,0:0:0:0:
180,40,51200,1,0,0:0:0:0:
232,204,51543,1,2,0:0:0:0:
180,40,51885,1,0,0:0:0:0:
324,164,52228,1,2,0:0:0:0:
248,120,52400,1,0,0:0:0:0:
320,76,52571,1,0,0:0:0:0:
248,120,52743,6,0,P|152:128|88:88,1,170.000003242493,2|0,0:0|0:0,0:0:0:0:
168,52,53257,2,0,L|152:248,1,170.000003242493,2|2,0:0|0:0,0:0:0:0:
212,284,53771,1,0,0:0:0:0:
300,284,53943,1,0,0:0:0:0:
357,221,54114,2,0,L|344:52,1,170.000003242493,2|0,0:0|0:0,0:0:0:0:
428,72,54628,2,0,L|441:241,1,170.000003242493,2|0,0:0|0:0,0:0:0:0:
192,356,55314,5,0,0:0:0:0:
116,316,55485,1,0,0:0:0:0:
88,236,55657,2,0,P|96:168|180:104,1,170.000003242493,2|0,0:0|0:0,0:0:0:0:
240,56,56171,2,0,P|316:76|400:16,2,170.000003242493,2|2|0,0:0|0:0|0:0,0:0:0:0:
220,152,57028,2,0,L|200:244,1,85.0000016212464,2|0,0:0|0:0,0:0:0:0:
308,304,57371,2,0,L|290:221,1,85.0000016212464
396,152,57714,2,0,L|376:244,1,85.0000016212464,2|0,0:0|0:0,0:0:0:0:
484,304,58057,2,0,L|465:220,1,85.0000016212464
460,68,58400,6,0,P|376:76|324:16,1,170.000003242493,2|0,0:0|0:0,0:0:0:0:
288,96,58914,2,0,P|236:156|148:144,2,170.000003242493,2|0|0,0:0|0:0|0:0,0:0:0:0:
204,76,59771,2,0,P|136:60|96:80,1,85.0000016212464,2|0,0:0|0:0,0:0:0:0:
0,116,60114,2,0,P|68:132|108:112,1,85.0000016212464
64,224,60457,5,2,0:0:0:0:
48,308,60628,1,0,0:0:0:0:
152,364,60800,1,2,0:0:0:0:
136,280,60971,1,0,0:0:0:0:
236,220,61143,1,2,0:0:0:0:
220,304,61314,1,0,0:0:0:0:
320,360,61485,1,2,0:0:0:0:
304,276,61656,1,0,0:0:0:0:
361,214,61828,6,0,P|391:178|399:136,1,85.0000016212464,2|0,0:0|0:0,0:0:0:0:
150,169,62171,2,0,P|120:205|112:241,1,85.0000016212464,2|0,0:0|0:0,0:0:0:0:
278,86,62514,2,0,P|242:56|206:48,1,85.0000016212464,2|0,0:0|0:0,0:0:0:0:
233,297,62857,2,0,P|269:327|311:335,1,85.0000016212464,2|0,0:0|0:0,0:0:0:0:
279,87,63200,5,2,0:0:0:0:
253,63,63285,1,0,0:0:0:0:
221,49,63371,1,2,0:0:0:0:
187,46,63457,1,0,0:0:0:0:
153,51,63543,2,0,L|116:5,3,42.5000008106232,2|0|2|0,0:0|0:0|0:0|0:0,0:0:0:0:
110,147,63885,5,2,0:0:0:0:
104,180,63971,1,0,0:0:0:0:
91,211,64057,1,2,0:0:0:0:
71,239,64143,1,0,0:0:0:0:
45,261,64228,2,0,L|-3:268,3,42.5000008106232,2|0|2|0,0:0|0:0|0:0|0:0,0:0:0:0:
134,296,64571,5,2,0:0:0:0:
164,311,64657,1,0,0:0:0:0:
196,320,64743,1,2,0:0:0:0:
230,324,64828,1,0,0:0:0:0:
264,322,64914,1,2,0:0:0:0:
297,313,65000,1,0,0:0:0:0:
328,299,65085,1,2,0:0:0:0:
356,280,65171,1,0,0:0:0:0:
380,256,65257,5,2,0:0:0:0:
400,229,65343,1,0,0:0:0:0:
414,198,65428,1,2,0:0:0:0:
423,165,65514,1,0,0:0:0:0:
426,131,65600,1,12,0:0:0:0:
276,36,65948,6,0,P|216:100|136:108,1,170.000003242493,4|8,1:0|0:0,0:0:0:0:
60,80,66462,2,0,L|144:228,1,170.000003242493,0|8,0:0|0:0,0:0:0:0:
176,308,66976,2,0,L|188:364,1,42.5000008106232,2|0,2:0|2:0,0:0:0:0:
244,232,67148,2,0,L|232:176,1,42.5000008106232,2|0,2:0|2:0,0:0:0:0:
280,324,67319,2,0,P|360:340|420:272,1,170.000003242493,0|8,0:0|0:0,0:0:0:0:
392,201,67833,2,0,P|356:224|336:260,2,85.0000016212464,0|4|8,0:0|2:0|0:0,0:0:0:0:
420,120,68348,2,0,L|456:84,1,42.5000008106232,0|0,0:0|0:0,0:0:0:0:
344,68,68519,2,0,L|380:32,1,42.5000008106232,0|0,0:0|0:0,0:0:0:0:
280,132,68690,6,0,P|236:164|164:152,1,127.50000243187,4|0,0:0|0:0,0:0:0:0:
136,128,69033,1,8,0:0:0:0:
44,144,69205,2,0,P|84:212|168:256,1,170.000003242493,0|8,0:0|0:0,0:0:0:0:
256,248,69719,1,2,2:0:0:0:
280,244,69805,1,0,2:0:0:0:
304,244,69890,1,2,2:0:0:0:
328,252,69976,1,0,2:0:0:0:
348,264,70062,2,0,P|376:296|384:340,1,85.0000016212464,8|0,0:0|1:0,0:0:0:0:
244,160,70405,1,0,0:0:0:0:
320,132,70576,2,0,P|216:140|168:88,1,170.000003242493,0|0,0:0|0:0,0:0:0:0:
264,80,71090,2,0,P|264:124|232:168,1,85.0000016212464,0|0,0:0|0:0,0:0:0:0:
84,296,71433,6,0,P|84:252|116:208,1,85.0000016212464,4|0,0:0|0:0,0:0:0:0:
176,280,71776,1,8,0:0:0:0:
268,304,71948,2,0,P|352:284|384:212,1,170.000003242493,0|8,0:0|0:0,0:0:0:0:
292,212,72462,2,0,L|220:160,1,85.0000016212464,2|2,2:0|2:0,0:0:0:0:
204,148,72719,1,0,2:0:0:0:
184,132,72805,1,0,0:0:0:0:
104,68,72976,1,0,0:0:0:0:
60,216,73148,1,8,0:0:0:0:
184,132,73319,2,0,P|256:92|340:120,1,170.000003242493,0|8,0:0|0:0,0:0:0:0:
404,192,73833,1,0,0:0:0:0:
420,216,73919,1,0,0:0:0:0:
428,244,74005,1,0,0:0:0:0:
428,272,74090,1,0,0:0:0:0:
420,300,74176,6,0,P|384:344|308:352,1,127.50000243187,4|0,0:0|0:0,0:0:0:0:
300,332,74519,2,0,L|216:324,1,85.0000016212464,8|0,0:0|0:0,0:0:0:0:
64,236,74862,2,0,L|148:228,1,85.0000016212464,0|8,0:0|0:0,0:0:0:0:
300,212,75205,6,0,L|368:248,2,75
320,96,76062,2,0,L|472:180,1,150,0|0,3:0|0:0,0:0:0:0:
216,40,76919,6,0,P|168:128|96:140,1,170.000003242493,4|8,0:0|0:0,0:0:0:0:
116,40,77433,2,0,L|172:204,1,170.000003242493
204,300,77948,2,0,L|220:348,1,42.5000008106232,2|0,2:0|2:0,0:0:0:0:
276,212,78119,2,0,L|260:164,1,42.5000008106232,2|0,2:0|2:0,0:0:0:0:
324,312,78290,2,0,B|412:304|412:304|480:248,1,170.000003242493,0|8,0:0|0:0,0:0:0:0:
472,152,78805,2,0,L|392:212,2,85.0000016212464,0|4|8,0:0|2:0|0:0,0:0:0:0:
440,56,79319,1,0,0:0:0:0:
412,44,79405,1,0,0:0:0:0:
384,40,79490,1,0,0:0:0:0:
356,44,79576,1,0,0:0:0:0:
328,52,79662,6,0,B|264:96|264:96|208:96,1,127.50000243187,4|0,0:0|0:0,0:0:0:0:
168,76,80005,2,0,P|184:128|176:172,1,85.0000016212464,8|0,0:0|0:0,0:0:0:0:
92,284,80348,1,0,0:0:0:0:
28,144,80519,1,8,0:0:0:0:
180,156,80690,2,0,P|228:172|260:208,1,85.0000016212464,2|2,2:0|2:0,0:0:0:0:
264,220,80948,1,0,2:0:0:0:
268,248,81033,1,8,0:0:0:0:
240,344,81205,1,0,0:0:0:0:
356,176,81376,1,0,0:0:0:0:
92,284,81548,2,0,P|48:216|48:160,1,127.50000243187,0|0,0:0|0:0,0:0:0:0:
60,124,81890,2,0,P|116:156|156:156,1,85.0000016212464,0|0,0:0|0:0,0:0:0:0:
328,72,82233,2,0,P|272:40|232:40,1,85.0000016212464,0|4,0:0|0:0,0:0:0:0:
252,140,82576,5,0,0:0:0:0:
328,208,82748,1,8,0:0:0:0:
428,224,82919,2,0,L|488:152,2,85.0000016212464,0|0|8,0:0|0:0|0:0,0:0:0:0:
360,300,83433,1,2,2:0:0:0:
332,316,83519,1,0,2:0:0:0:
304,328,83605,1,2,2:0:0:0:
276,332,83690,1,0,2:0:0:0:
248,332,83776,2,0,P|204:324|160:292,1,85.0000016212464
152,204,84119,1,8,0:0:0:0:
244,160,84290,2,0,L|68:200,1,170.000003242493,0|8,0:0|0:0,0:0:0:0:
16,116,84805,1,0,0:0:0:0:
44,108,84890,1,0,0:0:0:0:
72,101,84976,1,0,0:0:0:0:
100,94,85062,1,0,0:0:0:0:
129,87,85148,6,0,B|200:88|200:88|248:52,1,127.50000243187,4|0,0:0|1:0,0:0:0:0:
280,16,85490,2,0,P|316:56|352:68,1,85.0000016212464,8|0,0:0|0:0,0:0:0:0:
444,48,85833,1,0,0:0:0:0:
400,140,86005,1,8,0:0:0:0:
352,232,86176,2,0,L|384:268,1,42.5000008106232,2|0,2:0|2:0,0:0:0:0:
304,320,86348,2,0,L|272:284,1,42.5000008106232,2|0,2:0|2:0,0:0:0:0:
392,352,86519,1,8,0:0:0:0:
192,240,86690,1,0,0:0:0:0:
420,264,86862,1,0,0:0:0:0:
220,152,87033,2,0,P|164:152|100:252,1,170.000003242493
280,216,87548,2,0,P|308:168|304:132,1,85.0000016212464
264,48,87890,6,0,L|392:160,1,170.000003242493,4|8,0:0|0:0,0:0:0:0:
392,328,88405,2,0,L|324:268,2,85.0000016212464,0|0|8,0:0|0:0|0:0,0:0:0:0:
256,208,88919,1,2,2:0:0:0:
220,212,89005,1,0,2:0:0:0:
184,228,89090,1,2,2:0:0:0:
160,256,89176,1,0,2:0:0:0:
148,292,89262,2,0,L|176:376,1,85.0000016212464
36,248,89605,2,0,L|8:164,1,85.0000016212464,8|0,0:0|0:0,0:0:0:0:
36,68,89948,2,0,P|92:96|128:92,1,85.0000016212464,4|0,2:0|0:0,0:0:0:0:
204,52,90290,2,0,L|248:44,1,42.5000008106232,0|0,0:0|0:0,0:0:0:0:
332,136,90462,2,0,L|288:144,1,42.5000008106232,0|0,0:0|0:0,0:0:0:0:
392,32,90633,6,0,P|440:84|448:152,1,127.50000243187,4|0,0:0|0:0,0:0:0:0:
440,180,90976,1,8,0:0:0:0:
356,236,91148,2,0,P|308:284|316:384,1,170.000003242493,0|8,0:0|0:0,0:0:0:0:
400,328,91662,2,0,L|444:308,1,42.5000008106232,2|0,2:0|2:0,0:0:0:0:
356,236,91833,2,0,L|312:216,1,42.5000008106232,2|0,2:0|2:0,0:0:0:0:
452,240,92005,2,0,B|464:196|464:196|456:152,1,85.0000016212464,8|0,0:0|0:0,0:0:0:0:
328,40,92348,2,0,B|316:84|316:84|324:128,1,85.0000016212464
420,92,92690,1,0,0:0:0:0:
227,155,92862,1,0,0:0:0:0:
421,214,93033,1,0,0:0:0:0:
300,55,93205,1,0,0:0:0:0:
302,254,93376,6,0,P|276:312|168:344,1,170.000003242493,4|8,0:0|0:0,0:0:0:0:
148,104,93890,2,0,P|211:97|288:162,1,170.000003242493,0|8,0:0|0:0,0:0:0:0:
96,312,94405,1,2,2:0:0:0:
67,280,94490,1,0,2:0:0:0:
54,240,94576,1,2,2:0:0:0:
57,198,94662,1,0,2:0:0:0:
76,160,94748,2,0,B|120:148|120:148|148:120,1,85.0000016212464
287,12,95090,2,0,B|300:56|300:56|328:84,1,85.0000016212464,8|0,0:0|0:0,0:0:0:0:
435,223,95433,2,0,B|392:236|392:236|364:264,1,85.0000016212464,0|8,0:0|0:0,0:0:0:0:
224,371,95776,2,0,B|212:328|212:328|184:300,1,85.0000016212464
156,276,96033,1,0,0:0:0:0:
124,252,96119,6,0,P|88:216|96:96,1,170.000003242493,4|8,0:0|0:0,0:0:0:0:
264,64,96633,2,0,P|300:100|292:220,1,170.000003242493,0|8,0:0|0:0,0:0:0:0:
244,300,97148,2,0,P|232:332|240:356,1,42.5000008106232,2|0,2:0|2:0,0:0:0:0:
188,212,97319,2,0,P|200:180|192:156,1,42.5000008106232,2|0,2:0|2:0,0:0:0:0:
288,212,97490,2,0,P|328:240|344:284,1,85.0000016212464,8|0,0:0|0:0,0:0:0:0:
188,212,97833,1,0,0:0:0:0:
240,124,98005,2,0,L|144:288,1,170.000003242493
52,284,98519,2,0,L|97:212,1,85.0000016212464
104,112,98862,6,0,P|132:208|196:236,1,170.000003242493,4|8,0:0|0:0,0:0:0:0:
292,240,99376,1,0,0:0:0:0:
420,156,99548,1,0,0:0:0:0:
292,240,99719,1,8,0:0:0:0:
424,316,99890,2,0,L|452:360,1,42.5000008106232,2|0,2:0|2:0,0:0:0:0:
292,240,100062,2,0,L|264:196,1,42.5000008106232,2|0,2:0|2:0,0:0:0:0:
420,156,100233,2,0,P|424:84|344:24,1,170.000003242493,0|8,0:0|0:0,0:0:0:0:
296,111,100748,1,0,0:0:0:0:
380,240,100919,2,0,P|356:300|336:316,1,85.0000016212464,4|8,2:0|0:0,0:0:0:0:
296,111,101262,2,0,P|320:51|340:35,1,85.0000016212464
372,28,101519,1,0,0:0:0:0:
408,20,101605,5,0,0:0:0:0:
424,140,101776,1,0,0:0:0:0:
344,228,101948,1,8,0:0:0:0:
228,260,102119,2,0,P|148:268|80:216,1,170.000003242493,0|8,0:0|0:0,0:0:0:0:
60,104,102633,1,2,2:0:0:0:
96,116,102719,1,0,2:0:0:0:
132,116,102805,1,2,2:0:0:0:
168,104,102890,1,0,2:0:0:0:
196,80,102976,2,0,L|280:104,1,85.0000016212464,8|0,0:0|0:0,0:0:0:0:
472,144,103319,2,0,L|388:168,1,85.0000016212464
196,216,103662,2,0,L|280:240,1,85.0000016212464
472,280,104005,2,0,L|388:304,1,85.0000016212464
484,188,104348,6,0,P|465:111|393:59,1,170.000003242493,4|8,0:0|0:0,0:0:0:0:
360,164,104862,2,0,P|281:202|205:182,1,170.000003242493,0|8,0:0|0:0,0:0:0:0:
104,136,105376,1,2,2:0:0:0:
116,170,105462,1,0,2:0:0:0:
128,205,105548,1,2,2:0:0:0:
140,240,105633,1,0,2:0:0:0:
153,275,105719,2,0,L|180:356,1,85.0000016212464
359,109,106062,2,0,L|332:28,1,85.0000016212464,8|0,0:0|0:0,0:0:0:0:
339,295,106405,2,0,L|420:268,1,85.0000016212464,0|8,0:0|0:0,0:0:0:0:
92,116,106748,2,0,L|173:89,1,85.0000016212464,0|0,0:0|0:0,0:0:0:0:
208,76,107005,1,0,0:0:0:0:
244,64,107090,6,0,P|304:88|336:80,1,85.0000016212464,4|0,0:0|0:0,0:0:0:0:
428,48,107433,1,8,0:0:0:0:
400,156,107605,2,0,P|336:196|236:192,1,170.000003242493,0|8,0:0|0:0,0:0:0:0:
156,132,108119,1,2,2:0:0:0:
128,164,108205,1,0,2:0:0:0:
112,204,108290,1,2,2:0:0:0:
112,248,108376,1,0,2:0:0:0:
128,288,108462,1,8,0:0:0:0:
328,208,108633,1,0,0:0:0:0:
192,364,108805,1,0,0:0:0:0:
264,132,108976,2,0,B|188:168|188:168|92:140,1,170.000003242493
0,228,109490,2,0,L|80:256,1,85.0000016212464,0|0,0:0|0:0,0:0:0:0:
208,228,109800,6,0,P|300:220|372:300,1,200,0|8,0:0|0:0,0:0:0:0:
264,324,110314,2,0,L|340:130,1,200
428,46,110828,1,8,0:0:0:0:
442,66,110914,1,0,0:0:0:0:
445,90,111000,1,0,0:0:0:0:
436,113,111085,1,0,0:0:0:0:
416,128,111171,2,0,P|359:142|269:44,1,200,0|8,0:0|0:0,0:0:0:0:
140,20,111685,5,0,0:0:0:0:
116,148,111857,2,0,P|96:208|48:236,1,100
68,372,112200,2,0,P|88:312|136:284,1,100,8|0,0:0|0:0,0:0:0:0:
240,320,112542,2,0,P|324:328|404:236,1,200,0|8,0:0|0:0,0:0:0:0:
336,136,113057,1,0,0:0:0:0:
336,136,113142,1,0,0:0:0:0:
336,136,113228,2,0,L|356:16,1,100
480,100,113571,2,0,L|460:220,1,100,8|0,0:0|0:0,0:0:0:0:
260,212,113914,6,0,P|188:212|100:116,1,200,0|8,0:0|0:0,0:0:0:0:
232,112,114428,2,0,L|232:340,1,200
116,368,114942,2,0,P|88:308|56:280,1,100,8|0,0:0|0:0,0:0:0:0:
16,116,115285,6,0,P|88:168|192:140,1,200,0|8,0:0|0:0,0:0:0:0:
308,196,115800,2,0,P|409:170|481:222,1,200
316,320,116314,1,8,0:0:0:0:
280,340,116400,1,0,0:0:0:0:
240,348,116485,1,0,0:0:0:0:
200,344,116571,1,0,0:0:0:0:
164,332,116657,6,0,P|116:304|88:260,1,100
116,100,117000,2,0,P|144:52|188:24,1,100,8|0,0:0|0:0,0:0:0:0:
348,52,117342,2,0,P|396:80|424:124,1,100
396,284,117685,2,0,P|368:332|324:360,1,100,8|0,0:0|0:0,0:0:0:0:
212,268,118028,6,0,B|161:240|161:240|73:247|73:247|23:220,1,200,0|8,0:0|0:0,0:0:0:0:
24,76,118542,2,0,B|74:48|74:48|162:55|162:55|212:28,1,200
320,164,119057,6,0,P|256:176|220:156,1,100,8|0,0:0|0:0,0:0:0:0:
392,144,119400,2,0,P|434:193|435:234,1,100,0|0,0:0|0:0,0:0:0:0:
340,92,119742,2,0,P|361:30|396:9,1,100,8|0,0:0|0:0,0:0:0:0:
356,16,120000,2,0,P|280:44|196:36,1,150
36,80,120428,2,0,P|120:88|220:164,1,200,8|0,0:0|0:0,0:0:0:0:
256,288,120942,5,0,0:0:0:0:
256,288,121028,1,0,0:0:0:0:
256,288,121114,1,8,0:0:0:0:
144,224,121285,2,0,P|116:144|200:28,1,200
284,108,121800,2,0,P|340:140|392:124,1,100,8|0,0:0|0:0,0:0:0:0:
488,32,122142,5,0,0:0:0:0:
348,64,122314,1,0,0:0:0:0:
444,168,122485,1,8,0:0:0:0:
348,64,122657,1,0,0:0:0:0:
308,44,122742,1,0,0:0:0:0:
264,40,122828,2,0,P|204:52|164:88,1,100
112,224,123171,2,0,P|172:212|212:176,1,100,8|0,0:0|0:0,0:0:0:0:
8,152,123514,6,0,L|56:352,1,200,0|8,0:0|0:0,0:0:0:0:
156,284,124028,2,0,P|208:256|348:312,1,200
512,208,124542,2,0,P|460:236|332:196,1,200,8|0,0:0|0:0,0:0:0:0:
372,72,125057,5,0,0:0:0:0:
412,92,125142,1,0,0:0:0:0:
436,132,125228,1,8,0:0:0:0:
332,196,125400,1,0,0:0:0:0:
232,120,125571,2,0,L|144:64,1,100
0,120,125914,2,0,L|88:176,1,100,8|0,0:0|0:0,0:0:0:0:
240,280,126257,6,0,P|152:280|80:360,1,200,0|8,0:0|0:0,0:0:0:0:
272,356,126771,2,0,L|192:156,1,200
232,28,127285,2,0,L|272:128,1,100,8|0,0:0|0:0,0:0:0:0:
428,156,127628,5,0,0:0:0:0:
312,44,127800,1,0,0:0:0:0:
272,200,127971,1,8,0:0:0:0:
428,156,128142,1,0,0:0:0:0:
428,156,128228,1,0,0:0:0:0:
428,156,128314,2,0,P|433:98|420:48,1,100,0|0,0:0|0:0,0:0:0:0:
272,200,128657,2,0,P|266:257|280:308,1,100,8|0,0:0|0:0,0:0:0:0:
388,248,129000,5,0,0:0:0:0:
312,60,129514,1,0,0:0:0:0:
124,136,130028,1,0,0:0:0:0:
200,324,130542,1,0,0:0:0:0:
388,248,131057,1,0,0:0:0:0:
124,136,131400,1,2,0:0:0:0:
200,324,131742,6,0,P|240:272|224:140,1,200,4|8,0:0|0:0,0:0:0:0:
156,256,132257,2,0,P|260:276|344:200,1,200
384,104,132771,1,8,0:0:0:0:
276,36,132942,1,0,0:0:0:0:
276,36,133028,1,0,0:0:0:0:
276,36,133114,6,0,L|176:36,1,100
124,156,133457,1,8,0:0:0:0:
232,228,133628,2,0,L|432:228,1,200
512,332,134142,2,0,P|432:340|408:368,1,100,8|0,0:0|0:0,0:0:0:0:
280,300,134485,6,0,P|200:332|68:296,1,200,0|8,0:0|0:0,0:0:0:0:
60,180,135000,1,0,0:0:0:0:
164,96,135171,2,0,P|264:136|320:224,1,200,0|8,0:0|0:0,0:0:0:0:
196,209,135685,2,0,P|248:136|348:96,1,200,0|0,0:0|0:0,0:0:0:0:
468,148,136200,5,8,0:0:0:0:
456,276,136371,1,0,0:0:0:0:
456,276,136457,1,0,0:0:0:0:
456,276,136542,2,0,P|400:292|352:268,1,100
164,360,136885,2,0,P|268:328|348:364,1,200,8|0,0:0|0:0,0:0:0:0:
456,276,137400,5,0,0:0:0:0:
468,148,137571,2,0,P|432:96|388:80,1,100,8|0,0:0|0:0,0:0:0:0:
236,92,137914,2,0,P|272:144|316:160,1,100
176,180,138257,2,0,L|72:148,1,100,8|0,0:0|0:0,0:0:0:0:
176,280,138600,2,0,L|280:312,1,100
392,264,138942,5,8,0:0:0:0:
384,132,139114,1,0,0:0:0:0:
384,132,139200,1,0,0:0:0:0:
384,132,139285,2,0,L|360:24,1,100
264,144,139628,2,0,L|288:252,1,100,8|0,0:0|0:0,0:0:0:0:
180,128,139971,6,0,P|120:80|0:96,1,200,0|8,0:0|0:0,0:0:0:0:
76,192,140485,2,0,P|108:268|24:360,1,200
12,264,141000,1,8,0:0:0:0:
184,308,141171,5,0,0:0:0:0:
184,308,141257,1,0,0:0:0:0:
184,308,141342,2,0,P|276:320|348:244,1,200,0|8,0:0|0:0,0:0:0:0:
312,120,141857,1,0,0:0:0:0:
192,76,142028,2,0,L|88:68,1,100
312,120,142371,2,0,L|416:128,1,100,8|0,0:0|0:0,0:0:0:0:
492,304,142714,6,0,P|408:244|304:256,1,200,0|8,0:0|0:0,0:0:0:0:
212,328,143228,1,0,0:0:0:0:
212,328,143314,1,0,0:0:0:0:
212,328,143400,2,0,P|152:344|108:320,1,100
56,216,143742,1,8,0:0:0:0:
156,132,143914,2,0,P|232:100|352:156,1,200
440,220,144428,6,0,L|472:104,1,100,8|0,0:0|0:0,0:0:0:0:
288,204,144771,2,0,L|256:320,1,100
368,140,145114,2,0,L|400:24,1,100,8|0,0:0|0:0,0:0:0:0:
216,124,145457,6,0,P|140:224|48:220,1,200,0|8,0:0|0:0,0:0:0:0:
124,108,145971,2,0,P|180:184|172:300,1,200
76,368,146485,1,8,0:0:0:0:
52,240,146657,1,0,0:0:0:0:
179,286,146828,6,0,P|234:299|296:288,1,100
460,360,147171,2,0,P|404:346|343:358,1,100,8|0,0:0|0:0,0:0:0:0:
432,244,147514,2,0,L|472:136,1,100
388,32,147857,2,0,L|348:140,1,100,8|0,0:0|0:0,0:0:0:0:
200,68,148200,6,0,P|112:40|32:104,1,200,0|8,0:0|0:0,0:0:0:0:
124,196,148714,1,0,0:0:0:0:
124,196,148800,1,0,0:0:0:0:
124,196,148885,2,0,P|184:208|228:180,1,100
376,232,149228,2,0,P|316:220|272:248,1,100,8|0,0:0|0:0,0:0:0:0:
400,368,149571,6,0,L|328:288,1,100
104,64,149914,2,0,L|176:144,1,100,8|0,0:0|0:0,0:0:0:0:
341,138,150257,2,0,L|408:64,1,100
178,293,150600,2,0,L|112:368,1,100,8|0,0:0|0:0,0:0:0:0:
18,142,150942,6,0,P|90:118|154:154,1,150
152,152,151285,2,0,P|184:143|222:82,1,100,8|0,0:0|0:0,0:0:0:0:
94,70,151628,1,0,0:0:0:0:
216,296,151800,2,0,P|207:263|146:225,1,100,8|0,0:0|0:0,0:0:0:0:
134,354,152142,1,0,0:0:0:0:
360,232,152314,6,0,P|327:240|289:301,1,100,8|0,0:0|0:0,0:0:0:0:
418,314,152657,1,0,0:0:0:0:
296,88,152828,2,0,P|304:120|365:158,1,100,8|0,0:0|0:0,0:0:0:0:
378,30,153171,1,0,0:0:0:0:
224,144,153342,2,0,L|208:256,1,100,8|0,0:0|0:0,0:0:0:0:
92,296,153685,5,4,0:0:0:0:
40,208,153857,1,0,0:0:0:0:
68,112,154028,2,0,P|120:56|248:56,1,200,8|0,0:0|0:0,0:0:0:0:
320,136,154542,1,0,0:0:0:0:
320,136,154628,1,0,0:0:0:0:
320,136,154714,2,0,L|344:248,1,100,8|0,0:0|0:0,0:0:0:0:
504,292,155057,6,0,L|480:180,1,100
412,96,155400,1,8,0:0:0:0:
416,264,155571,2,0,P|380:320|256:312,1,200
180,224,156085,1,8,0:0:0:0:
244,120,156257,5,0,0:0:0:0:
244,120,156342,1,0,0:0:0:0:
244,120,156428,2,0,P|208:72|156:64,1,100
52,76,156771,1,8,0:0:0:0:
12,188,156942,1,0,0:0:0:0:
12,188,157028,1,0,0:0:0:0:
12,188,157114,1,0,0:0:0:0:
180,224,157285,1,0,0:0:0:0:
52,76,157457,1,8,0:0:0:0:
240,40,157628,1,0,0:0:0:0:
312,172,157800,6,0,P|352:224|492:236,1,200,0|8,0:0|0:0,0:0:0:0:
412,144,158314,2,0,P|364:212|384:336,1,200
272,264,158828,2,0,P|220:252|168:272,1,100,8|0,0:0|0:0,0:0:0:0:
8,172,159171,6,0,P|112:196|216:156,1,200,0|8,0:0|0:0,0:0:0:0:
284,44,159685,1,0,0:0:0:0:
284,44,159771,1,0,0:0:0:0:
284,44,159857,1,0,0:0:0:0:
148,104,160028,1,0,0:0:0:0:
272,192,160200,1,8,0:0:0:0:
284,44,160371,1,0,0:0:0:0:
348,192,160542,6,0,P|412:248|520:228,1,200,0|8,0:0|0:0,0:0:0:0:
372,128,161057,2,0,L|292:320,1,200
152,224,161571,2,0,P|116:184|56:164,1,100,8|0,0:0|0:0,0:0:0:0:
74,166,161914,6,0,P|140:176|240:96,1,200,0|8,0:0|0:0,0:0:0:0:
340,36,162428,1,0,0:0:0:0:
340,36,162514,1,0,0:0:0:0:
340,36,162600,2,0,P|348:100|384:136,1,100
456,240,162942,2,0,P|396:214|347:228,1,100,8|0,0:0|0:0,0:0:0:0:
208,268,163285,6,0,L|172:364,2,100,0|0|8,0:0|0:0|0:0,0:0:0:0:
339,361,163800,2,0,L|304:268,2,100
256,200,164314,2,0,L|256:88,1,100,8|0,0:0|0:0,0:0:0:0:
148,24,164657,6,0,P|88:112|0:128,1,200,0|8,0:0|0:0,0:0:0:0:
100,196,165171,1,0,0:0:0:0:
140,204,165257,1,0,0:0:0:0:
176,220,165342,2,0,P|228:260|248:312,1,100
252,144,165685,2,0,P|260:78|295:35,1,100,8|0,0:0|0:0,0:0:0:0:
376,172,166028,6,0,P|404:252|352:376,1,200,0|8,0:0|0:0,0:0:0:0:
142,358,166542,2,0,P|108:252|136:172,1,200
48,32,167057,2,0,P|44:100|16:132,1,100,8|0,0:0|0:0,0:0:0:0:
144,76,167400,6,0,P|212:48|304:128,1,200,0|8,0:0|0:0,0:0:0:0:
264,232,167914,1,0,0:0:0:0:
264,232,168000,1,0,0:0:0:0:
264,232,168085,2,0,L|164:248,1,100
304,120,168428,2,0,L|404:104,1,100,8|0,0:0|0:0,0:0:0:0:
460,232,168771,6,0,P|432:300|300:300,1,200,0|8,0:0|0:0,0:0:0:0:
304,120,169285,2,0,P|189:133|161:201,1,200
128,364,169800,2,0,P|100:308|60:288,1,100,8|0,0:0|0:0,0:0:0:0:
244,340,170142,6,0,P|316:344|356:312,1,100
376,216,170485,1,8,0:0:0:0:
304,120,170657,1,0,0:0:0:0:
304,120,170742,1,0,0:0:0:0:
304,120,170828,2,0,L|188:96,1,100
376,216,171171,2,0,L|492:240,1,100,8|0,0:0|0:0,0:0:0:0:
280,288,171514,6,0,L|164:264,1,100
68,308,171857,1,8,0:0:0:0:
100,192,172028,2,0,P|92:108|8:24,1,200
152,52,172542,2,0,P|212:72|256:60,1,100,8|0,0:0|0:0,0:0:0:0:
408,144,172885,6,0,P|348:124|304:136,1,100
248,244,173228,1,8,0:0:0:0:
164,344,173400,6,0,P|144:272|192:160,1,200,0|8,0:0|0:0,0:0:0:0:
104,100,173914,6,0,P|176:80|288:128,1,200,0|8,0:0|0:0,0:0:0:0:
348,40,174428,6,0,P|368:112|320:224,1,200,0|8,0:0|0:0,0:0:0:0:
408,284,174942,6,0,P|336:304|224:256,1,200,0|8,0:0|0:0,0:0:0:0:
191,134,175457,5,0,0:0:0:0:
191,134,175542,1,0,0:0:0:0:
191,134,175628,2,0,L|206:23,1,100,4|0,0:0|0:0,0:0:0:0:
75,97,175971,2,0,L|44:319,1,200,8|0,0:0|0:0,0:0:0:0:
180,360,176485,1,0,0:0:0:0:
296,332,176657,2,0,P|356:264|364:204,1,150,8|0,0:0|0:0,0:0:0:0:
364,207,177000,6,0,L|444:128,1,100
271,83,177342,2,0,L|192:4,1,100,8|0,0:0|0:0,0:0:0:0:
147,176,177685,2,0,L|68:256,1,100
240,300,178028,2,0,L|320:380,1,100,8|0,0:0|0:0,0:0:0:0:
364,208,178371,6,0,L|204:48,1,200,0|8,0:0|0:0,0:0:0:0:
104,92,178885,1,0,0:0:0:0:
104,92,178971,1,0,0:0:0:0:
104,92,179057,2,0,P|84:148|112:208,1,100
36,352,179400,2,0,P|56:296|28:236,1,100,8|0,0:0|0:0,0:0:0:0:
168,148,179742,5,0,0:0:0:0:
256,64,179914,1,0,0:0:0:0:
308,172,180085,2,0,P|344:236|424:240,1,150,8|0,0:0|0:0,0:0:0:0:
414,244,180428,2,0,L|496:320,1,100
368,332,180771,2,0,P|280:308|192:372,1,200,8|0,0:0|0:0,0:0:0:0:
152,220,181285,5,0,0:0:0:0:
152,220,181371,1,0,0:0:0:0:
152,220,181457,2,0,P|122:169|76:132,1,100,8|0,0:0|0:0,0:0:0:0:
40,256,181800,2,0,P|11:306|1:365,1,100
124,332,182142,2,0,P|182:331|238:310,1,100,8|0,0:0|0:0,0:0:0:0:
408,272,182485,6,0,P|324:272|232:200,1,200,0|8,0:0|0:0,0:0:0:0:
344,156,183000,2,0,L|372:360,1,200
424,200,183514,6,0,L|408:88,1,100,8|0,0:0|0:0,0:0:0:0:
264,24,183857,2,0,L|152:40,1,100
88,184,184200,2,0,L|104:296,1,100,8|0,0:0|0:0,0:0:0:0:
248,360,184543,2,0,L|360:344,1,100
424,200,184885,2,0,P|364:240|244:216,1,200,8|0,0:0|0:0,0:0:0:0:
172,120,185400,5,0,0:0:0:0:
172,120,185485,1,0,0:0:0:0:
172,120,185571,2,0,L|152:16,1,100,8|0,0:0|0:0,0:0:0:0:
358,21,185914,2,0,L|340:120,1,100
248,232,186257,1,8,0:0:0:0:
212,216,186342,1,0,0:0:0:0:
172,216,186428,1,0,0:0:0:0:
136,228,186514,1,0,0:0:0:0:
108,256,186600,6,0,P|52:296|8:300,1,100
172,336,186942,2,0,P|244:308|356:364,1,200,8|0,0:0|0:0,0:0:0:0:
460,304,187457,1,0,0:0:0:0:
436,188,187628,6,0,L|396:96,1,100,8|0,0:0|0:0,0:0:0:0:
240,40,187971,2,0,L|280:132,1,100
388,248,188314,2,0,P|324:236|280:260,1,100,8|0,0:0|0:0,0:0:0:0:
56,224,188657,2,0,P|152:240|244:188,1,200,0|8,0:0|0:0,0:0:0:0:
124,156,189171,5,0,0:0:0:0:
124,156,189257,1,0,0:0:0:0:
124,156,189342,2,0,P|116:260|212:320,1,200,0|8,0:0|0:0,0:0:0:0:
328,316,189857,2,0,P|396:260|388:156,1,200,0|0,0:0|0:0,0:0:0:0:
316,60,190371,2,0,L|272:176,1,100,8|0,0:0|0:0,0:0:0:0:
244,280,190714,6,0,L|200:164,1,100,0|0,0:0|0:0,0:0:0:0:
200,164,190971,1,0,0:0:0:0:
188,140,191057,2,0,P|136:96|56:104,1,150,8|0,0:0|0:0,0:0:0:0:
58,102,191400,2,0,L|36:216,2,100,0|0|8,0:0|0:0|0:0,0:0:0:0:
136,220,191914,5,0,0:0:0:0:
136,220,192000,1,0,0:0:0:0:
136,220,192085,2,0,P|196:276|296:232,1,200,0|8,0:0|0:0,0:0:0:0:
304,116,192600,2,0,B|316:224|316:224|400:296,1,200
404,128,193114,6,0,P|372:40|252:28,1,200,8|0,0:0|0:0,0:0:0:0:
168,36,193628,1,0,0:0:0:0:
88,116,193800,2,0,B|74:172|74:172|104:254|104:254|90:310,1,200,8|0,0:0|0:0,0:0:0:0:
218,341,194314,1,0,0:0:0:0:
218,341,194400,1,0,0:0:0:0:
218,341,194485,2,0,B|233:288|233:288|300:232|300:232|316:176,1,200,8|0,0:0|0:0,0:0:0:0:
256,40,195000,5,0,0:0:0:0:
256,40,195085,1,0,0:0:0:0:
256,40,195171,2,0,P|196:96|172:160,1,150,8|0,0:0|0:0,0:0:0:0:
172,158,195514,2,0,P|124:124|76:124,1,100
0,232,195857,2,0,P|48:272|184:228,1,200,8|0,0:0|0:0,0:0:0:0:
308,304,196371,5,0,0:0:0:0:
308,304,196457,1,0,0:0:0:0:
308,304,196542,2,0,P|388:280|448:324,1,150,8|0,0:0|0:0,0:0:0:0:
440,312,196885,2,0,L|472:212,1,100
480,96,197228,2,0,B|432:112|432:112|336:80|336:80|288:96,1,200,8|4,0:0|0:0,0:0:0:0:
100,248,198086,5,0,0:0:0:0:
100,248,198257,2,0,P|172:232|204:144,1,170.000003242493,2|0,0:0|0:0,0:0:0:0:
120,164,198771,2,0,L|244:292,2,170.000003242493,2|0|0,0:0|0:0|0:0,0:0:0:0:
144,80,199628,2,0,P|184:64|224:76,1,85.0000016212464,2|0,0:0|0:0,0:0:0:0:
372,112,199971,2,0,P|332:128|288:116,1,85.0000016212464,0|0,0:0|0:0,0:0:0:0:
328,48,200314,1,4,0:0:0:0:
428,272,200828,5,0,0:0:0:0:
428,272,201000,2,0,P|372:312|276:272,1,170.000003242493,2|0,0:0|0:0,0:0:0:0:
208,320,201514,2,0,P|118:289|60:328,2,170.000003242493,2|0|0,0:0|0:0|0:0,0:0:0:0:
136,376,202371,2,0,L|124:192,1,170.000003242493,2|0,0:0|0:0,0:0:0:0:
40,72,202885,2,0,L|46:164,1,85.0000016212464,2|0,0:0|0:0,0:0:0:0:
240,264,203400,5,0,0:0:0:0:
324,284,203571,1,0,0:0:0:0:
404,256,203742,2,0,P|472:200|472:108,1,170.000003242493,2|0,0:0|0:0,0:0:0:0:
416,64,204257,1,0,0:0:0:0:
416,64,204428,2,0,P|328:76|260:12,1,170.000003242493,2|0,0:0|0:0,0:0:0:0:
208,88,204942,1,0,0:0:0:0:
208,88,205114,2,0,L|176:180,1,85.0000016212464,2|0,0:0|0:0,0:0:0:0:
331,168,205457,2,0,L|304:88,1,85.0000016212464
256,192,205800,6,0,L|311:352,1,170.000003242493,2|0,0:0|0:0,0:0:0:0:
368,288,206314,2,0,P|296:268|228:332,1,170.000003242493,2|0,0:0|0:0,0:0:0:0:
148,348,206828,1,0,0:0:0:0:
80,300,207000,1,0,0:0:0:0:
52,220,207171,2,0,B|43:172|43:172|68:103|68:103|59:56,1,170.000003242493,2|0,0:0|0:0,0:0:0:0:
144,56,207685,2,0,B|152:103|152:103|127:172|127:172|136:219,1,170.000003242493,2|0,0:0|0:0,0:0:0:0:
220,216,208200,2,0,B|212:176|212:176|228:128,2,85.0000016212464,2|0|4,0:0|0:0|0:0,0:0:0:0:
356,324,208885,6,0,P|368:276|408:252,1,85.0000016212464
496,240,209228,2,0,P|416:224|368:140,1,170.000003242493,2|0,0:0|0:0,0:0:0:0:
368,52,209742,2,0,L|296:208,2,170.000003242493,2|0|0,0:0|0:0|0:0,0:0:0:0:
268,80,210600,6,0,P|216:96|164:76,1,85.0000016212464,2|0,0:0|0:0,0:0:0:0:
52,172,210942,2,0,P|104:156|156:176,1,85.0000016212464
224,260,211285,2,0,L|268:352,1,85.0000016212464,2|0,0:0|0:0,0:0:0:0:
392,356,211628,2,0,L|348:264,1,85.0000016212464
296,120,211971,6,0,P|376:148|452:92,1,170.000003242493,2|0,0:0|0:0,0:0:0:0:
360,48,212485,2,0,L|332:240,1,170.000003242493,2|0,0:0|0:0,0:0:0:0:
192,216,213000,2,0,L|179:131,1,85.0000016212464,0|0,0:0|0:0,0:0:0:0:
132,40,213342,2,0,P|128:120|44:132,2,170.000003242493,2|0|0,0:0|0:0|0:0,0:0:0:0:
228,72,214200,5,0,0:0:0:0:
328,52,214371,1,2,0:0:0:0:
392,168,214542,1,0,0:0:0:0:
292,148,214713,1,2,0:0:0:0:
228,264,214885,1,0,0:0:0:0:
328,244,215056,1,2,0:0:0:0:
416,296,215228,1,0,0:0:0:0:
336,360,215400,6,0,L|248:348,1,85.0000016212464,2|0,0:0|0:0,0:0:0:0:
72,328,215742,2,0,L|160:316,1,85.0000016212464,2|0,0:0|0:0,0:0:0:0:
272,232,216085,2,0,L|184:220,1,85.0000016212464,2|0,0:0|0:0,0:0:0:0:
8,200,216428,2,0,L|96:188,1,85.0000016212464,2|0,0:0|0:0,0:0:0:0:
180,92,216771,6,0,L|196:36,3,42.5000008106232,2|0|0|0,0:0|0:0|0:0|0:0,0:0:0:0:
283,69,217114,2,0,L|336:45,3,42.5000008106232,2|0|0|0,0:0|0:0|0:0|0:0,0:0:0:0:
367,134,217457,2,0,L|420:160,3,42.5000008106232,2|0|0|0,0:0|0:0|0:0|0:0,0:0:0:0:
372,240,217800,2,0,L|386:296,3,42.5000008106232,2|0|0|0,0:0|0:0|0:0|0:0,0:0:0:0:
293,311,218142,5,2,0:0:0:0:
260,332,218228,1,0,0:0:0:0:
222,337,218314,1,2,0:0:0:0:
183,334,218400,1,0,0:0:0:0:
152,310,218485,1,2,0:0:0:0:
135,275,218571,1,0,0:0:0:0:
136,236,218657,1,2,0:0:0:0:
148,200,218742,1,0,0:0:0:0:
149,161,218828,5,2,0:0:0:0:
136,124,218914,1,0,0:0:0:0:
110,95,219000,1,2,0:0:0:0:
72,95,219085,1,0,0:0:0:0:
43,120,219171,1,12,0:0:0:0:
264,32,219510,6,0,P|316:104|392:128,1,170.000003242493,4|8,0:0|0:0,0:0:0:0:
480,104,220024,2,0,L|360:228,1,170.000003242493,0|8,0:0|0:0,0:0:0:0:
380,320,220538,2,0,L|416:284,1,42.5000008106232,2|0,2:0|2:0,0:0:0:0:
304,288,220710,2,0,L|268:324,1,42.5000008106232,2|0,2:0|2:0,0:0:0:0:
361,226,220881,2,0,P|353:174|321:142,1,85.0000016212464
156,84,221224,2,0,P|164:136|196:168,1,85.0000016212464,8|0,0:0|0:0,0:0:0:0:
297,269,221567,2,0,P|274:289|222:297,1,85.0000016212464,4|8,2:0|0:0,0:0:0:0:
288,119,221910,2,0,P|312:100|364:92,1,85.0000016212464
396,100,222167,1,0,0:0:0:0:
424,116,222252,6,0,L|472:284,1,170.000003242493,4|8,0:0|0:0,0:0:0:0:
404,360,222767,2,0,L|380:268,1,85.0000016212464
287,119,223110,2,0,L|265:201,1,85.0000016212464,8|2,0:0|2:0,0:0:0:0:
255,233,223367,1,0,2:0:0:0:
238,262,223452,1,2,2:0:0:0:
210,281,223538,1,0,2:0:0:0:
177,292,223624,2,0,P|121:297|85:282,1,85.0000016212464,8|0,0:0|0:0,0:0:0:0:
48,208,223967,1,0,0:0:0:0:
230,353,224138,2,0,P|148:376|55:353,1,170.000003242493
48,208,224652,2,0,P|104:203|140:218,1,85.0000016212464
289,118,224995,6,0,P|233:123|197:108,1,85.0000016212464,4|0,0:0|0:0,0:0:0:0:
364,64,225338,1,8,0:0:0:0:
444,112,225510,2,0,P|472:196|448:280,1,170.000003242493,0|8,0:0|0:0,0:0:0:0:
376,324,226024,2,0,L|348:356,1,42.5000008106232,2|0,2:0|2:0,0:0:0:0:
376,232,226195,2,0,L|362:191,1,42.5000008106232,2|0,2:0|2:0,0:0:0:0:
452,272,226367,2,0,P|368:272|284:304,1,170.000003242493,0|8,0:0|0:0,0:0:0:0:
216,360,226881,2,0,B|164:376|164:376|128:364,2,85.0000016212464,0|0|8,0:0|0:0|0:0,0:0:0:0:
152,292,227395,2,0,L|104:272,1,42.5000008106232,0|0,0:0|0:0,0:0:0:0:
108,156,227567,2,0,L|156:176,1,42.5000008106232,0|0,0:0|0:0,0:0:0:0:
248,108,227738,6,0,L|128:56,1,127.50000243187,4|0,0:0|0:0,0:0:0:0:
104,40,228081,2,0,P|56:88|32:92,1,85.0000016212464,8|0,0:0|0:0,0:0:0:0:
40,284,228424,2,0,P|88:236|112:232,1,85.0000016212464,0|8,0:0|0:0,0:0:0:0:
224,228,228767,6,0,P|260:252|296:260,2,75,0|0|0,3:0|3:0|3:0,0:0:0:0:
348,196,229624,2,0,P|376:252|336:332,1,150,0|0,3:0|0:0,0:0:0:0:
264,124,230481,6,0,P|288:48|384:28,1,170.000003242493,4|8,0:0|0:0,0:0:0:0:
356,116,230995,2,0,L|404:192,2,85.0000016212464,0|0|8,0:0|0:0|0:0,0:0:0:0:
264,124,231510,2,0,L|232:80,1,42.5000008106232,2|0,2:0|2:0,0:0:0:0:
224,204,231681,2,0,L|176:200,1,42.5000008106232,2|0,2:0|2:0,0:0:0:0:
296,256,231852,2,0,P|316:304|288:380,1,127.50000243187,0|0,0:0|0:0,0:0:0:0:
252,364,232195,2,0,L|168:332,1,85.0000016212464,8|0,0:0|0:0,0:0:0:0:
48,172,232538,2,0,L|132:204,1,85.0000016212464,4|8,2:0|0:0,0:0:0:0:
324,148,232881,1,0,0:0:0:0:
292,152,232967,1,0,0:0:0:0:
260,148,233052,1,0,0:0:0:0:
228,132,233138,1,0,0:0:0:0:
203,105,233224,6,0,P|144:112|84:84,1,127.50000243187,4|0,0:0|0:0,0:0:0:0:
52,52,233567,2,0,L|20:136,1,85.0000016212464,8|0,0:0|0:0,0:0:0:0:
108,168,233910,1,0,0:0:0:0:
20,300,234081,1,8,0:0:0:0:
144,264,234252,2,0,L|184:244,1,42.5000008106232,2|0,2:0|2:0,0:0:0:0:
108,356,234424,2,0,L|68:376,1,42.5000008106232,2|0,2:0|2:0,0:0:0:0:
200,152,234595,2,0,P|264:164|288:188,1,85.0000016212464,8|0,0:0|0:0,0:0:0:0:
332,252,234938,1,0,0:0:0:0:
352,344,235110,2,0,P|416:296|416:208,1,170.000003242493
428,96,235624,2,0,P|476:72|492:36,1,85.0000016212464
328,56,235967,6,0,P|268:96|272:200,1,170.000003242493,4|8,0:0|0:0,0:0:0:0:
88,268,236481,2,0,P|148:228|144:124,1,170.000003242493,0|8,0:0|0:0,0:0:0:0:
68,180,236995,2,0,L|24:208,1,42.5000008106232,2|0,2:0|2:0,0:0:0:0:
100,44,237167,2,0,L|144:16,1,42.5000008106232,2|0,2:0|2:0,0:0:0:0:
224,180,237339,2,0,P|284:224|308:224,1,85.0000016212464
148,120,237681,1,8,0:0:0:0:
296,40,237852,2,0,P|227:69|215:90,1,85.0000016212464,0|4,0:0|2:0,0:0:0:0:
384,4,238195,1,8,0:0:0:0:
384,180,238367,1,0,0:0:0:0:
393,160,238452,1,0,0:0:0:0:
397,140,238538,1,0,0:0:0:0:
395,119,238624,1,0,0:0:0:0:
388,98,238709,5,4,0:0:0:0:
240,184,238881,1,0,0:0:0:0:
384,268,239052,1,8,0:0:0:0:
388,98,239224,2,0,P|328:60|228:64,1,170.000003242493,0|8,0:0|0:0,0:0:0:0:
148,108,239738,2,0,L|88:80,1,42.5000008106232,2|0,2:0|2:0,0:0:0:0:
92,180,239910,2,0,L|32:152,1,42.5000008106232,2|0,2:0|2:0,0:0:0:0:
120,264,240082,2,0,P|100:320|64:344,1,85.0000016212464,8|0,0:0|0:0,0:0:0:0:
32,260,240424,1,0,0:0:0:0:
212,224,240595,2,0,P|268:244|296:352,1,170.000003242493
120,264,241110,2,0,P|108:212|128:172,1,85.0000016212464
196,132,241452,6,0,P|104:152|48:104,1,170.000003242493,4|8,0:0|0:0,0:0:0:0:
280,80,241967,2,0,L|352:128,2,85.0000016212464,0|0|8,0:0|0:0|0:0,0:0:0:0:
160,108,242481,2,0,L|195:130,1,42.5000008106232,2|0,2:0|2:0,0:0:0:0:
147,34,242653,2,0,L|111:11,1,42.5000008106232,2|0,2:0|2:0,0:0:0:0:
52,136,242824,2,0,P|84:216|168:264,1,170.000003242493,0|8,0:0|0:0,0:0:0:0:
256,220,243338,2,0,L|256:308,2,85.0000016212464,0|4|0,0:0|2:0|0:0,0:0:0:0:
359,260,243852,1,0,0:0:0:0:
398,242,243937,1,0,0:0:0:0:
429,213,244023,1,0,0:0:0:0:
450,177,244109,1,0,0:0:0:0:
460,135,244196,6,0,P|400:80|388:36,1,127.50000243187,4|0,0:0|0:0,0:0:0:0:
392,4,244538,1,8,0:0:0:0:
296,60,244710,2,0,B|224:104|224:104|136:108,1,170.000003242493,0|8,0:0|0:0,0:0:0:0:
32,76,245224,2,0,L|4:124,1,42.5000008106232,2|0,2:0|2:0,0:0:0:0:
68,244,245395,2,0,L|96:196,1,42.5000008106232,2|0,2:0|2:0,0:0:0:0:
32,76,245567,2,0,P|20:130|29:165,1,85.0000016212464,8|0,0:0|0:0,0:0:0:0:
176,280,245910,2,0,P|187:225|178:190,2,85.0000016212464
284,36,246424,1,0,0:0:0:0:
356,184,246596,1,0,0:0:0:0:
456,52,246767,1,0,0:0:0:0:
284,36,246939,6,0,P|232:80|216:140,1,127.50000243187,4|0,0:0|0:0,0:0:0:0:
228,188,247281,2,0,B|236:232|236:232|220:272,1,85.0000016212464,8|0,0:0|0:0,0:0:0:0:
80,128,247624,2,0,B|72:84|72:84|88:44,1,85.0000016212464,0|8,0:0|0:0,0:0:0:0:
228,188,247967,1,2,2:0:0:0:
232,220,248052,1,0,2:0:0:0:
232,256,248138,1,2,2:0:0:0:
220,288,248224,1,0,2:0:0:0:
200,316,248310,2,0,P|164:352|120:356,1,85.0000016212464
228,188,248652,2,0,P|264:152|308:148,1,85.0000016212464,8|0,0:0|0:0,0:0:0:0:
500,192,248995,2,0,P|464:228|420:232,1,85.0000016212464,0|8,0:0|0:0,0:0:0:0:
296,147,249338,2,0,L|248:115,1,42.5000008106232,0|0,0:0|0:0,0:0:0:0:
368,92,249510,2,0,L|320:60,1,42.5000008106232,0|0,0:0|0:0,0:0:0:0:
456,112,249681,6,0,P|416:168|424:236,1,127.50000243187,4|0,0:0|0:0,0:0:0:0:
432,256,250024,1,8,0:0:0:0:
484,356,250195,2,0,P|392:360|332:308,1,170.000003242493,0|8,0:0|0:0,0:0:0:0:
280,216,250710,1,2,2:0:0:0:
260,184,250795,1,0,2:0:0:0:
232,156,250881,1,2,2:0:0:0:
200,140,250967,1,0,2:0:0:0:
164,132,251052,2,0,P|120:132|76:152,1,85.0000016212464,8|0,0:0|0:0,0:0:0:0:
16,280,251395,1,0,0:0:0:0:
160,228,251567,2,0,P|208:268|200:368,1,170.000003242493
160,228,252081,2,0,P|124:192|116:160,1,85.0000016212464
224,144,252424,6,0,L|80:236,1,170.000003242493,4|8,0:0|0:0,0:0:0:0:
176,64,252938,2,0,P|272:56|320:108,1,170.000003242493,0|8,0:0|0:0,0:0:0:0:
308,216,253452,1,2,2:0:0:0:
304,252,253538,1,0,2:0:0:0:
316,284,253624,1,2,2:0:0:0:
340,308,253710,1,0,2:0:0:0:
372,324,253795,2,0,L|464:348,1,85.0000016212464
308,216,254138,2,0,L|216:192,1,85.0000016212464,8|0,0:0|0:0,0:0:0:0:
165,352,254481,2,0,L|248:374,1,85.0000016212464,4|8,2:0|0:0,0:0:0:0:
102,245,254824,2,0,L|20:224,1,85.0000016212464
228,248,255167,6,0,P|264:188|252:120,1,127.50000243187,4|0,0:0|0:0,0:0:0:0:
244,100,255510,1,8,0:0:0:0:
156,164,255681,2,0,L|336:96,1,170.000003242493,0|8,0:0|0:0,0:0:0:0:
412,52,256195,2,0,L|456:16,1,42.5000008106232,2|0,2:0|2:0,0:0:0:0:
408,172,256367,2,0,L|388:216,1,42.5000008106232,2|0,2:0|2:0,0:0:0:0:
315,103,256538,2,0,P|264:120|228:108,1,85.0000016212464,8|0,0:0|0:0,0:0:0:0:
302,287,256881,2,0,P|314:234|335:213,1,85.0000016212464
150,184,257224,2,0,P|189:221|197:250,1,85.0000016212464
88,272,257567,1,0,0:0:0:0:
44,172,257738,1,0,0:0:0:0:
108,84,257910,6,0,L|48:20,2,85.0000016212464,4|0|8,0:0|0:0|0:0,0:0:0:0:
184,164,258424,2,0,P|263:195|320:182,1,127.50000243187
336,176,258767,1,8,0:0:0:0:
412,96,258938,2,0,L|448:44,1,42.5000008106232,2|0,2:0|2:0,0:0:0:0:
428,208,259110,2,0,L|464:156,1,42.5000008106232,2|0,2:0|2:0,0:0:0:0:
444,308,259281,2,0,P|408:348|368:356,1,85.0000016212464
276,212,259624,2,0,P|312:172|352:164,1,85.0000016212464,8|0,0:0|0:0,0:0:0:0:
236,292,259967,2,0,B|208:328|208:328|160:352,1,85.0000016212464,0|8,0:0|0:0,0:0:0:0:
64,328,260310,1,0,0:0:0:0:
88,300,260395,1,0,0:0:0:0:
104,264,260481,1,0,0:0:0:0:
108,224,260567,1,0,0:0:0:0:
100,188,260652,6,0,P|84:128|32:76,1,127.50000243187,4|0,0:0|0:0,0:0:0:0:
12,64,260996,1,8,0:0:0:0:
200,176,261167,2,0,P|280:216|368:208,1,170.000003242493,0|8,0:0|0:0,0:0:0:0:
456,160,261681,2,0,L|496:104,1,42.5000008106232,2|0,2:0|2:0,0:0:0:0:
440,324,261852,2,0,L|400:380,1,42.5000008106232,2|0,2:0|2:0,0:0:0:0:
320,232,262024,2,0,P|264:224|232:240,1,85.0000016212464,8|0,0:0|0:0,0:0:0:0:
168,320,262367,1,0,0:0:0:0:
296,124,262538,2,0,P|348:128|428:48,1,170.000003242493
216,68,263052,2,0,L|132:92,1,85.0000016212464
4,216,263398,6,0,P|104:216|152:264,1,165.000005035401,4|0,0:0|0:0,0:0:0:0:
160,284,263740,1,8,0:0:0:0:
280,228,263912,2,0,P|348:268|472:196,1,220.000006713867
392,72,264426,2,0,L|272:52,1,110.000003356934,8|0,0:0|0:0,0:0:0:0:
132,156,264769,6,0,L|252:136,1,110.000003356934
148,44,265112,1,8,0:0:0:0:
32,104,265283,1,0,0:0:0:0:
52,236,265455,2,0,P|96:280|156:272,1,110.000003356934
160,268,265712,1,0,0:0:0:0:
180,260,265798,2,0,P|224:259|268:303,1,110.000003356934,8|0,0:0|0:0,0:0:0:0:
432,360,266140,6,0,P|428:260|496:160,1,220.000006713867,0|8,0:0|0:0,0:0:0:0:
340,192,266655,2,0,P|260:204|140:116,1,220.000006713867
256,44,267169,1,8,0:0:0:0:
376,112,267340,5,0,0:0:0:0:
376,112,267426,1,0,0:0:0:0:
376,112,267512,2,0,P|444:124|488:96,1,110.000003356934
340,192,267855,2,0,P|272:180|228:208,1,110.000003356934,8|0,0:0|0:0,0:0:0:0:
238,198,268112,2,0,L|134:158,1,110.000003356934
112,136,268369,1,0,0:0:0:0:
16,268,268540,2,0,P|76:308|144:288,1,110.000003356934,8|0,0:0|0:0,0:0:0:0:
260,336,268883,6,0,P|368:312|460:376,1,220.000006713867,0|8,0:0|0:0,0:0:0:0:
424,248,269398,1,0,0:0:0:0:
408,216,269483,1,0,0:0:0:0:
404,176,269569,2,0,P|416:120|452:84,1,110.000003356934
296,128,269912,2,0,P|196:152|124:52,1,220.000006713867,8|0,0:0|0:0,0:0:0:0:
224,56,270426,5,0,0:0:0:0:
252,232,270598,1,8,0:0:0:0:
88,168,270769,1,0,0:0:0:0:
88,168,270855,1,0,0:0:0:0:
88,168,270940,2,0,L|60:56,1,110.000003356934
16,248,271283,2,0,L|44:360,1,110.000003356934,8|0,0:0|0:0,0:0:0:0:
144,236,271626,6,0,P|220:220|308:332,1,220.000006713867,0|8,0:0|0:0,0:0:0:0:
204,316,272140,2,0,P|292:220|368:236,1,220.000006713867
256,360,272655,2,0,L|256:128,1,220.000006713867,8|0,0:0|0:0,0:0:0:0:
316,20,273169,5,0,0:0:0:0:
324,56,273255,1,0,0:0:0:0:
344,88,273340,2,0,P|400:132|496:116,1,165.000005035401,8|0,0:0|0:0,0:0:0:0:
460,148,273683,2,0,P|432:208|452:264,1,110.000003356934,0|0,0:0|0:0,0:0:0:0:
332,360,274026,2,0,P|296:276|172:224,1,220.000006713867,8|0,0:0|0:0,0:0:0:0:
72,300,274540,5,0,0:0:0:0:
72,300,274626,1,0,0:0:0:0:
72,300,274712,1,8,0:0:0:0:
228,312,274883,1,0,0:0:0:0:
160,168,275055,2,0,P|96:136|32:148,1,110.000003356934
248,112,275398,2,0,P|312:144|376:132,1,110.000003356934,8|0,0:0|0:0,0:0:0:0:
408,32,275740,6,0,B|386:92|386:92|386:185|386:185|364:245,1,220.000006713867,0|8,0:0|0:0,0:0:0:0:
147,244,276255,2,0,B|125:185|125:185|125:92|125:92|104:32,1,220.000006713867
48,188,276769,2,0,L|92:312,1,110.000003356934,8|0,0:0|0:0,0:0:0:0:
224,336,277112,6,0,P|284:300|328:300,1,110.000003356934
460,308,277455,2,0,P|380:288|340:220,1,165.000005035401,8|0,0:0|0:0,0:0:0:0:
340,220,277798,2,0,L|376:116,1,110.000003356934
248,24,278140,2,0,P|188:100|64:116,1,220.000006713867,8|0,0:0|0:0,0:0:0:0:
88,268,278655,5,0,0:0:0:0:
88,268,278740,1,0,0:0:0:0:
88,268,278826,2,0,P|152:276|184:324,1,110.000003356934,8|0,0:0|0:0,0:0:0:0:
332,360,279169,2,0,P|340:296|388:264,1,110.000003356934
424,116,279512,2,0,P|360:108|328:60,1,110.000003356934,8|0,0:0|0:0,0:0:0:0:
180,24,279855,6,0,P|172:88|32:124,1,220.000006713867,0|8,0:0|0:0,0:0:0:0:
88,44,280369,2,0,L|224:220,1,220.000006713867
320,343,280883,2,0,P|360:295|424:287,1,110.000003356934,8|0,0:0|0:0,0:0:0:0:
480,132,281226,6,0,P|440:180|376:188,1,110.000003356934
284,100,281569,1,8,0:0:0:0:
148,140,281740,1,0,0:0:0:0:
124,172,281826,1,0,0:0:0:0:
116,208,281912,1,0,0:0:0:0:
120,248,281998,1,0,0:0:0:0:
140,280,282083,2,0,P|192:312|256:300,1,110.000003356934,0|8,0:0|0:0,0:0:0:0:
308,184,282426,1,0,0:0:0:0:
204,88,282598,6,0,P|148:48|68:60,1,150.000005722046,0|0,0:0|0:0,0:0:0:0:
120,148,283112,6,0,P|80:204|92:284,1,150.000005722046,0|0,0:0|0:0,0:0:0:0:
180,232,283626,6,0,P|236:272|316:260,1,150.000005722046,0|0,0:0|0:0,0:0:0:0:
264,172,284140,6,0,P|304:116|292:36,1,150.000005722046,0|0,0:0|0:0,0:0:0:0:
204,88,284655,1,0,0:0:0:0:
444,284,284998,1,2,0:0:0:0:
368,64,285340,6,0,P|296:28|156:60,1,220.000006713867,4|8,0:0|0:0,0:0:0:0:
68,164,285855,1,0,0:0:0:0:
68,164,285940,1,0,0:0:0:0:
68,164,286026,2,0,L|80:292,1,110.000003356934
188,368,286369,1,8,0:0:0:0:
248,240,286540,2,0,P|296:200|468:216,1,220.000006713867
420,344,287055,6,0,P|364:372|316:360,1,110.000003356934,8|0,0:0|0:0,0:0:0:0:
104,356,287398,2,0,P|76:300|88:252,1,110.000003356934
92,40,287740,2,0,P|148:12|196:24,1,110.000003356934,8|0,0:0|0:0,0:0:0:0:
408,28,288083,6,0,P|436:84|320:168,1,220.000006713867,0|8,0:0|0:0,0:0:0:0:
192,148,288598,2,0,P|91:236|119:292,1,220.000006713867
256,340,289112,1,8,0:0:0:0:
384,280,289283,5,0,0:0:0:0:
384,280,289369,1,0,0:0:0:0:
384,280,289455,2,0,L|404:168,1,110.000003356934
200,88,289798,2,0,L|180:200,1,110.000003356934,8|0,0:0|0:0,0:0:0:0:
256,340,290140,2,0,L|276:228,1,110.000003356934
72,148,290483,2,0,L|52:260,1,110.000003356934,8|0,0:0|0:0,0:0:0:0:
256,340,290826,6,0,P|332:328|396:196,1,220.000006713867,0|8,0:0|0:0,0:0:0:0:
364,72,291340,1,0,0:0:0:0:
364,72,291426,1,0,0:0:0:0:
364,72,291512,2,0,L|248:96,1,110.000003356934
104,224,291855,2,0,L|220:200,1,110.000003356934,8|0,0:0|0:0,0:0:0:0:
140,116,292198,5,0,0:0:0:0:
176,304,292369,1,0,0:0:0:0:
320,180,292540,1,8,0:0:0:0:
104,224,292712,1,0,0:0:0:0:
248,96,292883,2,0,P|296:52|304:8,1,110.000003356934
284,280,293226,2,0,P|328:328|372:336,1,110.000003356934,8|0,0:0|0:0,0:0:0:0:
472,164,293569,6,0,P|400:128|248:176,1,220.000006713867,0|8,0:0|0:0,0:0:0:0:
104,40,294083,2,0,P|176:76|307:46,1,220.000006713867
408,184,294598,2,0,L|432:300,1,110.000003356934,8|0,0:0|0:0,0:0:0:0:
264,344,294940,6,0,L|148:368,1,110.000003356934
104,200,295283,2,0,L|80:84,1,110.000003356934,8|0,0:0|0:0,0:0:0:0:
248,40,295626,2,0,L|364:16,1,110.000003356934
408,184,295969,2,0,L|432:300,1,110.000003356934,8|0,0:0|0:0,0:0:0:0:
104,200,296312,6,0,P|160:140|300:152,1,220.000006713867,0|8,0:0|0:0,0:0:0:0:
356,304,296826,1,0,0:0:0:0:
356,304,296912,1,0,0:0:0:0:
356,304,296998,2,0,P|288:292|260:256,1,110.000003356934
256,52,297340,1,8,0:0:0:0:
468,32,297512,1,0,0:0:0:0:
492,248,297683,6,0,L|472:380,1,110.000003356934
344,204,298026,2,0,L|364:72,1,110.000003356934,8|0,0:0|0:0,0:0:0:0:
244,188,298369,2,0,P|160:232|48:168,1,220.000006713867,0|8,0:0|0:0,0:0:0:0:
160,36,298883,5,0,0:0:0:0:
160,36,298969,1,0,0:0:0:0:
160,36,299055,2,0,L|280:36,1,110.000003356934
356,152,299398,1,8,0:0:0:0:
472,72,299569,1,0,0:0:0:0:
480,216,299740,2,0,P|432:284|304:260,1,220.000006713867,0|8,0:0|0:0,0:0:0:0:
192,324,300255,2,0,P|69:305|21:373,1,220.000006713867
132,220,300769,6,0,P|164:164|144:104,1,110.000003356934,8|0,0:0|0:0,0:0:0:0:
8,88,301112,2,0,P|40:143|102:156,1,110.000003356934
184,52,301455,2,0,P|119:52|77:99,1,110.000003356934,8|0,0:0|0:0,0:0:0:0:
236,180,301798,6,0,P|304:184|396:72,1,220.000006713867,0|8,0:0|0:0,0:0:0:0:
392,240,302312,1,0,0:0:0:0:
392,240,302398,1,0,0:0:0:0:
392,240,302483,2,0,P|392:316|428:356,1,110.000003356934
236,180,302826,2,0,P|170:141|117:153,1,110.000003356934,8|0,0:0|0:0,0:0:0:0:
60,256,303169,6,0,L|136:356,1,110.000003356934
188,144,303512,2,0,L|172:28,1,110.000003356934,8|0,0:0|0:0,0:0:0:0:
339,35,303855,2,0,L|324:144,1,110.000003356934
385,343,304198,2,0,L|452:256,1,110.000003356934,8|0,0:0|0:0,0:0:0:0:
344,248,304540,6,0,P|296:292|200:268,1,165.000005035401
204,272,304883,2,0,P|152:248|96:256,1,110.000003356934,8|0,0:0|0:0,0:0:0:0:
140,344,305226,1,0,0:0:0:0:
175,140,305398,2,0,P|200:88|192:32,1,110.000003356934,8|0,0:0|0:0,0:0:0:0:
104,76,305741,1,0,0:0:0:0:
307,111,305912,6,0,P|360:136|416:128,1,110.000003356934,8|0,0:0|0:0,0:0:0:0:
372,40,306255,1,0,0:0:0:0:
336,243,306427,2,0,P|312:296|320:352,1,110.000003356934,8|0,0:0|0:0,0:0:0:0:
408,308,306770,1,0,0:0:0:0:
308,112,306940,2,0,P|249:116|205:151,1,110.000003356934,8|0,0:0|0:0,0:0:0:0:
336,243,307280,1,4,0:0:0:0:
336,243,318251,6,0,P|412:208|404:32,1,279.999991455078,0|2,0:0|0:0,0:0:0:0:
344,124,319280,1,0,0:0:0:0:
292,144,319451,1,0,0:0:0:0:
236,144,319623,2,0,P|280:208|274:267,1,139.999995727539,0|0,0:0|0:0,0:0:0:0:
123,127,320308,2,0,P|156:57|211:33,1,139.999995727539,2|0,0:0|0:0,0:0:0:0:
168,232,320994,6,0,P|88:236|32:64,1,279.999991455078,0|2,0:0|0:0,0:0:0:0:
128,116,322022,1,0,0:0:0:0:
176,84,322194,1,0,0:0:0:0:
232,68,322365,2,0,P|312:64|368:236,2,279.999991455078,0|2|0,0:0|0:0|0:0,0:0:0:0:
208,180,324080,5,0,0:0:0:0:
320,208,324422,2,0,P|360:128|340:56,1,139.999995727539,2|0,0:0|0:0,0:0:0:0:
256,24,325108,2,0,B|108:29|166:144|17:145,1,279.999991455078,2|0,0:0|0:0,0:0:0:0:
16,32,326137,1,0,0:0:0:0:
16,32,326308,1,0,0:0:0:0:
16,32,326480,6,0,B|163:37|105:152|254:153,1,279.999991455078,2|0,0:0|0:0,0:0:0:0:
356,104,327508,1,0,0:0:0:0:
348,216,327851,2,0,P|320:288|128:300,2,279.999991455078,2|0|4,0:0|0:0|0:0,0:0:0:0:
296,132,329393,5,0,0:0:0:0:
324,44,329565,1,8,2:0:0:0:
396,104,329737,2,0,L|228:152,1,170.000003242493
164,256,330251,2,0,L|252:228,1,85.0000016212464,2|0,3:0|0:0,0:0:0:0:
396,244,330594,2,0,L|328:306,1,85.0000016212464
264,364,330937,1,8,2:0:0:0:
480,292,331108,2,0,P|488:196|424:148,1,170.000003242493
244,80,331622,2,0,P|236:176|286:220,1,170.000003242493,2|4,3:0|2:0,0:0:0:0:
380,228,332137,5,0,0:0:0:0:
436,152,332308,1,8,2:0:0:0:
344,144,332480,2,0,P|288:200|304:284,1,170.000003242493
436,152,332994,2,0,P|428:100|404:72,1,85.0000016212464,2|0,3:0|0:0,0:0:0:0:
192,32,333337,2,0,P|200:84|224:112,1,85.0000016212464
312,120,333680,1,8,2:0:0:0:
308,32,333851,2,0,L|148:100,1,170.000003242493
92,172,334365,2,0,L|68:216,1,42.5000008106232,2|2,3:0|3:0,0:0:0:0:
148,240,334537,2,0,L|124:284,1,42.5000008106232
172,156,334708,6,0,P|228:156|264:180,1,85.0000016212464
328,340,335051,2,0,P|272:340|236:316,1,85.0000016212464,8|0,2:0|0:0,0:0:0:0:
340,172,335394,2,0,P|340:228|316:264,1,85.0000016212464,0|8,0:0|2:0,0:0:0:0:
156,328,335737,2,0,P|156:272|180:236,1,85.0000016212464,2|0,3:0|0:0,0:0:0:0:
188,224,335994,1,0,0:0:0:0:
208,200,336080,2,0,P|221:175|221:119,1,85.0000016212464
176,40,336422,1,8,2:0:0:0:
268,48,336594,2,0,P|296:96|292:208,1,170.000003242493
256,292,337108,1,2,3:0:0:0:
244,320,337194,1,2,3:0:0:0:
240,348,337280,1,0,0:0:0:0:
332,336,337451,6,0,P|371:280|467:279,1,170.000003242493,0|8,0:0|2:0,0:0:0:0:
422,360,337965,2,0,L|504:204,1,170.000003242493
444,96,338480,2,0,L|404:172,1,85.0000016212464,2|0,3:0|0:0,0:0:0:0:
272,256,338822,2,0,L|312:180,1,85.0000016212464
320,328,339165,1,8,2:0:0:0:
212,208,339337,2,0,P|219:125|287:81,1,170.000003242493
429,85,339852,2,0,L|364:140,1,85.0000016212464,2|0,3:0|0:0,0:0:0:0:
348,40,340194,6,0,L|400:212,1,170.000003242493,4|8,2:0|2:0,0:0:0:0:
344,300,340708,1,0,0:0:0:0:
319,218,340879,1,0,0:0:0:0:
294,137,341050,1,8,2:0:0:0:
232,228,341222,2,0,L|208:268,2,42.5000008106232,2|2|0,3:0|3:0|0:0,0:0:0:0:
294,137,341565,2,0,B|320:100|316:56,1,85.0000016212464,0|0,0:0|0:0,0:0:0:0:
232,228,341908,2,0,B|251:269|291:287,1,85.0000016212464,8|0,2:0|0:0,0:0:0:0:
188,132,342251,2,0,B|142:127|106:153,1,85.0000016212464,0|8,0:0|2:0,0:0:0:0:
56,312,342594,2,0,P|145:335|213:304,1,170.000003242493,2|4,3:0|2:0,0:0:0:0:
266,157,343109,5,0,0:0:0:0:
117,185,343280,1,8,2:0:0:0:
213,304,343452,2,0,P|296:347|381:321,1,170.000003242493,0|8,0:0|2:0,0:0:0:0:
208,212,343965,2,0,L|119:242,1,85.0000016212464,2|0,3:0|0:0,0:0:0:0:
296,256,344308,2,0,P|308:205|294:171,1,85.0000016212464
376,144,344651,2,0,P|345:102|310:90,1,85.0000016212464,8|0,2:0|0:0,0:0:0:0:
344,12,344994,2,0,P|292:8|260:28,1,85.0000016212464,0|8,0:0|2:0,0:0:0:0:
236,104,345337,2,0,P|176:144|80:140,1,170.000003242493,2|4,3:0|2:0,0:0:0:0:
12,88,345851,5,0,0:0:0:0:
100,224,346022,2,0,P|120:272|120:308,1,85.0000016212464,8|0,2:0|0:0,0:0:0:0:
256,152,346365,2,0,P|204:145|173:127,1,85.0000016212464,2|2,2:0|3:0,0:0:0:0:
236,320,346708,2,0,P|267:278|298:260,1,85.0000016212464,0|0,0:0|0:0,0:0:0:0:
380,256,347051,1,4,2:0:0:0:
480,320,347222,1,0,0:0:0:0:
380,256,347394,1,8,2:0:0:0:
488,208,347565,1,0,0:0:0:0:
380,256,347737,1,2,2:0:0:0:
400,140,347908,1,2,3:0:0:0:
380,256,348080,1,0,0:0:0:0:
360,276,348165,1,0,0:0:0:0:
332,288,348251,1,0,0:0:0:0:
304,292,348337,1,0,0:0:0:0:
276,288,348422,6,0,P|216:272|184:212,1,127.50000243187
180,188,348765,2,0,L|88:232,1,85.0000016212464,8|0,2:0|0:0,0:0:0:0:
128,56,349108,2,0,L|220:12,1,85.0000016212464,0|8,0:0|2:0,0:0:0:0:
376,92,349451,2,0,L|299:128,1,85.0000016212464
260,236,349794,2,0,P|272:296|308:328,1,94.9999974632264,8|0,0:0|0:0,0:0:0:0:
324,168,350137,1,0,0:0:0:0:
213,59,350308,2,0,P|155:39|109:54,1,94.9999974632264,8|0,0:0|0:0,0:0:0:0:
240,148,350651,1,0,0:0:0:0:
394,105,350822,2,0,P|439:64|449:17,1,94.9999974632264,8|0,0:0|0:0,0:0:0:0:
304,84,351165,6,0,P|232:148|264:240,1,200,4|8,0:0|0:0,0:0:0:0:
72,352,351680,2,0,P|144:288|112:196,1,200,0|8,0:0|0:0,0:0:0:0:
56,120,352194,2,0,P|44:100|16:88,1,50,2|0,2:0|2:0,0:0:0:0:
156,108,352365,2,0,P|179:107|203:89,1,50,2|0,2:0|2:0,0:0:0:0:
116,200,352537,2,0,P|164:232|216:232,1,100
230,48,352880,2,0,P|178:73|156:108,1,100,8|0,0:0|0:0,0:0:0:0:
304,220,353222,2,0,P|307:162|281:117,1,100,4|8,2:0|0:0,0:0:0:0:
264,308,353565,1,0,0:0:0:0:
296,332,353651,1,0,0:0:0:0:
336,340,353737,1,0,0:0:0:0:
376,336,353822,1,0,0:0:0:0:
412,320,353908,6,0,P|456:260|444:172,1,150,4|0,0:0|0:0,0:0:0:0:
416,172,354251,2,0,L|476:80,1,100,8|0,0:0|0:0,0:0:0:0:
280,76,354594,2,0,L|225:159,1,100,0|8,0:0|0:0,0:0:0:0:
132,200,354937,2,0,L|104:241,1,50,2|0,2:0|2:0,0:0:0:0:
195,325,355108,2,0,L|196:276,1,50,2|0,2:0|2:0,0:0:0:0:
280,208,355280,2,0,P|316:251|360:272,1,100,8|0,0:0|0:0,0:0:0:0:
448,240,355622,1,0,0:0:0:0:
380,164,355794,2,0,L|192:240,1,200
228,144,356308,2,0,L|332:100,1,100
272,292,356651,6,0,L|179:330,1,100,4|0,0:0|0:0,0:0:0:0:
364,252,356994,1,8,0:0:0:0:
348,352,357165,2,0,P|276:296|284:196,1,200,0|8,0:0|0:0,0:0:0:0:
336,108,357680,2,0,L|296:72,1,50,2|0,2:0|2:0,0:0:0:0:
436,64,357851,2,0,L|396:28,1,50,2|0,2:0|2:0,0:0:0:0:
416,168,358022,2,0,P|400:232|424:272,1,100
488,328,358365,1,8,0:0:0:0:
416,168,358537,2,0,P|352:152|312:176,1,100
256,240,358880,1,8,0:0:0:0:
264,340,359051,1,0,0:0:0:0:
312,324,359137,1,0,0:0:0:0:
344,288,359222,1,0,0:0:0:0:
356,236,359308,1,0,0:0:0:0:
344,188,359394,6,0,P|296:144|248:140,1,100,4|0,0:0|0:0,0:0:0:0:
176,184,359737,1,8,0:0:0:0:
256,240,359908,2,0,P|272:164|188:84,1,200,0|8,0:0|0:0,0:0:0:0:
92,64,360422,5,0,3:0:0:0:
76,88,360680,5,0,3:0:0:0:
60,116,360937,5,0,3:0:0:0:
176,184,361280,6,0,P|252:144|356:232,1,225.000008583069,0|0,3:0|0:0,0:0:0:0:
288,284,362137,6,0,B|329:187|384:242|425:146,1,200,4|8,0:0|0:0,0:0:0:0:
400,56,362651,2,0,P|336:112|368:220,1,200,0|8,0:0|0:0,0:0:0:0:
424,280,363165,2,0,L|464:312,1,50,2|0,2:0|2:0,0:0:0:0:
288,284,363337,2,0,L|248:252,1,50,2|0,2:0|2:0,0:0:0:0:
352,188,363508,2,0,P|340:132|308:96,1,100
80,88,363851,2,0,P|80:140|120:180,1,100,8|0,0:0|0:0,0:0:0:0:
204,28,364194,2,0,L|148:116,1,100,4|8,2:0|0:0,0:0:0:0:
256,316,364537,2,0,L|256:216,1,100
308,28,364880,6,0,B|360:108|360:108|412:136,1,150,4|0,0:0|0:0,0:0:0:0:
452,116,365222,1,8,0:0:0:0:
352,212,365394,2,0,P|320:276|404:364,1,200,0|8,0:0|0:0,0:0:0:0:
344,120,365908,1,2,2:0:0:0:
304,112,365994,1,0,2:0:0:0:
264,116,366080,1,2,2:0:0:0:
228,132,366165,1,0,2:0:0:0:
200,160,366251,1,8,0:0:0:0:
176,276,366422,1,0,0:0:0:0:
200,64,366595,1,0,0:0:0:0:
340,224,366766,2,0,P|412:256|508:192,1,200
276,160,367280,2,0,P|244:204|252:256,1,100
416,156,367622,6,0,P|448:112|440:60,1,100,4|0,0:0|0:0,0:0:0:0:
368,4,367965,1,8,0:0:0:0:
340,224,368137,2,0,P|412:256|508:192,1,200,0|8,0:0|0:0,0:0:0:0:
276,160,368651,2,0,L|228:172,1,50,2|0,2:0|2:0,0:0:0:0:
192,276,368822,2,0,L|240:264,1,50,2|0,2:0|2:0,0:0:0:0:
124,204,368994,2,0,B|72:216|72:216|40:256,1,100
240,148,369337,2,0,B|264:100|264:100|254:50,1,100,8|0,0:0|0:0,0:0:0:0:
228,268,369680,2,0,B|257:312|257:312|305:329,1,100,0|8,0:0|0:0,0:0:0:0:
416,284,370022,2,0,L|352:252,1,50
344,132,370194,2,0,L|408:164,1,50
276,40,370365,6,0,P|232:100|240:176,1,150,4|0,0:0|0:0,0:0:0:0:
272,208,370708,1,8,0:0:0:0:
344,132,370880,2,0,P|256:108|176:172,1,200,0|8,0:0|0:0,0:0:0:0:
144,264,371394,1,2,2:0:0:0:
120,296,371480,1,0,2:0:0:0:
88,316,371565,1,2,2:0:0:0:
48,324,371651,1,0,2:0:0:0:
12,312,371737,1,8,0:0:0:0:
36,172,371907,1,0,0:0:0:0:
144,264,372080,1,0,0:0:0:0:
36,172,372251,2,0,P|88:120|212:136,1,200
308,140,372765,2,0,P|360:108|376:60,1,100
248,212,373108,6,0,P|256:308|368:344,1,220.000006713867,4|8,0:0|0:0,0:0:0:0:
336,256,373622,2,0,L|136:152,1,220.000006713867,0|8,0:0|0:0,0:0:0:0:
40,156,374137,1,2,2:0:0:0:
52,188,374222,1,0,2:0:0:0:
64,220,374308,1,2,2:0:0:0:
92,64,374480,2,0,P|148:28|196:36,1,110.000003356934
76,156,374822,2,0,P|16:125|0:79,1,110.000003356934,8|0,0:0|0:0,0:0:0:0:
164,120,375165,2,0,P|167:186|136:224,1,110.000003356934,4|8,2:0|0:0,0:0:0:0:
92,64,375508,1,0,0:0:0:0:
110,43,375593,1,0,0:0:0:0:
134,31,375679,1,0,0:0:0:0:
161,27,375765,1,0,0:0:0:0:
188,32,375852,6,0,B|264:72|264:72|344:56,1,165.000005035401,4|0,0:0|0:0,0:0:0:0:
368,24,376194,1,8,0:0:0:0:
308,164,376365,2,0,P|288:256|380:328,1,220.000006713867,0|8,0:0|0:0,0:0:0:0:
196,232,376880,2,0,L|152:272,1,55.0000016784668,2|0,2:0|2:0,0:0:0:0:
48,360,377051,2,0,L|92:320,1,55.0000016784668,2|0,2:0|2:0,0:0:0:0:
196,232,377222,2,0,P|232:280|284:288,1,110.000003356934,8|0,0:0|0:0,0:0:0:0:
276,200,377565,1,0,0:0:0:0:
112,260,377737,2,0,P|176:352|276:376,1,220.000006713867
324,304,378251,2,0,P|352:256|412:240,1,110.000003356934
412,328,378594,6,0,P|344:244|360:136,1,220.000006713867,4|8,0:0|0:0,0:0:0:0:
424,80,379108,1,0,0:0:0:0:
316,4,379280,1,0,0:0:0:0:
284,132,379451,1,8,0:0:0:0:
176,56,379623,1,2,2:0:0:0:
152,80,379709,1,0,2:0:0:0:
128,104,379795,1,2,2:0:0:0:
200,192,379965,2,0,P|240:236|236:296,1,110.000003356934
48,260,380308,2,0,P|66:203|107:178,1,110.000003356934,8|0,0:0|0:0,0:0:0:0:
184,352,380651,2,0,P|125:364|83:341,1,110.000003356934,0|8,0:0|0:0,0:0:0:0:
200,192,380994,2,0,L|260:228,1,55.0000016784668
328,340,381165,2,0,L|268:304,1,55.0000016784668
416,324,381337,6,0,P|440:248|408:168,1,165.000005035401,4|0,0:0|0:0,0:0:0:0:
376,144,381680,1,8,0:0:0:0:
292,160,381851,2,0,L|432:56,1,165.000005035401
460,36,382194,1,8,0:0:0:0:
304,48,382365,2,0,L|252:88,1,55.0000016784668,2|0,2:0|2:0,0:0:0:0:
148,77,382537,2,0,L|192:44,1,55.0000016784668,0|0,2:0|2:0,0:0:0:0:
160,156,382708,1,8,0:0:0:0:
64,304,382880,1,0,0:0:0:0:
64,128,383052,1,0,0:0:0:0:
168,324,383222,2,0,P|232:352|336:324,1,165.000005035401
364,344,383565,2,0,L|304:244,1,110.000003356934
168,324,383908,1,0,0:0:0:0:
320,80,384080,6,0,L|436:272,1,220.000006713867,4|8,0:0|0:0,0:0:0:0:
472,188,384594,2,0,P|376:200|356:308,1,220.000006713867,0|8,0:0|0:0,0:0:0:0:
433,268,385108,1,2,2:0:0:0:
408,232,385194,1,0,2:0:0:0:
368,216,385280,1,2,2:0:0:0:
324,220,385365,1,0,2:0:0:0:
288,244,385451,2,0,P|245:282|188:296,1,110.000003356934
16,220,385794,2,0,L|136:180,1,110.000003356934,8|0,0:0|0:0,0:0:0:0:
268,28,386137,2,0,L|148:68,1,110.000003356934,4|8,2:0|0:0,0:0:0:0:
364,80,386480,2,0,L|428:88,1,55.0000016784668
432,208,386651,2,0,L|389:172,1,55.0000016784668
328,244,386822,6,0,P|336:320|424:352,1,165.000005035401,4|0,0:0|0:0,0:0:0:0:
452,340,387165,1,8,0:0:0:0:
312,148,387337,2,0,P|248:228|264:352,1,220.000006713867,0|8,0:0|0:0,0:0:0:0:
176,176,387851,1,2,2:0:0:0:
152,140,387937,1,0,2:0:0:0:
112,124,388022,1,2,2:0:0:0:
68,128,388108,1,0,2:0:0:0:
36,156,388194,2,0,L|72:260,1,110.000003356934,8|0,0:0|0:0,0:0:0:0:
232,348,388537,2,0,L|268:244,1,110.000003356934
412,64,388880,2,0,L|376:168,1,110.000003356934
420,348,389222,2,0,L|456:244,1,110.000003356934
268,244,389565,6,0,P|152:248|100:336,1,220.000006713867,4|8,0:0|0:0,0:0:0:0:
244,140,390080,2,0,P|360:136|412:48,1,220.000006713867,0|8,0:0|0:0,0:0:0:0:
112,76,390594,1,2,2:0:0:0:
64,104,390680,1,0,2:0:0:0:
44,156,390765,1,2,2:0:0:0:
52,212,390851,1,0,2:0:0:0:
80,260,390937,2,0,P|132:292|188:296,1,110.000003356934
432,124,391280,2,0,P|380:92|324:88,1,110.000003356934,8|0,0:0|0:0,0:0:0:0:
179,297,391622,5,0,0:0:0:0:
361,268,391794,1,8,0:0:0:0:
332,86,391965,1,0,0:0:0:0:
150,115,392137,1,0,0:0:0:0:
361,268,392308,6,0,P|444:220|436:100,1,220.000006713867,4|8,0:0|0:0,0:0:0:0:
151,116,392822,2,0,P|68:164|76:284,1,220.000006713867,0|8,0:0|0:0,0:0:0:0:
168,224,393337,1,0,0:0:0:0:
168,224,393422,1,0,0:0:0:0:
168,224,393508,1,0,0:0:0:0:
256,192,393680,12,0,395051,0:0:0:0:
40,40,395394,5,8,0:0:0:0:
140,60,395565,2,0,P|207:123|201:201,1,170.000003242493,0|8,0:0|0:0,0:0:0:0:
108,156,396080,1,2,2:0:0:0:
108,156,396165,1,0,2:0:0:0:
108,156,396251,1,2,2:0:0:0:
208,296,396422,2,0,P|260:312|308:300,1,85.0000016212464
376,252,396765,1,8,0:0:0:0:
501,171,396937,2,0,P|449:155|420:160,1,85.0000016212464,0|4,0:0|2:0,0:0:0:0:
376,252,397280,1,8,0:0:0:0:
308,176,397451,1,0,0:0:0:0:
284,156,397537,1,0,0:0:0:0:
256,148,397622,1,0,0:0:0:0:
228,148,397708,1,0,0:0:0:0:
200,156,397794,6,0,P|140:192|72:188,1,127.50000243187,4|0,0:0|0:0,0:0:0:0:
44,168,398137,2,0,L|68:260,1,85.0000016212464,8|0,0:0|0:0,0:0:0:0:
20,332,398480,1,0,0:0:0:0:
136,168,398651,2,0,L|112:76,1,85.0000016212464,8|2,0:0|2:0,0:0:0:0:
108,56,398908,1,0,2:0:0:0:
100,28,398994,1,2,2:0:0:0:
204,84,399165,2,0,P|248:112|288:112,1,85.0000016212464,8|0,0:0|0:0,0:0:0:0:
368,80,399508,1,0,0:0:0:0:
348,172,399680,2,0,P|320:256|360:336,1,170.000003242493
436,368,400194,1,0,0:0:0:0:
236,280,400365,1,0,0:0:0:0:
436,200,400537,6,0,P|440:152|416:112,1,85.0000016212464,4|0,0:0|0:0,0:0:0:0:
340,80,400880,1,8,0:0:0:0:
348,172,401051,2,0,P|424:128|428:48,1,170.000003242493,0|8,0:0|0:0,0:0:0:0:
340,80,401565,1,2,2:0:0:0:
312,88,401651,1,0,2:0:0:0:
288,104,401737,1,2,2:0:0:0:
268,128,401822,1,0,2:0:0:0:
260,156,401908,2,0,P|256:192|280:240,1,85.0000016212464
364,264,402251,1,8,0:0:0:0:
348,172,402422,2,0,L|216:296,1,170.000003242493,0|8,0:0|0:0,0:0:0:0:
100,292,402937,2,0,L|132:264,1,42.5000008106232,0|0,0:0|0:0,0:0:0:0:
104,164,403109,2,0,L|72:192,1,42.5000008106232,0|0,0:0|0:0,0:0:0:0:
200,196,403280,6,0,P|200:136|160:80,1,127.50000243187,4|0,0:0|0:0,0:0:0:0:
124,60,403622,1,8,0:0:0:0:
104,164,403794,2,0,P|188:200|264:180,1,170.000003242493,0|8,0:0|0:0,0:0:0:0:
312,104,404308,2,0,L|320:48,1,42.5000008106232,2|0,2:0|2:0,0:0:0:0:
388,136,404480,2,0,L|396:80,1,42.5000008106232,2|0,2:0|2:0,0:0:0:0:
448,192,404651,2,0,P|468:248|460:284,1,85.0000016212464,8|0,0:0|0:0,0:0:0:0:
400,340,404994,1,0,0:0:0:0:
320,292,405165,2,0,P|256:264|164:308,1,170.000003242493
248,356,405680,2,0,P|260:280|248:256,1,85.0000016212464
128,96,406022,6,0,P|116:172|128:196,1,85.0000016212464,4|0,0:0|0:0,0:0:0:0:
168,256,406365,1,8,0:0:0:0:
258,275,406537,2,0,P|328:240|344:144,1,170.000003242493,0|8,0:0|0:0,0:0:0:0:
256,180,407051,2,0,L|160:200,1,85.0000016212464
76,76,407394,2,0,L|159:92,1,85.0000016212464
252,100,407737,1,8,0:0:0:0:
184,164,407908,2,0,B|168:208|168:208|180:252,1,85.0000016212464,0|4,0:0|2:0,0:0:0:0:
296,348,408251,2,0,B|312:304|312:304|300:260,1,85.0000016212464,8|0,0:0|0:0,0:0:0:0:
268,180,408594,1,0,0:0:0:0:
268,180,408680,1,0,0:0:0:0:
268,180,408765,6,0,P|236:132|200:112,1,85.0000016212464,4|0,0:0|0:0,0:0:0:0:
176,204,409108,1,8,0:0:0:0:
240,272,409280,2,0,P|328:260|360:188,1,170.000003242493,0|8,0:0|0:0,0:0:0:0:
324,108,409794,2,0,L|372:32,1,85.0000016212464
268,180,410137,1,8,0:0:0:0:
176,204,410308,1,0,0:0:0:0:
88,176,410480,1,0,0:0:0:0:
176,204,410651,2,0,P|220:252|204:352,1,170.000003242493
268,280,411165,2,0,P|304:244|336:232,1,85.0000016212464
428,96,411508,6,0,P|392:132|360:144,1,85.0000016212464,4|0,0:0|0:0,0:0:0:0:
268,136,411851,1,8,0:0:0:0:
176,124,412022,2,0,P|144:136|108:172,1,85.0000016212464
96,264,412365,1,8,0:0:0:0:
188,268,412537,1,0,0:0:0:0:
216,268,412622,1,0,0:0:0:0:
244,272,412708,1,0,0:0:0:0:
272,284,412794,1,0,0:0:0:0:
292,304,412880,2,0,P|312:348|308:384,1,85.0000016212464
216,184,413222,1,8,0:0:0:0:
292,128,413394,2,0,P|224:164|140:120,1,170.000003242493,0|8,0:0|0:0,0:0:0:0:
320,40,413908,2,0,L|372:40,1,42.5000008106232
384,116,414080,2,0,L|430:138,1,42.5000008106232
348,196,414251,6,0,L|408:273,1,85.0000016212464,4|0,0:0|0:0,0:0:0:0:
292,128,414594,1,8,0:0:0:0:
268,248,414765,2,0,P|244:320|152:352,1,170.000003242493,0|8,0:0|0:0,0:0:0:0:
76,312,415280,2,0,L|28:276,1,42.5000008106232
68,160,415451,2,0,L|116:196,1,42.5000008106232
220,128,415622,2,0,L|148:74,2,85.0000016212464,8|0|0,0:0|0:0|0:0,0:0:0:0:
296,180,416137,2,0,P|328:264|284:328,1,170.000003242493
164,204,416651,2,0,P|132:168|128:120,1,85.0000016212464
232,248,416994,5,4,0:0:0:0:
256,192,417080,12,0,425222,0:0:0:0:
