osu file format v11

[General]
AudioFilename: Stan SB - Compromise.mp3
AudioLeadIn: 0
PreviewTime: 44315
Countdown: 0
SampleSet: Normal
StackLeniency: 0.7
Mode: 0
LetterboxInBreaks: 1

[Editor]
DistanceSpacing: 1.1
BeatDivisor: 4
GridSize: 4

[Metadata]
Title:Compromise
TitleUnicode:
Artist:Stan SB
ArtistUnicode:
Creator:Kyshiro
Version:Exquisite
Source:
Tags:thenutritiousguy TNG Stefan drum and bass dnb drum'n'bass
BeatmapID:158618
BeatmapSetID:51801

[Difficulty]
HPDrainRate:4
CircleSize:4
OverallDifficulty:5
ApproachRate:7
SliderMultiplier:1.7
SliderTickRate:2

[Events]
//Background and Video events
0,0,"wallpaper-649327.jpg"
//Break Periods
2,131788,141597
//Storyboard Layer 0 (Background)
//Storyboard Layer 1 (Fail)
//Storyboard Layer 2 (Pass)
//Storyboard Layer 3 (Foreground)
//Storyboard Sound Samples
//Background Colour Transformations
3,100,163,162,255

[TimingPoints]
679,340.909090909091,4,1,1,60,1,0
42951,-100,4,2,1,5,0,0
43633,-100,4,2,1,20,0,0
44315,-100,4,1,1,75,0,1
63406,-100,4,1,1,60,0,1
64429,-100,4,1,1,60,0,0
86929,-100,4,2,1,5,0,0
87269,-100,4,1,1,30,0,0
87951,-100,4,1,1,75,0,1
104144,-100,4,1,1,60,0,0
110451,-133.333333333333,4,2,1,40,0,0
142497,-100,4,2,1,50,0,0
153406,-100,4,1,1,75,0,0
155110,-100,4,1,1,60,0,0
155451,-100,4,1,1,40,0,0
155792,-100,4,1,1,30,0,0
156474,-100,4,1,1,25,0,0
157156,-100,4,1,1,15,0,0
157667,-100,4,1,1,8,0,0

[Colours]
Combo1 : 250,148,10
Combo2 : 104,242,2
Combo3 : 65,121,254

[HitObjects]
112,36,21133,2,0,P|32:64|8:160,1,170
12,228,21644,2,0,B|28:248|56:256,1,42.5
96,184,21900,2,0,P|128:148,1,42.5
168,152,22071,2,0,P|196:183,1,42.5
256,324,22497,6,0,B|356:308|380:224,1,170,0|8,0:0|0:0,0:0:0
388,140,23008,2,0,B|336:136|316:176,2,85
456,88,23519,1,8,0:0:0
376,56,23690,1,0,0:0:0
292,64,23860,2,0,B|208:96|172:180,1,170,0|8,0:0|0:0,0:0:0
267,178,24372,2,0,B|231:94|147:62,1,170
80,124,24883,2,0,B|32:196,2,85,8|0|0,0:0|0:0|0:0,0:0:0
148,280,25565,5,8,0:0:0
188,356,25735,2,0,B|244:328|252:248|200:212,1,170
124,176,26247,2,0,B|152:120|232:112|265:161,1,170,8|0,0:0|0:0,0:0:0
316,232,26758,1,0,0:0:0
388,184,26929,2,0,B|456:136,2,85,8|0|0,0:0|0:0|0:0,0:0:0
316,232,27440,2,0,B|316:316,1,85,0|8,0:0|0:0,0:0:0
164,236,27951,6,0,B|176:136|88:100,1,170,0|8,0:0|0:0,0:0:0
72,184,28463,2,0,B|172:196|208:108,1,170
272,52,28974,2,0,B|360:52,2,85,8|0|0,0:0|0:0|0:0,0:0:0
188,28,29485,1,0,0:0:0
208,108,29656,2,0,B|256:180|224:272,1,170,8|0,0:0|0:0,0:0:0
145,291,30167,1,0,0:0:0
164,208,30338,2,0,B|236:160|328:192,1,170,8|0,0:0|0:0,0:0:0
396,224,30849,2,0,B|476:264,2,85,0|8|0,0:0|0:0|0:0,0:0:0
336,32,31531,5,0,0:0:0
284,100,31701,2,0,B|212:164|124:152,1,170,8|0,0:0|0:0,0:0:0
52,192,32213,1,0,0:0:0
127,231,32383,2,0,B|212:220|284:284,1,170,8|0,0:0|0:0,0:0:0
364,252,32894,1,0,0:0:0
424,192,33065,2,0,B|512:192,2,85,8|0|0,0:0|0:0|0:0,0:0:0
364,132,33576,1,0,0:0:0
304,192,33747,2,0,B|272:156|280:112,1,85,8|0,0:0|0:0,0:0:0
312,36,34088,6,0,B|264:20|228:48,2,85,0|0|8,0:0|0:0|0:0,0:0:0
392,60,34599,1,0,0:0:0
436,132,34769,2,0,B|472:212,1,85
392,248,35110,1,8,0:0:0
472,284,35281,2,0,B|436:364,1,85
352,356,35622,1,0,0:0:0
316,280,35792,1,8,0:0:0
220,100,36133,6,0,B|156:144|60:148,1,170,0|8,0:0|0:0,0:0:0
60,236,36644,2,0,B|156:240|220:284,1,170
256,192,37156,2,0,B|424:192,1,170,8|0,0:0|0:0,0:0:0
460,116,37667,2,0,B|396:60,2,85,0|8|0,0:0|0:0|0:0,0:0:0
504,192,38179,1,0,0:0:0
460,268,38349,2,0,B|396:324,1,85,0|8,0:0|0:0,0:0:0
256,192,38860,1,0,0:0:0
256,192,39031,12,0,42951,0:0:0
48,168,43633,5,0,0:0:0
4,112,43974,1,0,0:0:0
72,84,44315,6,0,B|240:84,1,170,4|8,0:0|0:0,0:0:0
312,160,44826,2,0,B|144:160,1,170
72,236,45338,1,8,0:0:0
256,320,45679,6,0,B|280:280|328:272,1,85
424,272,46019,1,8,0:0:0
352,200,46190,2,0,B|312:176|304:128,2,85
408,112,46701,1,8,0:0:0
184,40,47042,6,0,B|104:64|64:152,1,170,0|8,0:0|0:0,0:0:0
176,128,47554,2,0,B|256:76|336:128,1,170
448,152,48065,2,0,B|408:64|328:40,1,170,8|0,0:0|0:0,0:0:0
256,112,48576,6,0,B|256:200,1,85,0|8,0:0|0:0,0:0:0
356,224,48917,2,0,B|308:296,1,85
204,296,49258,2,0,B|156:225,1,85,0|8,0:0|0:0,0:0:0
256,197,49599,1,0,0:0:0
172,140,49769,6,0,B|112:128|56:180|72:244,1,170,0|8,0:0|0:0,0:0:0
157,225,50281,2,0,B|217:237|273:185|257:121,1,170,0|0,0:0|0:0,0:0:0
200,40,50792,2,0,B|116:40,2,85,8|0|0,0:0|0:0|0:0,0:0:0
312,40,51304,2,0,B|396:40,1,85,0|8,0:0|0:0,0:0:0
492,80,51644,2,0,B|424:128|408:224,1,170
364,316,52156,2,0,B|348:220|280:172,1,170,8|0,0:0|0:0,0:0:0
104,72,52838,6,0,B|192:72,2,85,8|0|0,0:0|0:0|0:0,0:0:0
24,136,53349,1,0,0:0:0
116,180,53519,2,0,B|192:228|196:324,1,170,8|0,0:0|0:0,0:0:0
256,248,54031,1,0,0:0:0
316,324,54201,2,0,B|320:228|396:180,1,170,8|0,0:0|0:0,0:0:0
328,128,54713,1,0,0:0:0
256,172,54883,1,8,0:0:0
184,128,55054,1,0,0:0:0
256,84,55224,6,0,B|288:32|368:32|400:84,1,170,4|8,0:0|0:0,0:0:0
400,172,55735,2,0,B|368:224|288:224|256:172,1,170
328,128,56247,1,8,0:0:0
256,300,56588,6,0,B|224:352|144:352|112:300,1,170,0|8,0:0|0:0,0:0:0
112,212,57099,2,0,B|144:160|224:160|256:212,1,170
184,256,57611,1,8,0:0:0
92,256,57781,6,0,B|8:256,2,85
184,256,58292,1,8,0:0:0
268,216,58463,2,0,B|356:176|364:84,1,170
424,160,58974,2,0,B|448:328,1,170,8|0,0:0|0:0,0:0:0
372,276,59485,6,0,B|324:276|300:236,1,85,0|8,0:0|0:0,0:0:0
260,96,59826,2,0,B|284:138|262:178,1,85
160,280,60167,2,0,B|184:238|230:237,2,85,0|8|0,0:0|0:0|0:0,0:0:0
144,188,60679,6,0,B|204:120|192:28,1,170,0|8,0:0|0:0,0:0:0
112,76,61190,2,0,B|180:136|272:124,1,170,0|0,0:0|0:0,0:0:0
332,56,61701,2,0,B|408:208,1,170,8|0,0:0|0:0,0:0:0
312,212,62213,6,0,B|240:264,1,85,0|8,0:0|0:0,0:0:0
156,232,62554,2,0,B|228:180,2,85
156,140,63065,2,0,B|228:88,1,85,8|0,0:0|0:0,0:0:0
316,112,63406,2,0,B|408:136|436:224,1,170,0|8,0:0|0:0,0:0:0
340,216,63917,2,0,B|368:128|460:104,1,170
380,52,64429,1,8,0:0:0
436,232,64940,6,0,P|368:296,1,85
256,236,65366,1,0,0:0:0
136,276,65622,1,0,0:0:0
216,312,65792,2,0,B|256:336|296:312,1,85,8|0,0:0|0:0,0:0:0
256,236,66133,6,0,B|224:144|288:160|256:64,1,170,0|8,0:0|0:0,0:0:0
184,112,66644,1,0,0:0:0
184,112,66815,2,0,B|144:192|48:200,1,170,0|8,0:0|0:0,0:0:0
88,112,67327,2,0,B|40:40,1,85
136,40,67667,1,0,0:0:0
224,40,67838,1,8,0:0:0
272,112,68008,2,0,B|272:176|348:212|400:180,1,170
356,108,68519,2,0,B|376:68,1,42.5,8|0,0:0|0:0,0:0:0
492,124,68860,6,0,B|448:204|448:288,1,170,0|8,0:0|0:0,0:0:0
384,228,69372,2,0,B|324:164|232:164,1,170
136,200,69883,1,8,0:0:0
160,280,70054,2,0,B|192:364,2,85
136,200,70565,1,8,0:0:0
100,124,70735,2,0,B|68:40,2,85
48,196,71247,2,0,B|4:216,1,42.5,8|0,0:0|0:0,0:0:0
212,164,71588,6,8,B|296:128|328:44,1,170,0|8,0:0|0:0,0:0:0
244,48,72099,2,0,B|276:132|360:168,1,170
436,204,72610,2,0,B|496:228|520:292|484:344,1,170,8|0,0:0|0:0,0:0:0
412,292,73122,2,0,B|332:324,1,85,0|8,0:0|0:0,0:0:0
256,364,73463,1,0,0:0:0
178,323,73633,2,0,B|100:292,2,85,0|0|8,0:0|0:0|0:0,0:0:0
256,288,74144,5,0,0:0:0
308,220,74315,2,0,B|352:144|444:128,1,170,0|8,0:0|0:0,0:0:0
416,216,74826,2,0,B|329:181|302:97,1,170,0|0,0:0|0:0,0:0:0
209,97,75338,2,0,B|182:181|96:216,1,170,8|0,0:0|0:0,0:0:0
64,136,75849,2,0,B|36:56,2,85,0|8|0,0:0|0:0|0:0,0:0:0
96,216,76360,2,0,B|124:296,1,85
192,256,76701,2,0,B|176:216,1,42.5,8|0,0:0|0:0,0:0:0
280,124,77042,6,0,B|428:36,1,170,0|8,0:0|0:0,0:0:0
408,140,77554,2,0,B|260:228,1,170
204,164,78065,1,8,0:0:0
132,120,78235,2,0,B|144:32,2,85
120,204,78747,1,8,0:0:0
64,268,78917,1,0,0:0:0
148,288,79088,2,0,B|228:312,2,85,0|0|8,0:0|0:0|0:0,0:0:0
328,192,79769,6,8,B|424:232|400:328,1,170,0|8,0:0|0:0,0:0:0
304,292,80281,1,0,0:0:0
220,236,80451,2,0,B|192:196|144:196,1,85
228,132,80792,2,0,B|328:124|360:36,1,170,8|0,0:0|0:0,0:0:0
398,144,81304,2,0,B|362:156|330:192,2,85,0|8|0,0:0|0:0|0:0,0:0:0
408,236,81815,1,0,0:0:0
400,327,81985,1,0,0:0:0
323,274,82156,2,0,B|259:218|159:226,1,170,8|0,0:0|0:0,0:0:0
64,224,82667,5,0,0:0:0
120,140,82838,2,0,B|176:68,2,85,8|0|0,0:0|0:0|0:0,0:0:0
224,132,83349,2,0,B|280:60,1,85,0|8,0:0|0:0,0:0:0
380,60,83690,1,0,0:0:0
456,128,83860,2,0,B|424:216|344:248,1,170,0|8,0:0|0:0,0:0:0
344,144,84372,2,0,B|424:176|456:264,1,170
460,356,84883,2,0,B|376:356,2,85,8|0|0,0:0|0:0|0:0,0:0:0
256,192,85309,12,0,86929,0:0:0
304,48,87269,6,0,P|284:96|208:48,1,170
104,128,87951,6,0,B|60:228|156:268,1,170,4|8,0:0|0:0,0:0:0
216,324,88463,2,0,B|260:224|164:184,1,170
192,104,88974,1,8,0:0:0
376,192,89315,6,0,B|464:192,2,85,0|0|8,0:0|0:0|0:0,0:0:0
296,168,89826,2,0,B|212:132|196:40,1,170
280,40,90338,2,0,B|264:131|180:167,1,170,8|0,0:0|0:0,0:0:0
100,192,90849,2,0,B|16:216,2,85,0|8|0,0:0|0:0|0:0,0:0:0
164,248,91360,2,0,B|188:332,1,85
252,272,91701,2,0,B|260:176|348:140,1,170,8|0,0:0|0:0,0:0:0
432,148,92213,5,0,0:0:0
480,216,92383,1,8,0:0:0
396,228,92554,1,0,0:0:0
432,148,92724,2,0,B|456:108|496:88,2,85,0|0|8,0:0|0:0|0:0,0:0:0
232,192,93406,6,0,B|128:188|108:96,1,170,0|8,0:0|0:0,0:0:0
212,108,93917,2,0,B|311:139|361:60,1,170
272,36,94429,1,8,0:0:0
404,192,94769,6,0,B|400:292|308:316,1,170,0|8,0:0|0:0,0:0:0
203,315,95281,2,0,B|112:292|108:192,1,170
212,192,95792,2,0,B|296:192,2,85,8|0|0,0:0|0:0|0:0,0:0:0
164,124,96304,1,0,0:0:0
220,64,96474,1,8,0:0:0
304,52,96644,2,0,B|396:60|424:160,1,170
328,144,97156,2,0,B|240:104|170:177,1,170,8|0,0:0|0:0,0:0:0
264,216,97667,6,0,B|292:300,2,85,0|8|0,0:0|0:0|0:0,0:0:0
172,174,98179,1,0,0:0:0
100,116,98349,2,0,B|16:144,2,85,0|8|0,0:0|0:0|0:0,0:0:0
188,86,98860,6,0,B|270:60|359:87,1,170,4|8,0:0|0:0,0:0:0
443,154,99372,2,0,B|361:180|272:153,1,170
191,167,99883,2,0,B|137:240,1,85,8|0,0:0|0:0,0:0:0
193,301,100224,6,0,B|256:376|353:323,1,170,0|8,0:0|0:0,0:0:0
432,279,100735,2,0,B|369:204|272:257,1,170
202,211,101247,2,0,B|147:144,1,85,8|0,0:0|0:0,0:0:0
216,94,101588,2,0,B|283:39,2,85,0|0|8,0:0|0:0|0:0,0:0:0
295,123,102099,2,0,B|362:68,1,85,0|0,0:0|0:0,0:0:0
441,97,102440,2,0,B|374:152,1,85,0|8,0:0|0:0,0:0:0
408,316,102951,5,0,0:0:0
340,264,103122,1,0,0:0:0
256,248,103292,1,8,0:0:0
172,264,103463,1,0,0:0:0
104,316,103633,2,0,B|48:252,1,85
112,200,103974,2,0,B|160:200|208:184,1,85,8|0,0:0|0:0,0:0:0
276,152,104315,6,0,B|360:128|408:44,1,170,0|8,0:0|0:0,0:0:0
320,48,104826,2,0,B|365:127|449:151,1,170
444,236,105338,2,0,B|360:212|276:236,1,170,8|0,0:0|0:0,0:0:0
204,280,105849,6,0,B|136:220,1,85,0|8,0:0|0:0,0:0:0
140,140,106190,2,0,B|203:83,2,85
68,192,106701,1,8,0:0:0
256,192,107042,1,0,0:0:0
440,192,107383,1,8,0:0:0
192,64,107894,6,0,B|264:112,1,85
192,320,108576,2,0,B|264:272,1,85
360,192,109002,2,0,B|360:240,2,42.5
452,100,109429,1,4,0:0:0
452,284,109769,1,0,0:0:0
180,200,110451,6,0,B|176:152|216:116|260:116,2,127.499996200204,0|0|2,0:0|0:0|0:0,0:0:0
312,248,111474,1,0,0:0:0
376,224,111644,2,0,B|382:254|370:286,2,63.7500024318696,0|2|0,0:0|0:0|0:0,0:0:0
320,180,112156,1,0,0:0:0
424,40,112497,6,0,B|488:56,1,63.749998100102,2|0,0:0|0:0,0:0:0
460,128,112838,2,0,B|400:152,1,63.749998100102
400,232,113179,2,0,B|460:256,1,63.749998100102,2|0,0:0|0:0,0:0:0
485,328,113519,2,0,B|424:344,1,63.749998100102
348,332,113860,2,0,B|280:316|240:264,1,127.499996200204,2|0,0:0|0:0,0:0:0
228,192,114372,1,0,0:0:0
241,117,114542,2,0,B|280:68|348:52,1,127.499996200204,2|0,0:0|0:0,0:0:0
196,36,115224,5,0,0:0:0
84,140,115565,1,0,0:0:0
140,192,115735,1,0,0:0:0
84,244,115906,1,2,0:0:0
196,348,116247,1,0,0:0:0
240,288,116417,6,0,B|280:240|352:232,1,127.499996200204
328,160,116929,2,0,B|296:164|268:180,2,63.749998100102,2|0|2,0:0|0:0|0:0,0:0:0
480,164,117610,1,0,0:0:0
416,120,117781,1,0,0:0:0
348,88,117951,2,0,B|284:68|224:64,2,127.499996200204,2|0|2,0:0|0:0|0:0,0:0:0
480,220,118974,1,0,0:0:0
416,264,119145,1,0,0:0:0
348,296,119315,2,0,B|284:316|224:320,1,127.499996200204,2|0,0:0|0:0,0:0:0
140,192,119997,5,2,0:0:0
288,152,120338,1,0,0:0:0
352,192,120508,1,2,0:0:0
288,232,120679,1,0,0:0:0
140,192,121019,5,0,0:0:0
64,192,121190,2,0,B|0:192,2,63.749998100102,0|2|0,0:0|0:0|0:0,0:0:0
100,124,121701,1,0,0:0:0
180,124,121872,1,0,0:0:0
216,192,122042,2,0,B|284:192,1,63.749998100102,2|0,0:0|0:0,0:0:0
432,192,122554,5,0,0:0:0
472,124,122725,1,2,0:0:0
392,124,122894,1,0,0:0:0
356,192,123065,2,0,B|312:236,2,63.749998100102,0|0|2,0:0|0:0|0:0,0:0:0
432,192,123576,1,0,0:0:0
256,124,123917,5,0,0:0:0
170,146,124088,2,0,B|216:192,1,63.749998100102,2|0,0:0|0:0,0:0:0
216,264,124429,2,0,B|216:336,1,63.7500024318696,0|0,0:0|0:0,0:0:0
296,327,124769,2,0,B|296:264,1,63.7500024318696,2|0,0:0|0:0,0:0:0
296,192,125110,2,0,B|341:146,1,63.749998100102,0|0,0:0|0:0,0:0:0
288,100,125451,2,0,B|256:92|224:100,2,63.7500024318696,2|0|2,0:0|0:0|0:0,0:0:0
12,128,126985,5,0,0:0:0
56,180,127156,2,0,B|96:212|148:204|172:168,1,127.500004863739,2|2,0:0|0:0,0:0:0
212,112,127667,1,0,0:0:0
280,92,127838,1,2,0:0:0
340,128,128008,1,0,0:0:0
348,200,128179,2,0,B|400:252|464:236,1,127.500004863739,2|0,0:0|0:0,0:0:0
448,96,128860,1,2,0:0:0
256,192,129883,12,4,131588,0:0:0
208,344,142497,5,0,0:0:0
304,344,142667,1,0,0:0:0
256,264,142838,2,0,B|256:180,1,85,8|0,0:0|0:0,0:0:0
216,104,143179,2,0,B|184:136,2,42.5
296,104,143519,2,0,B|328:136,2,42.5,8|0|0,0:0|0:0|0:0,0:0:0
364,56,143860,6,0,B|428:124,1,85
380,192,144201,2,0,B|296:192,2,85,8|0|0,0:0|0:0|0:0,0:0:0
422,266,144713,2,0,B|364:328,1,85,0|8,0:0|0:0,0:0:0
296,276,145054,5,0,0:0:0
208,276,145224,2,0,B|164:288|124:264,1,85
126,118,145565,2,0,B|164:96|208:108,1,85
272,192,145906,2,0,B|316:192,2,42.5
188,192,146247,2,0,B|104:192,1,85,8|0,0:0|0:0,0:0:0
16,192,146588,5,0,0:0:0
96,340,146929,1,8,0:0:0
244,256,147269,1,0,0:0:0
164,108,147610,1,8,0:0:0
256,192,147951,12,0,152042,0:0:0
104,256,153406,6,0,B|184:216|220:136,1,170,4|8,0:0|0:0,0:0:0
256,60,153917,1,0,0:0:0
292,136,154088,2,0,B|328:216|408:256,1,170,0|8,0:0|0:0,0:0:0
424,172,154599,2,0,B|376:132|376:60|420:20,1,170
468,96,155110,2,0,B|516:168,1,85,8|0,0:0|0:0,0:0:0
472,240,155451,2,0,B|432:320,2,85,0|0|8,0:0|0:0|0:0,0:0:0
308,192,156133,6,0,B|220:204|180:296,1,170,0|8,0:0|0:0,0:0:0
268,292,156644,2,0,B|229:202|141:190,1,170
56,196,157156,1,8,0:0:0
96,120,157326,1,0,0:0:0
180,120,157497,2,0,B|224:124|256:152,2,85,0|0|8,0:0|0:0|0:0,0:0:0
140,44,158008,1,0,0:0:0
96,120,158179,2,0,B|120:208|216:232,1,170,0|8,0:0|0:0,0:0:0
256,68,158860,1,4,0:0:0
