osu file format v9

[General]
AudioFilename: Stan SB - Airwalk.mp3
AudioLeadIn: 0
PreviewTime: 25931
Countdown: 0
SampleSet: Soft
StackLeniency: 0.4
Mode: 0
LetterboxInBreaks: 1

[Editor]
DistanceSpacing: 1
BeatDivisor: 4
GridSize: 4

[Metadata]
Title:Airwalk
Artist:Stan SB
Creator:Kyshiro
Version:Normal
Source:
Tags:Drum and bass DnB Drum'n'Bass Liquicity

[Difficulty]
HPDrainRate:3
CircleSize:3
OverallDifficulty:3
ApproachRate:4
SliderMultiplier:0.8
SliderTickRate:1

[Events]
//Background and Video events
0,0,"Background.jpg"
//Break Periods
2,21075,24611
2,64221,68095
2,88491,89668
2,107367,110904
//Storyboard Layer 0 (Background)
//Storyboard Layer 1 (Fail)
//Storyboard Layer 2 (Pass)
//Storyboard Layer 3 (Foreground)
//Storyboard Sound Samples
//Background Colour Transformations
3,100,163,162,255

[TimingPoints]
4696,337.078651685393,4,2,1,20,1,0
5033,-100,4,2,1,100,0,0
10931,-100,4,2,1,65,0,0
11437,-100,4,2,1,100,0,0
20875,-100,4,2,1,40,0,0
26269,-100,4,1,1,70,0,1
37055,-100,4,1,1,70,0,0
37392,-100,4,1,1,70,0,1
47842,-100,4,1,1,70,0,0
64021,-100,4,2,1,100,0,0
69415,-100,4,2,1,50,0,0
70426,-100,4,2,1,100,0,0
90988,-100,4,2,1,50,0,0
91325,-100,4,2,1,100,0,0
112561,-100,4,1,1,70,0,1
123347,-100,4,1,1,70,0,0
123684,-100,4,1,1,70,0,1
128740,-100,4,1,1,70,0,0
145257,-100,4,1,1,20,0,0

[Colours]
Combo1 : 94,171,7
Combo2 : 241,125,10
Combo3 : 217,180,66
Combo4 : 139,153,62
SliderBorder : 255,231,91

[HitObjects]
256,192,4695,1,4
216,120,5033,2,0,B|256:104|293:120,1,80
256,192,5707,1,0
192,248,6044,1,8
112,248,6381,5,0
48,192,6718,1,0
112,136,7055,2,0,B|104:100|152:72|152:72|200:100|192:136,2,160,0|0|8
48,192,8740,6,0,B|40:232|48:272,1,80,0|0
104,328,9415,2,0,B|184:328,1,80,0|8
240,272,10089,6,0,B|248:232|240:192,1,80,0|0
240,112,10763,2,0,B|240:72,2,40,0|0|8
312,152,11437,2,0,B|352:176|344:224,1,80,0|0
344,300,12111,1,0
424,300,12448,1,8
460,228,12785,2,0,B|460:148|460:148|392:104,2,160,0|0|0
416,32,14808,5,0
336,32,15145,1,0
256,32,15482,1,0
116,108,16156,6,0,B|196:108,1,80,8|0
268,144,16830,2,0,B|290:108|266:68,2,80,0|0|8
236,216,17842,5,0
320,200,18179,1,0
400,168,18516,1,0
332,116,18853,2,0,B|308:80|260:80,1,80,8|0
192,124,19527,5,0
132,184,19864,1,0
156,264,20201,1,8
236,296,20538,2,0,B|236:216,1,80,0|0
136,64,25931,5,0
216,64,26269,2,0,B|256:76|256:76|276:112,1,80,4|8
228,176,26943,2,0,B|246:209|246:209|286:221,1,80,0|8
368,224,27617,2,0,B|408:212|408:212|426:178,1,80,0|8
460,108,28291,5,0
424,36,28628,1,0
310,149,29302,1,8
196,262,29976,1,0
35,262,30651,1,8
116,264,30988,2,0,B|128:224|128:224|161:205,1,80,0|8
240,192,31662,5,0
312,148,31999,1,8
240,112,32336,1,0
312,68,32673,1,8
240,32,33010,1,0
168,68,33347,1,8
168,148,33684,1,0
100,108,34021,1,8
96,188,34358,6,0,B|62:206|62:206|50:246,1,80,0|8
68,324,35032,1,0
140,356,35370,2,0,B|180:344|180:344|208:320,1,80,8|0
240,244,36044,2,0,B|269:219|269:219|309:207,1,80,8|0
368,260,36718,1,8
328,104,37392,6,0,B|256:44|184:104,2,160,4|0|8
328,184,39078,1,0
328,264,39415,2,0,B|256:324|184:264,2,160,0|8|0
256,216,41100,6,0,B|256:136,1,80,0|8
176,136,41774,1,0
120,192,42111,1,8
120,272,42448,1,0
40,280,42785,1,8
40,120,43460,6,0,B|104:72|104:72|184:72,1,160,0|8
328,136,44808,2,0,B|264:184|264:184|184:184,1,160,0|8
116,328,46156,1,8
196,328,46493,2,0,B|276:328,1,80,0|8
256,168,47504,2,0,B|176:168,1,80,0|4
96,168,48179,6,0,B|96:248|96:248|160:296,1,160,8|8
236,272,49190,1,0
312,296,49527,2,0,B|376:248|376:248|376:168,1,160,8|8
300,148,50538,1,0
224,168,50875,2,0,B|160:120|160:120|160:40,1,160,8|8
80,40,51887,2,0,B|80:120,3,80,0|8|0|8
80,200,53235,5,0
80,280,53572,1,8
240,288,54246,2,0,B|272:264|272:264|272:224,1,80,8|0
272,144,54920,1,8
112,144,55594,2,0,B|80:168|80:168|80:208,1,80,8|0
80,288,56269,1,8
240,288,56943,6,0,B|280:288|280:288|304:256,1,80,8|0
240,208,57617,2,0,B|200:208|200:208|176:176,1,80,8|0
240,128,58291,1,8
376,44,58965,6,0,B|416:116|416:116|416:196,1,160,4|0
296,300,60313,2,0,B|256:228|256:228|256:148,1,160,8|0
136,44,61662,6,0,B|96:116|96:116|96:196,1,160,8|0
216,300,63010,2,0,B|256:228|256:228|256:148,1,160,8|0
256,68,64021,1,12
248,40,69415,6,0,B|248:120|248:120|192:176|192:176|192:256,1,240,4|0
272,288,70763,2,0,B|272:208|272:208|328:152|328:152|328:72,1,240,8|0
248,72,72111,6,0,B|216:72|216:72|168:60,1,80,8|0
92,36,72785,2,0,B|92:68|92:68|80:116,1,80,0|0
64,192,73460,2,0,B|96:192|96:192|144:204,1,80,8|0
220,228,74134,2,0,B|220:196|220:196|232:148,1,80,0|0
248,72,74808,1,8
464,48,76156,6,0,B|464:128|464:128|376:128|376:128|328:184,1,240,8|0
248,184,77504,2,0,B|256:244|300:268|348:260|348:260|392:348,1,240,8|0
468,320,78853,1,8
300,144,79864,5,0
300,64,80201,2,0,B|352:56|376:40|376:40|400:56|452:64,2,160,8|0|8
372,208,82224,1,0
448,348,82898,2,0,B|396:355|372:371|372:371|348:355|296:347,2,160,8|0|8
372,208,84920,1,0
224,164,85594,6,0,B|168:108|168:108|112:164|112:164|176:228,1,240,8|0
224,276,86943,2,0,B|280:332|280:332|336:276|336:276|272:212,1,240,8|0
304,140,88291,1,0
276,40,90988,5,4
276,120,91325,1,0
276,200,91662,2,0,B|276:272|276:272|188:272|188:272,1,160,0|8
108,272,92673,2,0,B|108:192|108:192|140:120|140:120|140:40,1,240,0|8
220,40,94021,6,0,B|300:40|300:40|276:120|276:120|356:120,1,240,0|8
416,172,95370,2,0,B|440:212|416:252,2,80
348,212,96381,1,8
280,252,96718,1,0
348,292,97055,6,0,B|332:332|280:332|280:332,1,80
204,328,97729,1,8
204,248,98066,2,0,B|204:168|204:168|124:168,1,160
44,168,99078,1,8
44,88,99415,2,0,B|124:88|124:88|196:48,1,160
272,48,100426,1,8
176,344,101774,5,8
256,344,102111,2,0,B|256:184,1,160
256,108,103122,1,8
184,64,103460,2,0,B|256:-8|328:64,1,160
256,108,104471,1,8
192,156,104808,6,0,B|128:212,2,80
256,204,105819,1,8
320,156,106156,2,0,B|384:212,2,80
256,108,107167,1,0
136,232,112224,5,0
216,232,112561,2,0,B|256:252|296:232,1,80,4|8
256,160,113235,2,8,B|216:140|176:160,1,80,0|8
132,224,113909,2,0,B|112:264|132:304,1,80,0|8
204,264,114583,2,0,B|284:264,1,80,0|8
364,264,115257,1,0
364,184,115594,2,0,B|436:120|508:184,2,160,8|8|8
324,64,117617,5,8
256,24,117954,1,0
256,104,118291,2,0,B|256:192,1,80,8|0
176,184,118965,2,0,B|136:184|136:184|136:232,1,80,8|0
136,304,119639,2,8,B|216:304,1,80,8|0
296,304,120313,2,0,B|296:264|296:264|336:264,1,80,8|0
336,183,120988,2,0,B|376:164|412:184,2,80,8|0|8
279,240,121999,6,0,B|243:260|203:240,1,80
145,183,122673,2,0,B|109:159|71:182,1,80
256,232,123684,5,4
304,296,124021,2,0,B|320:332|320:332|360:332,2,80,0|8|0
256,232,125033,1,8
208,296,125370,2,0,B|192:332|192:332|152:332,1,80,0|8
72,348,126044,1,0
36,276,126381,1,8
96,224,126718,6,0,B|136:216|176:224,1,80,0|8
176,144,127392,2,0,B|168:108|176:64,1,80,0|8
256,64,128066,2,0,B|296:72|336:64,1,80,0|8
336,144,128740,2,0,B|344:180|336:224,1,80,0|8
336,304,129415,6,0,B|256:320|176:304,2,160
256,168,131437,1,0
336,40,132111,2,0,B|256:24|176:40,2,160
256,144,134134,6,0,B|256:224|256:224|224:248,2,120,0|0|8
256,64,135482,2,0,B|336:64|336:64|360:96,2,120,0|0|8
176,64,136830,2,0,B|96:64|96:64|72:32,2,120,0|0|8
256,64,138179,2,0,B|328:104,1,80,0|8
328,184,138853,2,0,B|258:222,1,80,0|8
240,144,139527,6,0,B|176:160|132:108,2,120,0|0|8
320,144,140875,2,0,B|384:160|428:108,2,120,0|0|8
280,212,142224,2,0,B|256:244|256:244|288:268|288:268|256:300,2,120,0|0|8
332,148,143572,2,0,B|380:144|404:104,1,80,0|8
332,68,144246,2,0,B|284:68|264:104,1,80,0|8
256,264,145257,5,4
