osu file format v9

[General]
AudioFilename: Stan SB - Airwalk.mp3
AudioLeadIn: 0
PreviewTime: 25931
Countdown: 0
SampleSet: Soft
StackLeniency: 0.4
Mode: 0
LetterboxInBreaks: 1

[Editor]
DistanceSpacing: 1
BeatDivisor: 4
GridSize: 4

[Metadata]
Title:Airwalk
Artist:Stan SB
Creator:Kyshiro
Version:Hard
Source:
Tags:Drum and bass DnB Drum'n'Bass Liquicity

[Difficulty]
HPDrainRate:5
CircleSize:4
OverallDifficulty:5
ApproachRate:7
SliderMultiplier:1.3
SliderTickRate:1

[Events]
//Background and Video events
0,0,"Background.jpg"
//Break Periods
2,21075,25031
2,88491,90088
2,107367,111324
//Storyboard Layer 0 (Background)
//Storyboard Layer 1 (Fail)
//Storyboard Layer 2 (Pass)
//Storyboard Layer 3 (Foreground)
//Storyboard Sound Samples
//Background Colour Transformations
3,100,163,162,255

[TimingPoints]
4696,337.078651685393,4,2,1,20,1,0
5033,-100,4,2,1,100,0,0
20875,-100,4,2,1,50,0,0
25931,-100,4,1,1,70,0,0
26269,-100,4,1,1,70,0,1
37055,-100,4,1,1,70,0,0
37392,-100,4,1,1,70,0,1
47842,-100,4,1,1,70,0,0
64021,-100,4,2,1,100,0,0
112224,-100,4,1,1,70,0,0
112561,-100,4,1,1,70,0,1
123347,-100,4,1,1,70,0,0
123684,-100,4,1,1,70,0,1
128740,-100,4,1,1,80,0,0
133797,-100,4,1,1,70,0,0
145257,-100,4,1,1,20,0,0

[Colours]
Combo1 : 94,171,7
Combo2 : 241,125,10
Combo3 : 217,180,66
Combo4 : 139,153,62
SliderBorder : 255,231,91

[HitObjects]
256,36,4695,1,4
256,192,5033,1,8
88,192,5370,2,0,B|112:120|168:96,1,130
344,96,6044,2,0,B|400:120|424:192,1,130,0|8
256,240,6718,1,0
134,138,7055,6,0,B|256:54|376:138,2,260,0|8|0
196,280,8740,2,0,B|257:312|321:280,1,130,0|8
256,175,9415,2,0,B|256:110,2,65
316,64,10089,6,0,B|256:8|196:64,1,130,0|8
296,248,10763,2,0,B|360:192|296:136,1,130
208,192,11437,2,0,B|144:248|208:304,1,130,0|8
256,192,12111,5,0
414,127,12448,2,0,B|361:22|257:4|152:22|100:127,1,390,0|8
68,220,13797,6,0,B|22:208|-12:156|4:108,1,130
124,152,14471,2,0,B|172:160|204:216|188:264,1,130,0|8
349,260,15145,2,0,B|341:308|285:340|237:324,1,130
236,200,15819,6,0,B|188:140,2,65,0|0|8
432,184,16493,2,0,B|432:136|432:136|480:128|504:92,1,130,0|0
308,184,17167,2,0,B|308:136|308:136|260:128|236:92,1,130,0|8
424,48,17842,2,0,B|368:-12|312:48,1,130
368,192,18516,2,0,B|368:320,1,130,0|8
216,322,19190,2,0,B|216:194,1,130
72,136,19864,5,0
216,80,20201,1,8
360,136,20538,1,0
216,192,20875,1,0
256,192,25931,5,0
104,132,26269,2,0,B|52:192|104:252,1,130,4|8
152,192,26774,2,0,B|280:192,1,130
264,264,27280,1,8
368,256,27617,6,0,B|352:192|368:128,1,130,0|8
436,128,28122,2,0,B|452:192|436:256,1,130
368,256,28628,1,8
260,160,28965,6,0,B|240:192|260:224,1,65
328,192,29302,1,8
376,136,29471,2,0,B|428:188|376:256,1,130
328,192,29976,1,8
192,144,30313,6,0,B|128:88|192:32,1,130,0|8
192,240,30988,2,0,B|128:296|192:352,1,130,0|8
132,192,31662,6,0,B|4:192,1,130,0|8
88,144,32336,1,0
72,192,32504,1,0
88,240,32673,1,8
160,296,33010,2,0,B|152:248|232:192,1,130,0|8
160,92,33684,2,0,B|152:140|232:196,1,130,0|8
256,72,34358,6,0,B|344:192|256:312,2,260
176,132,36044,2,0,B|220:192|176:252,1,130,8|0
88,192,36718,1,8
296,192,37392,6,0,B|168:192,1,130,4|0
256,124,38066,2,0,B|288:108|320:108|360:128|368:168,1,130,8|0
256,260,38740,2,0,B|288:276|320:276|360:256|368:216,1,130,8|0
480,192,39415,2,0,B|352:192,1,130,8|0
340,320,40089,5,8
252,200,40426,1,0
124,200,40763,1,8
36,320,41100,1,0
36,192,41437,2,0,B|44:120|116:96,1,130,8|0
240,91,42111,2,0,B|239:164|171:192,2,130,8|0|8
396,108,43122,6,0,B|340:156|340:220,1,130,0|8
284,333,43797,2,0,B|340:285|340:221,1,130,0|8
192,176,44471,2,0,B|204:140|232:120,2,65,0|0|8
272,264,45145,6,0,B|336:248|368:184,1,130,0|8
432,224,45651,2,0,B|464:176|440:128|400:112,1,130,0|0
464,64,46156,1,8
256,44,46493,6,0,B|180:32|160:112,1,130,0|8
264,176,47167,2,0,B|256:128|232:112,2,65,0|0|8
190,168,47673,1,0
216,232,47842,1,4
344,192,48179,6,0,B|408:192,1,65,8|0
320,96,48684,2,0,B|256:96,1,65,0|8
168,192,49190,2,0,B|232:192,1,65
200,120,49527,2,0,B|136:120,1,65,8|0
64,92,49864,2,0,B|64:156,1,65
64,232,50201,1,8
200,272,50538,6,0,B|280:276|296:200,2,130,0|8|0
220,196,51381,2,0,B|180:136,1,65,0|8
288,80,51887,6,0,B|328:72|352:96,1,65
384,152,52224,2,0,B|392:192|368:216,1,65,8|0
312,248,52561,2,0,B|272:256|248:232,1,65
216,176,52898,2,0,B|208:136|228:116,1,65,8|8
304,156,53235,6,0,B|344:84|268:36,1,130,0|8
228,116,53740,2,0,B|164:168|96:104,1,130,0|0
168,64,54246,1,8
48,204,54583,6,0,B|80:188|112:204,1,65
144,144,54920,2,0,B|176:160|208:144,1,65,8|0
240,204,55257,2,0,B|272:188|304:204,1,65
336,144,55594,2,0,B|368:160|400:144,1,65,8|8
456,192,55931,6,0,B|496:120|432:80,2,130,0|8|0
398,144,56774,2,0,B|368:160|336:144,1,65,0|8
112,72,57448,2,0,B|176:88,1,65,0|8
368,216,58122,2,0,B|304:232,1,65,0|8
56,132,58965,6,0,B|4:192|56:248,2,130,4|0|8
224,160,59976,2,0,B|204:136|204:100,1,65
240,228,60313,2,0,B|229:257|198:275,1,65,8|0
288,180,60651,2,0,B|318:174|349:192,1,65
424,192,60988,1,8
304,136,61325,6,0,B|352:192|304:256,1,130,0|8
216,164,61999,2,0,B|244:192|216:220,2,65,0|0|8
96,124,62673,6,0,B|152:156,1,65
96,260,63010,2,0,B|152:228,1,65,8|0
276,192,63347,2,0,B|212:192,1,65
104,192,63684,1,8
276,192,64021,5,4
224,128,65201,6,0,B|288:128,1,65,0|8
256,192,66718,5,8
200,256,68066,5,0
200,128,68403,1,8
240,96,68572,1,0
280,128,68740,1,8
240,160,68909,5,8
228,212,69078,1,8
240,264,69246,1,8
208,304,69415,2,0,B|240:328|272:304,1,65,0|0
363,288,69920,5,0
411,235,70089,2,0,B|423:203|411:171,1,65,8|0
369,112,70426,2,0,B|337:100|305:112,1,65,0|8
254,52,70763,2,0,B|206:112|254:172,2,130,0|8|0
160,104,71774,5,8
96,184,72111,2,0,B|160:216|224:184,1,130,0|8
251,160,72617,2,0,B|315:128|379:160,1,130,0|0
407,184,73122,1,8
384,352,73628,6,0,B|408:288|480:272,1,130,0|8
480,200,74134,2,0,B|440:200|408:224,2,65,0|0|8
348,240,74808,6,0,B|336:176|376:152|424:136,1,130,0|8
480,120,75313,2,0,B|464:72|424:64|384:64|368:88,1,130,0|0
328,136,75819,1,8
228,228,76156,6,0,B|156:204|156:132,1,130,0|8
232,152,76662,2,0,B|312:176|296:256,1,130
240,304,77167,1,8
296,160,77504,6,0,B|312:80|228:52,1,130,0|8
221,133,78010,2,0,B|208:208|279:237,1,130
360,200,78516,1,8
192,40,79021,6,0,B|128:56|88:112,1,130,0|0
272,256,79864,1,0
136,176,80201,6,0,B|176:120|240:104,1,130,0|8
392,136,80875,2,0,B|448:176|456:248,1,130,0|8
320,320,81549,2,0,B|248:336|192:296,1,130,0|8
288,168,82224,2,0,B|328:24,1,130,0|8
220,184,82898,6,0,B|248:256|328:228,1,130,0|8
376,184,83403,1,0
376,116,83572,2,0,B|352:44|272:64,1,130,0|8
144,80,84246,6,0,B|272:136,1,130,0|8
160,211,84920,2,0,B|264:131,1,130,0|8
360,48,85594,2,0,B|424:96|384:160,1,130,0|8
328,112,86100,2,0,B|288:184|352:224,1,130
424,224,86606,1,8
320,296,86943,6,0,B|256:312|192:296,1,130,0|8
152,240,87448,2,0,B|208:208|248:152,1,130
240,84,87954,1,8
312,184,88291,1,0
256,312,90988,5,0
408,176,91493,2,0,B|408:144|392:112,2,65,0|8|0
408,208,91999,2,0,B|408:240|392:272,2,65,0|0|8
280,192,92673,2,0,B|152:192,1,130,0|8
144,64,93347,6,0,B|208:40|272:64,1,130,0|8
144,140,94021,2,0,B|208:108|272:140,1,130,0|8
144,216,94695,1,0
389,151,95201,2,0,B|421:215|389:279,1,130,0|0
152,336,96044,1,0
36,276,96381,1,0
112,168,96718,6,0,B|176:144,1,65,8|0
192,208,97055,2,0,B|256:232,1,65
288,176,97392,2,0,B|352:152,1,65,8|0
368,216,97729,2,0,B|432:240,1,65
472,192,98066,1,8
416,72,98403,6,0,B|352:48|288:72,1,130,0|8
184,152,99078,2,0,B|256:168|312:128,1,130,0|8
392,224,99752,2,0,B|408:160|360:104,1,130,0|8
324,228,100426,2,0,B|308:292|356:348,2,130,0|8|0
392,152,101437,6,0,B|360:96|288:80,1,130,8|0
160,80,102111,2,0,B|88:95|56:151,1,130,8|0
168,224,102785,2,0,B|240:240|296:224,1,130,8|0
192,152,103460,2,0,B|144:136|100:164|92:208,1,130,8|0
204,272,104134,2,0,B|280:380,2,130,8|0|8
96,248,105145,6,0,B|48:192|96:128,1,130,0|8
188,236,105819,2,0,B|220:252|252:236,1,65
301,185,106156,2,0,B|317:153|301:121,1,65,8|0
250,71,106493,2,0,B|218:55|186:71,1,65,0|0
216,152,106830,1,8
396,152,107167,1,0
156,96,112224,5,0
128,224,112561,2,0,B|200:224|256:184,2,130,4|8|0
64,192,113403,2,0,B|48:224|64:256,1,65,0|8
192,296,113909,6,0,B|256:312|320:296,1,130,0|8
376,256,114415,2,0,B|392:192|456:160,1,130
440,92,114920,1,8
264,44,115257,6,0,B|304:108|264:172,1,130,0|8
204,132,115763,2,0,B|184:164|200:228|248:236,1,130
320,228,116269,1,8
424,216,116606,2,0,B|364:176|352:112,3,130,0|8|0|8
256,32,117954,6,0,B|328:48|352:112,1,130,0|8
443,25,118628,2,0,B|419:89|347:113,1,130,0|8
384,231,119302,2,0,B|336:183|353:107,1,130,0|8
229,45,119976,6,0,B|145:58|127:143,1,130,0|8
142,288,120651,2,0,B|196:354|278:327,1,130,0|8
396,242,121325,2,0,B|426:162|362:104,1,130,0|8
288,148,121999,6,0,B|224:148,1,65
224,216,122336,2,0,B|160:216,1,65,8|0
160,284,122673,2,0,B|96:284,1,65
96,352,123010,2,0,B|32:352,1,65,8|0
24,120,123684,6,0,B|40:48|104:16,1,130,4|0
152,120,124358,2,0,B|264:192,1,130,8|0
384,192,125033,2,0,B|376:264|312:304,1,130,8|0
216,208,125707,2,0,B|260:204|292:160|276:112,1,130,8|0
200,72,126381,6,0,B|208:136|208:136|144:152,1,130,8|0
60,48,127055,2,0,B|172:112,1,130,8|0
72,192,127729,1,8
200,192,128066,2,0,B|260:168|276:216|328:192,1,130,0|8
456,192,128740,1,0
256,32,129415,5,0
256,88,130089,1,0
256,144,130763,1,0
256,200,131437,5,0
256,256,132111,1,0
256,312,132785,1,0
128,192,133797,5,8
256,136,134134,2,0,B|300:196|256:256,1,130,0|8
204,192,134639,2,0,B|156:136|208:76,1,130
280,48,135145,1,8
361,164,135482,6,0,B|381:220|425:232|477:216,1,130,0|8
436,148,135988,2,0,B|416:92|372:80|320:96,1,130
272,128,136493,1,8
208,260,136830,6,0,B|128:244|136:164,1,130,0|8
208,184,137336,2,0,B|212:100|128:92,1,130
64,88,137842,1,8
48,232,138179,6,0,B|104:200,1,65
176,200,138516,2,0,B|232:168,1,65,8|0
304,168,138853,2,0,B|360:136,1,65
432,136,139190,2,0,B|488:104,1,65,8|8
432,64,139527,6,0,B|368:40|312:96,1,130,0|8
256,120,140033,2,0,B|176:120|144:176,1,130
88,208,140538,1,8
96,80,140875,6,0,B|128:144|200:152,1,130,0|8
264,152,141381,2,0,B|344:160|384:216,1,130
408,264,141887,1,8
285,303,142224,6,0,B|213:328|180:256,1,130,0|8
251,235,142729,2,0,B|217:162|146:190,1,130,0|0
108,252,143235,1,8
128,108,143572,6,0,B|188:129,1,65
216,64,143909,2,0,B|256:120,1,65,8|0
312,80,144246,2,0,B|312:144,1,65
376,128,144583,2,0,B|360:192,1,65,8|0
256,192,145257,5,4
