osu file format v5

[General]
AudioFilename: YTMND Soundtrack - Volume 10 - 11 - Stamper - 6 in a Row.mp3
AudioLeadIn: 0
AudioHash: 5032b3e079ab5cc171df7cb7ad639851
PreviewTime: -1
Countdown: 1
SampleSet: Normal
EditorBookmarks: 10200,22831,31042,70831,80936,91042,101147,131463,151357,161147,171884,191463,202200

[Metadata]
Title:6 in a Row
Artist:Stamper
Creator:mtmcl
Version:Normal

[Difficulty]
HPDrainRate:5
CircleSize:5
OverallDifficulty:5
SliderMultiplier:1.4
SliderTickRate:1

[Events]
//Background and Video events
0,0,"6.png"
//Break Periods
2,23055,29866
2,71054,79760
2,91265,99971
2,131685,150181
2,161371,170708
2,191687,201024
//Storyboard Layer 0 (Background)
//Storyboard Layer 1 (Failing)
//Storyboard Layer 2 (Passing)
//Storyboard Layer 3 (Foreground)
//Storyboard Sound Samples
//Background Colour Transformations
3,148,163,162,255

[TimingPoints]
10224,631.578947368421,4,1,0,100

[HitObjects]
256,192,10224,1,0
192,192,10539,1,0
128,192,10855,1,0
128,288,11487,1,0
192,288,11802,1,0
256,288,12118,1,0
352,288,12750,5,0
352,224,13066,1,0
352,160,13381,1,0
224,160,14013,1,0
160,160,14329,1,0
96,160,14645,1,0
32,160,14960,1,0
32,224,15276,1,0
128,288,15908,6,0,C|128:288|96:256|64:320|32:288,1,140
160,352,17171,1,0
256,320,17645,1,0
192,224,18118,5,0
256,224,18434,1,0
256,160,18750,1,0
320,160,19066,2,0,C|320:160|288:256|352:256,1,140
448,256,20329,1,0
416,320,20802,1,0
352,288,21276,6,0,C|352:288|320:256|288:256,1,70
224,256,21908,1,0
160,256,22224,1,0
96,256,22539,1,0
32,256,22855,1,0
256,192,31066,5,0
160,192,31697,1,0
160,96,32329,1,0
256,96,32960,5,0
256,192,33592,1,0
352,192,34224,1,0
352,288,34855,6,0,C|352:288|320:288|320:352,1,70
256,320,35487,1,0
192,320,35802,1,0
128,320,36118,2,0,C|128:320|128:288|64:288,1,70
96,224,36750,1,0
96,160,37066,1,0
96,96,37381,1,0
192,96,38013,5,0
256,96,38329,1,0
320,96,38645,1,0
416,96,39118,1,0
416,192,39592,1,0
416,256,39908,1,0
416,320,40224,1,0
320,320,40855,5,0
256,320,41171,2,0,C|256:320|224:288|192:320|128:224,1,210
160,160,42592,1,0
160,160,42750,1,0
224,160,43066,1,0
288,160,43381,1,0
352,160,43697,1,0
352,224,44013,2,0,C|352:224|352:320,1,70
288,288,44645,1,0
224,288,44960,1,0
160,288,45276,5,0
128,256,45592,1,0
96,224,45908,1,0
96,96,46539,2,0,C|96:96|128:96|128:32,1,70
192,64,47171,1,0
256,64,47487,1,0
320,64,47802,1,0
256,192,48118,12,0,49381
256,192,50645,2,0,C|256:192|352:192|384:128,2,140
192,192,52224,1,0
128,192,52539,1,0
128,256,52855,1,0
192,256,53171,5,0
256,256,53487,1,0
320,256,53802,1,0
384,256,54118,1,0
384,256,54276,1,0
384,256,54434,1,0
448,256,54750,1,0
448,192,55066,1,0
320,192,55697,5,0
256,192,56013,1,0
256,192,56171,1,0
256,192,56329,1,0
192,192,56645,1,0
128,192,56960,1,0
64,192,57276,1,0
64,192,57434,1,0
64,192,57592,2,0,C|64:192|64:96|128:96,1,140
160,96,58539,5,0
224,96,58855,1,0
288,96,59171,1,0
288,96,59329,1,0
288,96,59487,1,0
352,96,59802,1,0
352,96,59960,1,0
352,96,60118,1,0
352,224,60750,5,0
288,224,61066,1,0
224,224,61381,1,0
160,224,61697,1,0
96,224,62013,1,0
96,96,63276,5,0
128,128,63592,1,0
192,96,63908,1,0
224,128,64224,1,0
288,96,64539,1,0
320,128,64855,1,0
352,160,65171,1,0
352,256,65802,5,0
288,256,66118,1,0
224,256,66434,1,0
160,256,66750,2,0,C|160:256|96:256|96:288,1,70
96,320,67381,1,0
160,320,67697,1,0
224,320,68013,1,0
288,320,68329,1,0
352,320,68645,1,0
352,256,68960,2,0,C|352:256|416:256|416:192|320:192|352:96|448:96,1,420
256,192,80960,5,0
256,128,81276,1,0
256,128,81434,1,0
256,128,81592,1,0
256,64,81908,2,0,C|256:64|352:64|352:160|384:160,1,210
416,160,83171,5,0
416,224,83487,1,0
416,288,83802,1,0
352,288,84118,1,0
288,288,84434,1,0
224,288,84750,1,0
160,288,85066,1,0
256,128,86171,6,0,C|256:128|320:160|288:192,1,105
288,256,86960,1,0
352,256,87276,1,0
352,256,87434,1,0
352,256,87592,1,0
416,256,87908,1,0
480,256,88224,1,0
480,256,88381,1,0
480,192,88697,5,0
480,192,88855,2,0,C|480:192|480:96,1,70
480,64,89487,1,0
480,64,89645,1,0
480,64,89802,1,0
416,64,90118,1,0
352,64,90434,2,0,C|352:64|256:64,2,70
256,192,101171,5,0
256,128,101487,1,0
320,128,101802,1,0
320,128,101960,1,0
320,128,102118,1,0
320,128,102276,1,0
384,128,102592,1,0
384,128,102750,1,0
448,128,103066,1,0
448,192,103381,1,0
448,192,103539,1,0
448,256,103855,1,0
448,320,104171,2,0,C|448:320|384:288|288:320|192:192,1,315
128,224,105908,5,0
128,224,106066,1,0
128,224,106224,1,0
128,160,106539,1,0
128,160,106697,1,0
128,160,106855,1,0
128,160,107013,1,0
128,160,107171,1,0
192,160,107487,1,0
256,160,107802,1,0
320,160,108118,1,0
320,96,108434,1,0
256,96,108750,1,0
192,96,109066,1,0
224,32,109381,1,0
224,32,109539,1,0
224,32,109697,1,0
320,32,110171,1,0
320,32,110329,1,0
384,32,110645,1,0
384,128,111276,5,0
256,128,111908,1,0
320,224,112539,1,0
192,224,113171,1,0
256,320,113802,5,0
128,320,114434,1,0
192,224,115066,1,0
320,224,115697,1,0
256,128,116329,5,0
256,128,116487,1,0
256,128,116645,1,0
256,128,116802,1,0
256,128,116960,1,0
320,128,117276,1,0
384,128,117592,1,0
384,224,118224,1,0
320,224,118539,1,0
256,224,118855,1,0
160,224,119487,5,0
160,96,120118,1,0
288,96,120750,1,0
352,224,121381,5,0
288,224,121697,1,0
224,224,122012,1,0
160,224,122328,1,0
96,224,122644,1,0
96,96,123907,5,0
128,128,124223,1,0
192,96,124539,1,0
224,128,124855,1,0
288,96,125170,1,0
320,128,125486,1,0
352,160,125802,1,0
352,256,126433,5,0
288,256,126749,1,0
224,256,127065,1,0
160,256,127381,2,0,C|160:256|96:256|96:288,1,70
96,320,128012,1,0
160,320,128328,1,0
224,320,128644,1,0
288,320,128960,1,0
352,320,129276,1,0
352,256,129591,2,0,C|352:256|416:256|416:192|320:192|352:96|448:96,1,420
256,192,151381,5,0
320,192,151697,1,0
384,192,152013,1,0
448,192,152329,2,0,C|448:192|448:96|416:96,1,105
352,96,153276,5,0
352,96,153434,1,0
352,96,153592,1,0
352,96,153750,1,0
352,96,153908,1,0
352,96,154066,1,0
288,96,154381,1,0
288,96,154539,1,0
288,96,154697,1,0
288,96,154855,1,0
224,96,155171,2,0,C|224:96|192:96|192:160,1,70
160,192,155802,1,0
160,256,156118,1,0
160,320,156434,1,0
224,320,156750,1,0
288,320,157066,1,0
288,320,157224,1,0
288,320,157381,2,0,C|288:320|352:320|320:320,1,70
288,224,158171,5,0
288,224,158329,1,0
288,224,158487,1,0
288,224,158645,2,0,C|288:224|192:224,1,70
160,224,159276,1,0
160,160,159592,1,0
160,96,159908,1,0
160,96,160066,1,0
160,96,160224,1,0
224,96,160539,1,0
288,96,160855,1,0
352,96,161171,1,0
352,224,171908,5,0
288,224,172224,1,0
224,224,172539,1,0
160,224,172855,1,0
96,224,173171,1,0
96,96,174434,5,0
128,128,174750,1,0
192,96,175066,1,0
224,128,175382,1,0
288,96,175697,1,0
320,128,176013,1,0
352,160,176329,1,0
352,256,176960,5,0
288,256,177276,1,0
224,256,177592,1,0
160,256,177908,2,0,C|160:256|96:256|96:288,1,70
96,320,178539,1,0
160,320,178855,1,0
224,320,179171,1,0
288,320,179487,1,0
352,320,179803,1,0
352,256,180118,2,0,C|352:256|416:256|416:192|320:192|352:96|448:96,1,420
480,128,182329,5,0
480,192,182645,1,0
480,256,182960,1,0
480,320,183276,1,0
288,320,184381,5,0
288,320,184539,1,0
288,320,184697,1,0
288,320,184855,1,0
288,256,185171,1,0
288,192,185487,1,0
288,192,185645,1,0
288,192,185802,1,0
288,128,186118,1,0
288,128,186276,1,0
288,128,186434,1,0
256,192,186750,12,0,191487
256,256,202224,1,0
256,192,202539,1,0
256,128,202855,1,0
256,32,203329,1,0
352,32,203802,5,0
352,32,203960,1,0
352,32,204118,1,0
416,32,204434,1,0
416,96,204750,1,0
416,96,204908,1,0
416,96,205066,1,0
416,256,205697,1,0
416,256,205855,1,0
416,256,206013,1,0
416,256,206171,1,0
416,256,206329,1,0
416,256,206487,1,0
416,256,206645,1,0
416,192,206960,1,0
416,192,207118,1,0
416,192,207276,1,0
288,0,207908,6,0,C|288:0|119:249|196:374|322:364|374:254|325:159|160:128,1,980
