osu file format v4

[General]
AudioFilename: YTMND Soundtrack - Volume 10 - 11 - Stamper - 6 in a Row.mp3
AudioLeadIn: 0
AudioHash: 5032b3e079ab5cc171df7cb7ad639851
PreviewTime: -1
Countdown: 1
SampleSet: Normal
EditorBookmarks: 10200,22831,31042,70831,80936,91042,101147,131463,151357,161147,171884,191463,202200

[Metadata]
Title:6 in a Row
Artist:Stamper
Creator:mtmcl
Version:Hard

[Difficulty]
HPDrainRate:5
CircleSize:5
OverallDifficulty:5
SliderMultiplier: 2.5
SliderTickRate: 1

[Events]
//Background and Video events
0,-100000,"6.png"
//Break Periods
2,23031,29842
2,71030,79736
2,91241,99947
2,131663,150157
2,161347,170684
2,191663,201000
//Storyboard Layer 0 (Background)
//Storyboard Layer 1 (Failing)
//Storyboard Layer 2 (Passing)
//Storyboard Layer 3 (Foreground)
//Storyboard Sound Samples
//Background Colour Transformations
3,100,163,162,255

[TimingPoints]
10200,631.578947368421,4,1,0,100

[HitObjects]
256,192,10200,1,0
192,192,10357,1,0
128,192,10515,1,0
64,288,10831,1,0
160,288,11147,1,0
224,288,11305,1,0
288,288,11463,1,0
352,288,11621,1,0
416,288,11778,1,0
416,192,12094,1,0
416,128,12252,1,0
320,128,12568,5,0
256,128,12726,1,0
192,128,12884,1,0
128,128,13042,1,0
128,224,13357,1,0
224,224,13673,1,0
288,224,13831,1,0
352,224,13989,1,0
448,160,14305,1,0
416,96,14463,1,0
384,32,14621,1,0
288,32,14936,1,0
224,32,15094,1,0
160,32,15252,1,0
96,32,15410,1,0
96,320,15884,6,0,C|96:320|64:288|32:352|0:320,1,125
32,224,16515,1,0
128,224,16831,1,0
128,160,16989,1,0
192,160,17147,1,0
192,224,17305,1,0
256,224,17463,1,0
256,160,17621,1,0
384,160,18094,5,0
384,224,18252,1,0
384,288,18410,1,0
448,288,18568,1,0
384,288,18726,1,0
320,288,18884,1,0
256,288,19042,1,0
160,288,19357,2,0,C|160:288|128:256|128:160,1,125
224,160,19989,1,0
288,160,20147,1,0
288,96,20305,1,0
352,96,20463,1,0
352,32,20621,1,0
416,32,20778,1,0
352,288,21252,6,0,C|352:288|320:256|288:256,1,62.5
288,192,21568,1,0
224,192,21726,1,0
160,192,21884,1,0
96,192,22042,1,0
96,256,22200,1,0
96,352,22515,2,0,C|96:352|128:352,2,62.5
256,192,31042,5,0
256,256,31200,1,0
256,192,31357,1,0
256,96,31673,5,0
256,160,31831,1,0
256,96,31989,1,0
160,96,32305,6,0,C|160:96|128:96|128:160,2,62.5
64,96,32936,5,0
64,192,33252,1,0
160,192,33568,5,0
160,128,33726,1,0
160,192,33884,1,0
256,192,34200,5,0
352,192,34515,1,0
352,288,34831,6,0,C|352:288|320:288|320:352,2,62.5
448,288,35463,5,0
448,224,35621,1,0
448,160,35778,1,0
448,64,36094,5,0
384,64,36252,1,0
384,128,36410,1,0
288,128,36726,1,0
288,192,36884,1,0
224,192,37042,1,0
160,128,37357,1,0
64,128,37673,1,0
64,192,37831,1,0
64,256,37989,2,0,C|64:256|128:288|160:352|224:352|224:288,1,250
224,256,38778,1,0
224,192,38936,1,0
224,128,39094,1,0
320,128,39410,1,0
320,192,39568,1,0
416,192,39884,1,0
416,128,40042,1,0
416,64,40200,1,0
320,256,40831,5,0
320,320,40989,1,0
256,320,41147,2,0,C|256:320|224:288|192:320|128:224,1,187.5
96,160,41936,1,0
160,160,42094,1,0
288,160,42568,5,0
352,160,42726,1,0
288,160,42884,1,0
352,160,43042,1,0
352,64,43357,1,0
288,64,43515,1,0
352,64,43673,1,0
448,64,43989,1,0
448,160,44305,1,0
448,224,44463,1,0
384,224,44621,1,0
448,224,44778,1,0
448,288,44936,1,0
352,288,45252,6,0,C|352:288|288:288|256:224|128:192,1,250
64,96,46357,5,0
128,96,46515,1,0
224,96,46831,1,0
288,96,46989,1,0
224,96,47147,1,0
224,192,47463,1,0
288,192,47621,1,0
352,192,47778,1,0
288,192,47936,1,0
256,192,48094,12,0,49357
160,32,49989,1,0
160,96,50147,1,0
160,160,50305,1,0
192,224,50463,1,0
256,192,50621,2,0,C|256:192|352:192|384:128,2,125
256,288,51568,1,0
256,224,51726,1,0
256,160,51884,1,0
256,96,52042,1,0
256,32,52200,1,0
256,160,52515,1,0
160,160,52831,1,0
96,160,52989,1,0
96,224,53147,5,0
96,288,53305,1,0
160,288,53463,1,0
224,224,53778,1,0
320,224,54094,1,0
384,224,54252,1,0
320,224,54410,1,0
416,224,54726,1,0
416,160,54884,5,0
416,224,55042,1,0
416,352,55515,2,0,C|416:352|352:352|288:288|256:320|160:256,1,312.5
160,160,56621,1,0
256,160,56936,1,0
352,160,57252,1,0
416,160,57410,1,0
480,160,57568,2,0,C|480:160|480:64|544:64,1,125
416,64,58200,1,0
320,64,58515,5,0
224,64,58831,1,0
128,64,59147,1,0
128,128,59305,1,0
128,192,59463,1,0
128,288,59778,1,0
192,288,59936,1,0
256,288,60094,1,0
256,160,60568,5,0
320,160,60726,1,0
256,160,60884,1,0
192,160,61042,1,0
192,64,61357,1,0
288,64,61673,1,0
352,64,61831,1,0
416,64,61989,1,0
416,160,62305,1,0
416,224,62463,1,0
352,224,62621,1,0
224,224,63094,1,0
160,224,63252,5,0
160,288,63410,1,0
224,288,63568,1,0
224,192,63884,1,0
224,288,64200,1,0
160,288,64357,1,0
160,224,64515,1,0
160,128,64831,1,0
224,128,64989,1,0
224,192,65147,1,0
352,256,65621,5,0
288,256,65778,1,0
224,256,65936,1,0
160,256,66094,2,0,C|160:256|96:256|96:288,1,62.5
96,320,66410,1,0
192,320,66726,1,0
288,320,67042,1,0
384,320,67357,1,0
448,320,67515,1,0
448,256,67673,1,0
448,160,67989,1,0
352,160,68305,1,0
256,160,68621,1,0
256,256,68936,2,0,C|256:256|320:256|320:192|224:192|256:96|352:96,1,375
384,96,70200,5,0
448,96,70357,1,0
448,160,70515,1,0
384,160,70673,1,0
416,224,70831,1,0
96,192,80936,5,0
192,192,81252,1,0
256,192,81410,1,0
192,192,81568,1,0
192,96,81884,2,0,C|192:96|285:93|285:99|288:128,1,125
352,128,82357,5,0
416,128,82515,1,0
416,192,82673,1,0
352,192,82831,1,0
352,288,83147,1,0
288,288,83305,1,0
224,288,83463,1,0
224,224,83621,1,0
288,224,83778,1,0
384,224,84094,5,0
384,160,84252,1,0
384,224,84410,1,0
288,224,84726,1,0
224,224,84884,1,0
288,224,85042,1,0
256,128,85357,6,0,C|256:128|320:160|288:192,1,62.5
320,96,85673,5,0
448,96,86147,1,0
512,96,86305,1,0
512,160,86463,1,0
448,160,86621,1,0
448,256,86936,1,0
512,256,87094,1,0
512,320,87252,1,0
448,320,87410,1,0
384,320,87568,1,0
320,320,87884,1,0
320,224,88200,1,0
256,224,88357,1,0
160,224,88673,6,0,C|160:224|160:128,1,62.5
160,64,89147,1,0
224,128,89463,1,0
288,128,89621,1,0
224,128,89778,1,0
160,192,90094,1,0
160,288,90410,2,0,C|160:288|64:288,2,62.5
256,288,91042,1,0
256,224,101147,5,0
256,128,101463,1,0
320,128,101778,1,0
320,192,101936,1,0
320,256,102094,1,0
320,320,102252,1,0
416,320,102568,1,0
416,256,102726,1,0
416,160,103042,1,0
416,64,103357,1,0
352,64,103515,1,0
256,64,103831,1,0
256,160,104147,2,0,C|256:160|192:128|96:160|0:32,1,312.5
96,64,105252,1,0
160,64,105410,1,0
224,64,105568,1,0
288,64,105726,1,0
288,128,105884,5,0
224,128,106042,1,0
160,128,106200,1,0
160,224,106515,1,0
160,288,106673,1,0
96,288,106831,1,0
96,224,106989,1,0
160,224,107147,1,0
256,288,107463,1,0
320,288,107621,1,0
320,224,107778,1,0
256,224,107936,1,0
256,160,108094,1,0
352,160,108410,1,0
352,96,108568,1,0
352,32,108726,1,0
448,32,109042,1,0
448,128,109357,1,0
448,192,109515,1,0
448,128,109673,1,0
448,256,110147,1,0
384,256,110305,1,0
288,256,110621,1,0
288,128,111094,5,0
224,128,111252,1,0
160,128,111410,1,0
96,128,111568,1,0
96,224,111884,1,0
96,320,112200,1,0
160,320,112357,1,0
224,320,112515,1,0
224,224,112831,1,0
224,160,112989,1,0
224,96,113147,1,0
352,96,113621,5,0
352,160,113778,1,0
352,224,113936,1,0
352,288,114094,1,0
256,288,114410,1,0
160,288,114726,1,0
160,224,114884,1,0
160,160,115042,1,0
160,256,115357,1,0
160,192,115515,1,0
160,256,115673,1,0
32,256,116147,5,0
32,192,116305,1,0
32,128,116463,1,0
32,64,116621,1,0
96,64,116778,1,0
160,64,116936,1,0
256,64,117252,1,0
352,64,117568,1,0
352,160,117884,1,0
288,160,118042,1,0
352,160,118200,1,0
448,160,118515,1,0
448,256,118831,1,0
352,256,119147,1,0
256,256,119463,5,0
160,256,119778,1,0
160,192,119936,1,0
160,256,120094,1,0
160,352,120410,1,0
96,352,120568,1,0
160,352,120726,1,0
256,352,121200,5,0
320,352,121358,1,0
256,352,121516,1,0
256,288,121674,1,0
256,192,121989,1,0
256,96,122305,1,0
320,96,122463,1,0
384,96,122621,1,0
480,96,122937,1,0
480,160,123095,1,0
480,224,123253,1,0
352,224,123726,1,0
288,224,123884,5,0
288,288,124042,1,0
352,288,124200,1,0
352,192,124516,1,0
352,288,124832,1,0
288,288,124989,1,0
288,224,125147,1,0
256,128,125463,1,0
192,128,125621,1,0
192,192,125779,1,0
320,256,126253,5,0
256,256,126410,1,0
192,256,126568,1,0
128,256,126726,2,0,C|128:256|64:256|64:288,1,62.5
64,320,127042,1,0
160,320,127358,1,0
256,320,127674,1,0
352,320,127989,1,0
448,320,128147,1,0
448,256,128305,1,0
448,160,128621,1,0
352,160,128937,1,0
256,160,129253,1,0
256,256,129568,2,0,C|256:256|320:256|320:192|224:192|256:96|352:96,1,375
384,96,130832,5,0
448,96,130989,1,0
448,160,131147,1,0
384,160,131305,1,0
416,224,131463,1,0
160,192,151357,5,0
256,192,151673,1,0
352,192,151989,1,0
448,192,152305,2,0,C|448:192|448:96|416:96,1,125
384,128,152778,5,0
384,256,153252,1,0
320,256,153410,1,0
256,256,153568,1,0
192,256,153726,1,0
256,256,153884,1,0
320,256,154042,1,0
320,160,154357,1,0
320,96,154515,1,0
256,96,154673,2,0,C|256:96|230:94|224:160,1,62.5
128,128,155147,1,0
32,128,155463,1,0
32,224,155778,5,0
96,224,155936,1,0
160,224,156094,1,0
128,320,156410,1,0
224,320,156726,1,0
224,256,156884,1,0
224,192,157042,1,0
224,128,157200,2,0,C|224:128|288:128|256:128,1,62.5
384,128,157673,1,0
448,320,158147,5,0
384,320,158305,1,0
384,256,158463,1,0
448,256,158621,2,0,C|448:256|320:256,1,125
256,256,159094,1,0
256,192,159252,1,0
192,192,159410,1,0
192,256,159568,1,0
96,256,159884,1,0
96,192,160042,1,0
96,128,160200,1,0
96,64,160357,1,0
160,64,160515,1,0
160,128,160673,1,0
224,128,160831,1,0
320,128,161147,1,0
32,32,171884,1,0
96,32,172042,1,0
96,96,172200,1,0
96,192,172516,1,0
96,288,172832,1,0
32,288,172989,1,0
32,352,173147,1,0
352,96,174253,5,0
352,160,174410,1,0
352,224,174568,1,0
352,288,174726,1,0
256,288,175042,1,0
160,288,175358,1,0
160,224,175516,1,0
160,160,175674,1,0
160,256,175989,1,0
160,192,176147,1,0
160,256,176305,1,0
32,256,176779,5,0
32,192,176937,1,0
32,128,177095,1,0
32,64,177253,1,0
96,64,177410,1,0
160,64,177568,1,0
256,64,177884,1,0
352,64,178200,1,0
352,160,178516,1,0
288,160,178674,1,0
352,160,178832,1,0
448,160,179147,1,0
448,256,179463,1,0
352,256,179779,1,0
256,256,180095,5,0
160,256,180410,1,0
160,192,180568,1,0
160,256,180726,1,0
160,352,181042,1,0
96,352,181200,1,0
160,352,181358,1,0
288,352,181832,5,0
352,352,181990,1,0
288,352,182148,1,0
288,288,182306,1,0
288,192,182621,1,0
288,96,182937,1,0
352,96,183095,1,0
416,96,183253,1,0
384,224,184358,5,0
320,224,184516,1,0
320,288,184673,1,0
384,288,184832,1,0
384,192,185148,1,0
384,288,185464,1,0
320,288,185621,1,0
320,224,185779,1,0
288,128,186095,1,0
224,128,186253,1,0
224,192,186411,1,0
256,192,186726,12,0,191463
256,288,202200,1,0
256,224,202357,1,0
256,160,202515,1,0
256,64,202831,1,0
192,64,202989,1,0
192,128,203147,1,0
256,128,203305,1,0
352,128,203621,5,0
352,192,203778,1,0
352,256,203936,1,0
352,320,204094,1,0
448,320,204410,1,0
448,224,204726,1,0
448,160,204884,1,0
448,96,205042,1,0
288,96,205673,1,0
224,96,205831,1,0
224,160,205989,1,0
160,160,206147,1,0
160,224,206305,1,0
96,224,206463,1,0
96,160,206621,1,0
96,64,206936,1,0
160,64,207094,1,0
224,64,207252,1,0
288,0,207884,6,0,C|288:0|119:249|196:374|322:364|373:257|343:153|128:128,1,1000
256,192,210726,12,0,212305
