osu file format v14

[General]
AudioFilename: Cytus The Silence - sta.mp3
AudioLeadIn: 0
PreviewTime: 170670
Countdown: 0
SampleSet: Normal
StackLeniency: 0.7
Mode: 1
LetterboxInBreaks: 0
WidescreenStoryboard: 0

[Editor]
DistanceSpacing: 1.7
BeatDivisor: 4
GridSize: 32
TimelineZoom: 1.2

[Metadata]
Title:The Silence (extended mix)
TitleUnicode:The Silence (extended mix)
Artist:Sta
ArtistUnicode:Sta
Creator:bananannian
Version:Muzukashii
Source:Cytus
Tags:ignis cytus rayark
BeatmapID:648109
BeatmapSetID:287006

[Difficulty]
HPDrainRate:4
CircleSize:5
OverallDifficulty:5
ApproachRate:5
SliderMultiplier:1.4
SliderTickRate:1

[Events]
//Background and Video events
0,0,"1-7.jpg",0,0
//Break Periods
2,124347,131652
//Storyboard Layer 0 (Background)
//Storyboard Layer 1 (Fail)
//Storyboard Layer 2 (Pass)
//Storyboard Layer 3 (Foreground)
//Storyboard Sound Samples

[TimingPoints]
6307,363.636363636364,4,1,0,50,1,0
7670,-100,4,1,0,100,0,0
7852,-100,4,1,0,50,0,0
19306,-100,4,1,0,100,0,0
19488,-100,4,1,0,50,0,0
29579,-74.0740740740741,4,1,0,50,0,0
30943,-74.0740740740741,4,1,0,100,0,0
31125,-100,4,1,0,50,0,0
36852,-100,4,1,0,60,0,0
38307,-100,4,1,0,75,0,0
39761,-100,4,1,0,90,0,0
41216,-100,4,1,0,100,0,0
42761,-100,4,1,0,40,0,0
48488,-100,4,1,0,50,0,0
51397,-100,4,1,0,60,0,0
54307,-100,4,1,0,70,0,0
57216,-100,4,1,0,80,0,0
60125,-100,4,1,0,90,0,0
63034,-100,4,1,0,100,0,0
66034,-100,4,1,0,50,0,0
71670,-100,4,1,0,100,0,0
73307,-100,4,1,0,50,0,0
77488,-100,4,1,0,100,0,0
79125,-100,4,1,0,50,0,0
83307,-100,4,1,0,100,0,0
84943,-100,4,1,0,50,0,0
89125,-100,4,1,0,100,0,0
90761,-100,4,1,0,70,0,0
94943,-100,4,1,0,100,0,0
96579,-100,4,1,0,70,0,0
100761,-100,4,1,0,100,0,0
102397,-100,4,1,0,70,0,0
106579,-100,4,1,0,100,0,0
108216,-100,4,1,0,70,0,0
112579,-100,4,1,0,30,0,0
113943,-95.2380952380952,4,1,0,40,0,0
115397,-90.9090909090909,4,1,0,50,0,0
116852,-86.2068965517241,4,1,0,60,0,0
118307,-81.9672131147541,4,1,0,70,0,0
119761,-78.125,4,1,0,80,0,0
121216,-74.6268656716418,4,1,0,90,0,0
122670,-70.9219858156028,4,1,0,100,0,0
123397,-67.5675675675676,4,1,0,100,0,0
123670,-64.5161290322581,4,1,0,100,0,0
123943,-61.3496932515337,4,1,0,100,0,0
150307,-133.333333333333,4,2,0,40,0,0
171943,-131.578947368421,4,1,0,40,0,0
172125,-129.87012987013,4,1,0,45,0,0
172307,-125,4,1,0,55,0,0
172488,-121.951219512195,4,1,0,60,0,0
172670,-113.636363636364,4,1,0,70,0,0
172852,-108.695652173913,4,1,0,75,0,0
173034,-99.009900990099,4,1,0,85,0,0
173216,-94.3396226415094,4,1,0,90,0,0
173397,-84.7457627118644,4,1,0,100,0,0
173579,-80,4,1,0,100,0,1
220125,-80,4,1,0,100,0,0
220488,-88.4955752212389,4,1,0,100,0,0
220670,-94.3396226415094,4,1,0,100,0,0
221579,-100,4,1,0,100,0,0
228034,-100,4,1,0,20,0,0
228852,-100,4,1,0,100,0,0
231761,-100,4,1,0,90,0,0
234670,-100,4,1,0,80,0,0
237579,-100,4,1,0,70,0,0
240488,-100,4,1,0,60,0,0
243397,-100,4,1,0,50,0,0
246307,-100,4,1,0,40,0,0
249216,-100,4,1,0,30,0,0
252125,-100,4,1,0,20,0,0

[HitObjects]
256,192,6307,12,0,7579,0:0:0:0:
256,192,7761,5,4,0:0:0:0:
256,192,10307,1,8,0:0:0:0:
256,192,10670,1,0,0:0:0:0:
256,192,12125,1,0,0:0:0:0:
256,192,12397,1,0,0:0:0:0:
256,192,12670,1,0,0:0:0:0:
256,192,13034,1,0,0:0:0:0:
256,192,13307,1,0,0:0:0:0:
256,192,13579,1,0,0:0:0:0:
256,192,14125,1,0,0:0:0:0:
256,192,16488,1,12,0:0:0:0:
256,192,19397,1,4,0:0:0:0:
256,192,21034,1,0,0:0:0:0:
256,192,22307,1,0,0:0:0:0:
256,192,23761,1,0,0:0:0:0:
256,192,24034,1,0,0:0:0:0:
256,192,24488,1,8,0:0:0:0:
256,192,24852,1,8,0:0:0:0:
256,192,25216,1,0,0:0:0:0:
256,192,25761,1,0,0:0:0:0:
256,192,26307,1,8,0:0:0:0:
256,192,26670,1,0,0:0:0:0:
256,192,27216,1,0,0:0:0:0:
256,192,27761,1,8,0:0:0:0:
256,192,28125,1,0,0:0:0:0:
256,192,28670,1,0,0:0:0:0:
256,192,29579,1,8,0:0:0:0:
256,192,29761,1,8,0:0:0:0:
256,192,29943,1,0,0:0:0:0:
256,192,30125,1,8,0:0:0:0:
256,192,30307,1,8,0:0:0:0:
256,192,30488,1,8,0:0:0:0:
256,192,30670,1,8,0:0:0:0:
256,192,30852,1,8,0:0:0:0:
256,192,31034,1,4,0:0:0:0:
256,192,31579,1,0,0:0:0:0:
256,192,32488,1,0,0:0:0:0:
256,192,33034,1,0,0:0:0:0:
256,192,33943,1,0,0:0:0:0:
256,192,34488,1,0,0:0:0:0:
256,192,35397,1,0,0:0:0:0:
256,192,35670,1,0,0:0:0:0:
256,192,35761,1,8,0:0:0:0:
256,192,35943,1,0,0:0:0:0:
256,192,36307,1,0,0:0:0:0:
256,192,36488,1,8,0:0:0:0:
256,192,36852,1,0,0:0:0:0:
256,192,37216,1,8,0:0:0:0:
256,192,37397,1,0,0:0:0:0:
256,192,37943,1,8,0:0:0:0:
256,192,38307,1,0,0:0:0:0:
256,192,38670,1,8,0:0:0:0:
256,192,38852,1,0,0:0:0:0:
256,192,39397,1,8,0:0:0:0:
256,192,39761,1,0,0:0:0:0:
256,192,40125,1,8,0:0:0:0:
256,192,40307,1,0,0:0:0:0:
256,192,40852,1,8,0:0:0:0:
256,192,41034,1,0,0:0:0:0:
256,192,41397,1,8,0:0:0:0:
256,192,41579,1,0,0:0:0:0:
256,192,41761,1,8,0:0:0:0:
256,192,41943,1,8,0:0:0:0:
256,192,42125,1,8,0:0:0:0:
256,192,42307,1,8,0:0:0:0:
256,192,42397,1,8,0:0:0:0:
256,192,42488,1,8,0:0:0:0:
256,192,42670,1,0,0:0:0:0:
256,192,43034,1,8,0:0:0:0:
256,192,43216,1,0,0:0:0:0:
256,192,43761,1,8,0:0:0:0:
256,192,44125,1,0,0:0:0:0:
256,192,44488,1,8,0:0:0:0:
256,192,44670,1,0,0:0:0:0:
256,192,45216,1,8,0:0:0:0:
256,192,45579,1,0,0:0:0:0:
256,192,45943,1,8,0:0:0:0:
256,192,46125,1,0,0:0:0:0:
256,192,46670,1,8,0:0:0:0:
256,192,47034,1,0,0:0:0:0:
256,192,47307,1,0,0:0:0:0:
256,192,47397,1,8,0:0:0:0:
256,192,47579,1,0,0:0:0:0:
256,192,47943,1,0,0:0:0:0:
256,192,48125,1,8,0:0:0:0:
256,192,48488,1,0,0:0:0:0:
256,192,48852,1,8,0:0:0:0:
256,192,49034,1,0,0:0:0:0:
256,192,49579,1,8,0:0:0:0:
256,192,49943,1,0,0:0:0:0:
256,192,50307,1,8,0:0:0:0:
256,192,50488,1,0,0:0:0:0:
256,192,51034,1,8,0:0:0:0:
256,192,51397,1,0,0:0:0:0:
256,192,51761,1,8,0:0:0:0:
256,192,51943,1,0,0:0:0:0:
256,192,52488,1,8,0:0:0:0:
256,192,52670,1,0,0:0:0:0:
256,192,53034,1,8,0:0:0:0:
256,192,53216,1,0,0:0:0:0:
256,192,53488,1,0,0:0:0:0:
256,192,53579,1,8,0:0:0:0:
256,192,53761,1,8,0:0:0:0:
256,192,53943,1,8,0:0:0:0:
256,192,54034,1,8,0:0:0:0:
256,192,54125,1,8,0:0:0:0:
256,192,54307,1,0,0:0:0:0:
256,192,54488,1,8,0:0:0:0:
256,192,54852,1,0,0:0:0:0:
256,192,55216,1,8,0:0:0:0:
256,192,55397,1,12,0:0:0:0:
256,192,55761,1,0,0:0:0:0:
256,192,56125,1,8,0:0:0:0:
256,192,56307,1,0,0:0:0:0:
256,192,56852,1,8,0:0:0:0:
256,192,57216,1,0,0:0:0:0:
256,192,57579,1,8,0:0:0:0:
256,192,57761,1,0,0:0:0:0:
256,192,58307,1,8,0:0:0:0:
256,192,58670,1,0,0:0:0:0:
256,192,59034,1,8,0:0:0:0:
256,192,59307,1,8,0:0:0:0:
256,192,59579,1,8,0:0:0:0:
256,192,59852,1,8,0:0:0:0:
256,192,60125,1,0,0:0:0:0:
256,192,60307,1,8,0:0:0:0:
256,192,60488,1,8,0:0:0:0:
256,192,60670,1,0,0:0:0:0:
256,192,61034,1,8,0:0:0:0:
256,192,61216,1,12,0:0:0:0:
256,192,61579,1,0,0:0:0:0:
256,192,61943,1,8,0:0:0:0:
256,192,62125,1,0,0:0:0:0:
256,192,62488,1,0,0:0:0:0:
256,192,62670,1,8,0:0:0:0:
256,192,63034,1,0,0:0:0:0:
256,192,63397,1,8,0:0:0:0:
256,192,63579,1,0,0:0:0:0:
256,192,64125,1,8,0:0:0:0:
256,192,64307,1,0,0:0:0:0:
256,192,64670,1,8,0:0:0:0:
256,192,64852,1,0,0:0:0:0:
256,192,65216,1,8,0:0:0:0:
256,192,65397,1,8,0:0:0:0:
256,192,65579,1,8,0:0:0:0:
256,192,65670,1,8,0:0:0:0:
256,192,65761,1,8,0:0:0:0:
256,192,65943,1,0,0:0:0:0:
256,192,67579,1,4,0:0:0:0:
256,192,68125,1,8,0:0:0:0:
256,192,68852,1,0,0:0:0:0:
256,192,70488,1,0,0:0:0:0:
256,192,70761,1,0,0:0:0:0:
256,192,71034,1,8,0:0:0:0:
256,192,71761,2,0,L|256:128,16,35
256,192,73397,1,4,0:0:0:0:
256,192,73943,1,8,0:0:0:0:
256,192,74307,1,0,0:0:0:0:
256,192,74670,1,0,0:0:0:0:
256,192,75943,1,0,0:0:0:0:
256,192,76307,1,0,0:0:0:0:
256,192,76670,1,0,0:0:0:0:
256,192,76852,1,12,0:0:0:0:
256,192,77579,2,0,L|256:128,16,35
256,192,79216,1,4,0:0:0:0:
256,192,79761,1,8,0:0:0:0:
256,192,80488,1,0,0:0:0:0:
256,192,82125,1,0,0:0:0:0:
256,192,82397,1,0,0:0:0:0:
256,192,82670,1,8,0:0:0:0:
256,192,83397,2,0,L|256:128,16,35
256,192,85034,1,4,0:0:0:0:
256,192,85579,1,8,0:0:0:0:
256,192,86307,1,0,0:0:0:0:
256,192,86670,1,0,0:0:0:0:
256,192,86943,1,0,0:0:0:0:
256,192,87216,1,0,0:0:0:0:
256,192,87488,1,0,0:0:0:0:
256,192,87761,1,8,0:0:0:0:
256,192,87943,1,0,0:0:0:0:
256,192,88216,1,0,0:0:0:0:
256,192,88488,1,12,0:0:0:0:
256,192,88852,1,0,0:0:0:0:
256,192,89216,2,0,L|256:128,16,35
256,192,90852,1,4,0:0:0:0:
256,192,91397,1,12,0:0:0:0:
256,192,92125,1,0,0:0:0:0:
256,192,92852,1,8,0:0:0:0:
256,192,93307,1,0,0:0:0:0:
256,192,93488,1,0,0:0:0:0:
256,192,93761,1,0,0:0:0:0:
256,192,94034,1,0,0:0:0:0:
256,192,94307,1,12,0:0:0:0:
256,192,95034,2,0,L|256:128,16,35
256,192,96670,1,4,0:0:0:0:
256,192,97216,1,12,0:0:0:0:
256,192,97579,1,0,0:0:0:0:
256,192,97943,1,0,0:0:0:0:
256,192,98488,1,0,0:0:0:0:
256,192,99216,1,0,0:0:0:0:
256,192,99579,1,0,0:0:0:0:
256,192,99943,1,0,0:0:0:0:
256,192,100125,1,8,0:0:0:0:
256,192,100307,1,0,0:0:0:0:
256,192,100852,2,0,L|256:128,16,35
256,192,102488,1,4,0:0:0:0:
256,192,103034,1,12,0:0:0:0:
256,192,103761,12,0,105034,0:0:0:0:
256,192,105216,5,8,0:0:0:0:
256,192,105397,1,0,0:0:0:0:
256,192,105670,1,0,0:0:0:0:
256,192,105943,1,12,0:0:0:0:
256,192,106670,2,0,L|256:128,16,35
256,192,108307,1,4,0:0:0:0:
256,192,108852,1,12,0:0:0:0:
256,192,109216,1,8,0:0:0:0:
256,192,109579,12,0,111034,0:0:0:0:
256,192,111216,5,0,0:0:0:0:
256,192,111488,1,0,0:0:0:0:
256,192,111761,1,12,0:0:0:0:
256,192,112488,1,4,0:0:0:0:
256,192,112852,1,8,0:0:0:0:
256,192,113034,1,0,0:0:0:0:
256,192,113216,1,8,0:0:0:0:
256,192,113579,1,8,0:0:0:0:
256,192,113943,1,0,0:0:0:0:
256,192,114307,1,8,0:0:0:0:
256,192,114488,1,0,0:0:0:0:
256,192,114670,1,8,0:0:0:0:
256,192,115034,1,8,0:0:0:0:
256,192,115397,1,0,0:0:0:0:
256,192,115761,1,8,0:0:0:0:
256,192,115943,1,0,0:0:0:0:
256,192,116125,1,8,0:0:0:0:
256,192,116488,1,8,0:0:0:0:
256,192,117125,1,0,0:0:0:0:
256,192,117397,1,0,0:0:0:0:
256,192,117579,1,8,0:0:0:0:
256,192,117761,1,0,0:0:0:0:
256,192,118034,1,0,0:0:0:0:
256,192,118307,1,0,0:0:0:0:
256,192,118670,1,8,0:0:0:0:
256,192,118852,1,0,0:0:0:0:
256,192,119034,1,8,0:0:0:0:
256,192,119397,1,8,0:0:0:0:
256,192,120307,1,0,0:0:0:0:
256,192,120488,1,8,0:0:0:0:
256,192,120852,1,8,0:0:0:0:
256,192,121216,1,0,0:0:0:0:
256,192,121579,1,8,0:0:0:0:
256,192,121761,1,0,0:0:0:0:
256,192,121943,1,8,0:0:0:0:
256,192,122307,1,8,0:0:0:0:
256,192,122488,1,0,0:0:0:0:
256,192,123125,1,4,0:0:0:0:
256,192,123397,1,4,0:0:0:0:
256,192,123670,1,4,0:0:0:0:
256,192,123943,1,12,0:0:0:0:
256,192,124125,1,4,0:0:0:0:
256,192,132852,5,4,0:0:0:0:
256,192,134307,1,4,0:0:0:0:
256,192,135761,12,0,149943,0:0:0:0:
256,192,150307,5,0,0:0:0:0:
256,192,150852,1,8,0:0:0:0:
256,192,151397,1,0,0:0:0:0:
256,192,151943,1,8,0:0:0:0:
256,192,152488,1,0,0:0:0:0:
256,192,152852,1,8,0:0:0:0:
256,192,153216,1,0,0:0:0:0:
256,192,154307,1,0,0:0:0:0:
256,192,154488,1,8,0:0:0:0:
256,192,154670,1,0,0:0:0:0:
256,192,155397,1,8,0:0:0:0:
256,192,156125,1,12,0:0:0:0:
256,192,158670,5,0,0:0:0:0:
256,192,159034,1,12,0:0:0:0:
256,192,161216,1,8,0:0:0:0:
256,192,161579,1,0,0:0:0:0:
256,192,161943,5,0,0:0:0:0:
256,192,162488,1,8,0:0:0:0:
256,192,163034,1,0,0:0:0:0:
256,192,163579,1,8,0:0:0:0:
256,192,164125,1,8,0:0:0:0:
256,192,164307,1,8,0:0:0:0:
256,192,164488,1,0,0:0:0:0:
256,192,164670,1,0,0:0:0:0:
256,192,164852,1,0,0:0:0:0:
256,192,165943,1,8,0:0:0:0:
256,192,166125,1,0,0:0:0:0:
256,192,167034,1,8,0:0:0:0:
256,192,167397,1,8,0:0:0:0:
256,192,167761,1,0,0:0:0:0:
256,192,168307,1,8,0:0:0:0:
256,192,168852,1,0,0:0:0:0:
256,192,169397,1,8,0:0:0:0:
256,192,169943,1,8,0:0:0:0:
256,192,170307,1,8,0:0:0:0:
256,192,170670,1,0,0:0:0:0:
256,192,171943,1,0,0:0:0:0:
256,192,172125,1,8,0:0:0:0:
256,192,172307,1,8,0:0:0:0:
256,192,172488,1,0,0:0:0:0:
256,192,172670,1,8,0:0:0:0:
256,192,172852,1,8,0:0:0:0:
256,192,173034,1,8,0:0:0:0:
256,192,173216,1,8,0:0:0:0:
256,192,173397,1,8,0:0:0:0:
256,192,173579,1,4,0:0:0:0:
256,192,173943,1,8,0:0:0:0:
256,192,174488,1,0,0:0:0:0:
256,192,174670,1,8,0:0:0:0:
256,192,174852,1,0,0:0:0:0:
256,192,175034,1,0,0:0:0:0:
256,192,175397,1,8,0:0:0:0:
256,192,175943,1,0,0:0:0:0:
256,192,176125,1,8,0:0:0:0:
256,192,176488,1,0,0:0:0:0:
256,192,176852,1,8,0:0:0:0:
256,192,177216,1,8,0:0:0:0:
256,192,177397,1,0,0:0:0:0:
256,192,177579,1,8,0:0:0:0:
256,192,177943,1,0,0:0:0:0:
256,192,178307,1,8,0:0:0:0:
256,192,178579,1,0,0:0:0:0:
256,192,178852,1,0,0:0:0:0:
256,192,179034,1,8,0:0:0:0:
256,192,179397,1,0,0:0:0:0:
256,192,179761,1,8,0:0:0:0:
256,192,180216,1,0,0:0:0:0:
256,192,180307,1,0,0:0:0:0:
256,192,180488,1,8,0:0:0:0:
256,192,180670,1,8,0:0:0:0:
256,192,180852,1,0,0:0:0:0:
256,192,181216,1,8,0:0:0:0:
256,192,181670,1,0,0:0:0:0:
256,192,181761,1,0,0:0:0:0:
256,192,181943,1,8,0:0:0:0:
256,192,182307,1,0,0:0:0:0:
256,192,182670,1,8,0:0:0:0:
256,192,183125,1,0,0:0:0:0:
256,192,183216,1,0,0:0:0:0:
256,192,183397,1,8,0:0:0:0:
256,192,183579,1,8,0:0:0:0:
256,192,183761,1,0,0:0:0:0:
256,192,184125,1,8,0:0:0:0:
256,192,184397,1,0,0:0:0:0:
256,192,184670,1,0,0:0:0:0:
256,192,184852,1,8,0:0:0:0:
256,192,185034,1,8,0:0:0:0:
256,192,185125,1,8,0:0:0:0:
256,192,185216,1,0,0:0:0:0:
256,192,185579,1,8,0:0:0:0:
256,192,186125,1,0,0:0:0:0:
256,192,186307,1,8,0:0:0:0:
256,192,186488,1,0,0:0:0:0:
256,192,186670,1,0,0:0:0:0:
256,192,186852,1,8,0:0:0:0:
256,192,187034,1,8,0:0:0:0:
256,192,187579,1,0,0:0:0:0:
256,192,187761,1,8,0:0:0:0:
256,192,188125,1,0,0:0:0:0:
256,192,188488,1,8,0:0:0:0:
256,192,188761,1,8,0:0:0:0:
256,192,189034,1,0,0:0:0:0:
256,192,189216,1,8,0:0:0:0:
256,192,189579,1,0,0:0:0:0:
256,192,189943,1,8,0:0:0:0:
256,192,190216,1,8,0:0:0:0:
256,192,190488,1,0,0:0:0:0:
256,192,190670,1,8,0:0:0:0:
256,192,190852,1,8,0:0:0:0:
256,192,191034,1,0,0:0:0:0:
256,192,191397,1,8,0:0:0:0:
256,192,191943,1,0,0:0:0:0:
256,192,192125,1,8,0:0:0:0:
256,192,192488,1,0,0:0:0:0:
256,192,192852,1,8,0:0:0:0:
256,192,193397,1,0,0:0:0:0:
256,192,193579,1,8,0:0:0:0:
256,192,193943,1,0,0:0:0:0:
256,192,194307,1,8,0:0:0:0:
256,192,194670,1,8,0:0:0:0:
256,192,194852,1,0,0:0:0:0:
256,192,195034,1,8,0:0:0:0:
256,192,195397,1,0,0:0:0:0:
256,192,195761,1,8,0:0:0:0:
256,192,196125,1,0,0:0:0:0:
256,192,196307,1,0,0:0:0:0:
256,192,196488,1,8,0:0:0:0:
256,192,196670,1,8,0:0:0:0:
256,192,196761,1,8,0:0:0:0:
256,192,196852,1,0,0:0:0:0:
256,192,197216,1,8,0:0:0:0:
256,192,197761,1,0,0:0:0:0:
256,192,197943,2,0,L|256:128,4,43.75
256,192,198670,1,8,0:0:0:0:
256,192,199216,1,0,0:0:0:0:
256,192,199397,2,0,L|256:128,4,43.75
256,192,200125,1,8,0:0:0:0:
256,192,200670,1,0,0:0:0:0:
256,192,200852,1,8,0:0:0:0:
256,192,201034,1,0,0:0:0:0:
256,192,201216,1,0,0:0:0:0:
256,192,201579,1,8,0:0:0:0:
256,192,201670,1,0,0:0:0:0:
256,192,201761,1,0,0:0:0:0:
256,192,201943,1,8,0:0:0:0:
256,192,202125,1,8,0:0:0:0:
256,192,202307,1,8,0:0:0:0:
256,192,202488,1,8,0:0:0:0:
256,192,202670,1,0,0:0:0:0:
256,192,203034,1,8,0:0:0:0:
256,192,203579,1,0,0:0:0:0:
256,192,203761,2,0,L|256:128,4,43.75
256,192,204488,1,8,0:0:0:0:
256,192,205034,1,0,0:0:0:0:
256,192,205216,2,0,L|256:128,4,43.75
256,192,205943,1,8,0:0:0:0:
256,192,206488,1,0,0:0:0:0:
256,192,206670,1,8,0:0:0:0:
256,192,207034,1,0,0:0:0:0:
256,192,207397,1,8,0:0:0:0:
256,192,207670,1,0,0:0:0:0:
256,192,207943,1,0,0:0:0:0:
256,192,208125,1,8,0:0:0:0:
256,192,208216,1,0,0:0:0:0:
256,192,208307,1,0,0:0:0:0:
256,192,208488,1,0,0:0:0:0:
256,192,208852,1,8,0:0:0:0:
256,192,209034,1,0,0:0:0:0:
256,192,209397,1,0,0:0:0:0:
256,192,209579,2,0,L|256:128,4,43.75
256,192,210307,1,8,0:0:0:0:
256,192,210488,1,0,0:0:0:0:
256,192,210852,1,0,0:0:0:0:
256,192,211034,2,0,L|256:128,4,43.75
256,192,211761,1,8,0:0:0:0:
256,192,212307,1,0,0:0:0:0:
256,192,212488,1,8,0:0:0:0:
256,192,212670,1,8,0:0:0:0:
256,192,212852,1,0,0:0:0:0:
256,192,213216,1,8,0:0:0:0:
256,192,213488,1,0,0:0:0:0:
256,192,213670,1,8,0:0:0:0:
256,192,213761,1,0,0:0:0:0:
256,192,213943,1,8,0:0:0:0:
256,192,214307,1,0,0:0:0:0:
256,192,214670,1,8,0:0:0:0:
256,192,215034,1,8,0:0:0:0:
256,192,215216,1,0,0:0:0:0:
256,192,215397,1,8,0:0:0:0:
256,192,215579,1,8,0:0:0:0:
256,192,215761,1,0,0:0:0:0:
256,192,216125,1,8,0:0:0:0:
256,192,216488,1,8,0:0:0:0:
256,192,216670,1,0,0:0:0:0:
256,192,216852,1,8,0:0:0:0:
256,192,217034,1,0,0:0:0:0:
256,192,217216,1,0,0:0:0:0:
256,192,217579,1,8,0:0:0:0:
256,192,218034,1,8,0:0:0:0:
256,192,218125,1,0,0:0:0:0:
256,192,218307,1,8,0:0:0:0:
256,192,218670,1,0,0:0:0:0:
256,192,218852,1,0,0:0:0:0:
256,192,219034,1,8,0:0:0:0:
256,192,219216,1,0,0:0:0:0:
256,192,219307,1,0,0:0:0:0:
256,192,219397,1,0,0:0:0:0:
256,192,219579,1,0,0:0:0:0:
256,192,219761,1,8,0:0:0:0:
256,192,219943,1,8,0:0:0:0:
256,192,220125,1,4,0:0:0:0:
256,192,220488,1,8,0:0:0:0:
256,192,220670,1,0,0:0:0:0:
256,192,221579,1,0,0:0:0:0:
256,192,222488,1,0,0:0:0:0:
256,192,222670,1,8,0:0:0:0:
256,192,222761,1,0,0:0:0:0:
256,192,223034,1,4,0:0:0:0:
256,192,223397,1,8,0:0:0:0:
256,192,223943,1,0,0:0:0:0:
256,192,224216,1,0,0:0:0:0:
256,192,224488,1,0,0:0:0:0:
256,192,225034,1,0,0:0:0:0:
256,192,225216,1,8,0:0:0:0:
256,192,225488,1,8,0:0:0:0:
256,192,225761,1,8,0:0:0:0:
256,192,225852,1,8,0:0:0:0:
256,192,225943,1,0,0:0:0:0:
256,192,226307,1,8,0:0:0:0:
256,192,226488,1,0,0:0:0:0:
256,192,227397,1,0,0:0:0:0:
256,192,227761,1,8,0:0:0:0:
256,192,228125,2,0,L|256:128,7,35
256,192,229216,1,12,0:0:0:0:
256,192,229579,12,0,231579,0:0:0:0:
256,192,231761,5,4,0:0:0:0:
256,192,232125,1,8,0:0:0:0:
256,192,232307,1,0,0:0:0:0:
256,192,232670,1,0,0:0:0:0:
256,192,233034,1,0,0:0:0:0:
256,192,233216,1,0,0:0:0:0:
256,192,233579,1,8,0:0:0:0:
256,192,234125,1,0,0:0:0:0:
256,192,234307,1,8,0:0:0:0:
256,192,234670,1,0,0:0:0:0:
256,192,235034,1,8,0:0:0:0:
256,192,235216,1,0,0:0:0:0:
256,192,235579,1,0,0:0:0:0:
256,192,235761,1,0,0:0:0:0:
256,192,236125,1,0,0:0:0:0:
256,192,236397,1,0,0:0:0:0:
256,192,236670,1,0,0:0:0:0:
256,192,236852,1,8,0:0:0:0:
256,192,237125,1,8,0:0:0:0:
256,192,237397,1,8,0:0:0:0:
256,192,237579,1,4,0:0:0:0:
256,192,237943,1,8,0:0:0:0:
256,192,238125,1,0,0:0:0:0:
256,192,239034,1,0,0:0:0:0:
256,192,239397,1,8,0:0:0:0:
256,192,239761,1,8,0:0:0:0:
256,192,239882,1,8,0:0:0:0:
256,192,240003,1,8,0:0:0:0:
256,192,240125,1,8,0:0:0:0:
256,192,240246,1,8,0:0:0:0:
256,192,240367,1,8,0:0:0:0:
256,192,240488,1,0,0:0:0:0:
256,192,240852,1,8,0:0:0:0:
256,192,241034,1,8,0:0:0:0:
256,192,241216,1,0,0:0:0:0:
256,192,241579,1,0,0:0:0:0:
256,192,241943,12,0,243216,0:0:0:0:
256,192,243397,5,0,0:0:0:0:
256,192,243761,1,8,0:0:0:0:
256,192,243943,1,0,0:0:0:0:
256,192,244852,1,0,0:0:0:0:
256,192,245761,1,0,0:0:0:0:
256,192,245943,1,8,0:0:0:0:
256,192,246034,1,0,0:0:0:0:
256,192,246307,1,0,0:0:0:0:
256,192,247761,1,0,0:0:0:0:
256,192,247852,1,0,0:0:0:0:
256,192,248125,1,0,0:0:0:0:
256,192,248397,1,0,0:0:0:0:
256,192,248488,1,8,0:0:0:0:
256,192,248761,1,8,0:0:0:0:
256,192,249034,1,8,0:0:0:0:
256,192,249216,1,0,0:0:0:0:
256,192,249761,1,0,0:0:0:0:
256,192,250670,1,0,0:0:0:0:
256,192,252125,1,8,0:0:0:0:
256,192,253579,1,8,0:0:0:0:
