osu file format v14

[General]
AudioFilename: Cytus The Silence - sta.mp3
AudioLeadIn: 0
PreviewTime: 170692
Countdown: 0
SampleSet: Normal
StackLeniency: 0.7
Mode: 1
LetterboxInBreaks: 0
WidescreenStoryboard: 0

[Editor]
DistanceSpacing: 1.7
BeatDivisor: 2
GridSize: 32
TimelineZoom: 1.2

[Metadata]
Title:The Silence (extended mix)
TitleUnicode:The Silence (extended mix)
Artist:Sta
ArtistUnicode:Sta
Creator:bananannian
Version:Kantan
Source:Cytus
Tags:ignis cytus rayark
BeatmapID:648126
BeatmapSetID:287006

[Difficulty]
HPDrainRate:2
CircleSize:5
OverallDifficulty:3
ApproachRate:5
SliderMultiplier:1.4
SliderTickRate:1

[Events]
//Background and Video events
0,0,"1-7.jpg",0,0
//Break Periods
2,124347,131652
2,156347,160016
//Storyboard Layer 0 (Background)
//Storyboard Layer 1 (Fail)
//Storyboard Layer 2 (Pass)
//Storyboard Layer 3 (Foreground)
//Storyboard Sound Samples

[TimingPoints]
6307,363.636363636364,4,1,0,50,1,0
7670,-100,4,1,0,100,0,0
7852,-100,4,1,0,50,0,0
19306,-100,4,1,0,100,0,0
19488,-100,4,1,0,50,0,0
30943,-100,4,1,0,100,0,0
31125,-100,4,1,0,50,0,0
36852,-100,4,1,0,60,0,0
38307,-100,4,1,0,75,0,0
39761,-100,4,1,0,90,0,0
41216,-100,4,1,0,100,0,0
42761,-100,4,1,0,40,0,0
48488,-100,4,1,0,50,0,0
51397,-100,4,1,0,60,0,0
54307,-100,4,1,0,70,0,0
57216,-100,4,1,0,80,0,0
60125,-100,4,1,0,90,0,0
63034,-100,4,1,0,100,0,0
66034,-100,4,1,0,50,0,0
71670,-100,4,1,0,100,0,0
73307,-100,4,1,0,50,0,0
77488,-100,4,1,0,100,0,0
79125,-100,4,1,0,50,0,0
83307,-100,4,1,0,100,0,0
84943,-100,4,1,0,50,0,0
89125,-100,4,1,0,100,0,0
90761,-100,4,1,0,70,0,0
94943,-100,4,1,0,100,0,0
96579,-100,4,1,0,70,0,0
100761,-100,4,1,0,100,0,0
102397,-100,4,1,0,70,0,0
106579,-100,4,1,0,100,0,0
108216,-100,4,1,0,70,0,0
112579,-100,4,1,0,30,0,0
113943,-100,4,1,0,40,0,0
115397,-100,4,1,0,50,0,0
116852,-100,4,1,0,60,0,0
118307,-100,4,1,0,70,0,0
119761,-100,4,1,0,80,0,0
121216,-100,4,1,0,90,0,0
122670,-100,4,1,0,100,0,0
150307,-100,4,2,0,40,0,0
172125,-100,4,1,0,40,0,0
172488,-100,4,1,0,55,0,0
172852,-100,4,1,0,70,0,0
173216,-100,4,1,0,85,0,0
173579,-100,4,1,0,100,0,1
220125,-100,4,1,0,100,0,0
231761,-100,4,1,0,90,0,0
234670,-100,4,1,0,80,0,0
237579,-100,4,1,0,70,0,0
240488,-100,4,1,0,60,0,0
243397,-100,4,1,0,50,0,0
246307,-100,4,1,0,40,0,0
249216,-100,4,1,0,30,0,0
252125,-100,4,1,0,20,0,0

[HitObjects]
256,192,6307,12,0,7397,0:0:0:0:
256,192,7761,5,4,0:0:0:0:
256,192,10670,1,0,0:0:0:0:
256,192,12125,1,0,0:0:0:0:
256,192,13579,1,0,0:0:0:0:
256,192,14125,1,0,0:0:0:0:
256,192,16488,1,12,0:0:0:0:
256,192,19397,1,4,0:0:0:0:
256,192,20125,1,8,0:0:0:0:
256,192,21579,1,8,0:0:0:0:
256,192,22307,1,0,0:0:0:0:
256,192,23034,1,8,0:0:0:0:
256,192,23761,1,0,0:0:0:0:
256,192,24488,1,8,0:0:0:0:
256,192,24852,1,8,0:0:0:0:
256,192,25216,1,0,0:0:0:0:
256,192,25943,1,8,0:0:0:0:
256,192,26670,1,0,0:0:0:0:
256,192,27397,1,8,0:0:0:0:
256,192,28125,1,0,0:0:0:0:
256,192,28852,1,0,0:0:0:0:
256,192,29579,1,8,0:0:0:0:
256,192,29943,1,0,0:0:0:0:
256,192,30307,1,8,0:0:0:0:
256,192,30670,1,8,0:0:0:0:
256,192,31034,1,4,0:0:0:0:
256,192,32488,1,0,0:0:0:0:
256,192,33943,1,0,0:0:0:0:
256,192,35397,1,0,0:0:0:0:
256,192,36125,1,0,0:0:0:0:
256,192,36852,1,0,0:0:0:0:
256,192,37579,1,8,0:0:0:0:
256,192,38307,1,0,0:0:0:0:
256,192,39034,1,8,0:0:0:0:
256,192,39761,1,0,0:0:0:0:
256,192,40488,1,8,0:0:0:0:
256,192,40852,1,8,0:0:0:0:
256,192,41579,1,0,0:0:0:0:
256,192,41943,1,8,0:0:0:0:
256,192,42307,1,8,0:0:0:0:
256,192,42670,1,0,0:0:0:0:
256,192,44125,1,0,0:0:0:0:
256,192,44852,1,8,0:0:0:0:
256,192,45579,1,0,0:0:0:0:
256,192,47034,1,0,0:0:0:0:
256,192,47761,1,8,0:0:0:0:
256,192,48488,1,0,0:0:0:0:
256,192,49943,1,0,0:0:0:0:
256,192,50307,1,8,0:0:0:0:
256,192,51034,1,8,0:0:0:0:
256,192,51397,1,0,0:0:0:0:
256,192,52852,1,8,0:0:0:0:
256,192,53216,1,0,0:0:0:0:
256,192,53943,1,8,0:0:0:0:
256,192,54307,1,0,0:0:0:0:
256,192,55034,1,0,0:0:0:0:
256,192,55397,1,12,0:0:0:0:
256,192,56488,1,8,0:0:0:0:
256,192,57216,1,0,0:0:0:0:
256,192,58670,1,0,0:0:0:0:
256,192,59034,1,8,0:0:0:0:
256,192,59761,1,8,0:0:0:0:
256,192,60125,1,0,0:0:0:0:
256,192,60852,1,0,0:0:0:0:
256,192,61216,1,12,0:0:0:0:
256,192,62307,1,8,0:0:0:0:
256,192,63034,1,0,0:0:0:0:
256,192,63761,1,0,0:0:0:0:
256,192,64125,1,8,0:0:0:0:
256,192,64852,1,0,0:0:0:0:
256,192,65216,1,8,0:0:0:0:
256,192,65579,1,8,0:0:0:0:
256,192,65943,1,4,0:0:0:0:
256,192,68125,1,8,0:0:0:0:
256,192,68852,1,0,0:0:0:0:
256,192,71034,1,12,0:0:0:0:
256,192,71761,12,0,73216,0:0:0:0:
256,192,73943,5,8,0:0:0:0:
256,192,74307,1,0,0:0:0:0:
256,192,74670,1,0,0:0:0:0:
256,192,76852,1,12,0:0:0:0:
256,192,77579,12,0,79034,0:0:0:0:
256,192,79761,5,8,0:0:0:0:
256,192,80488,1,0,0:0:0:0:
256,192,82670,1,12,0:0:0:0:
256,192,83397,12,0,84852,0:0:0:0:
256,192,85579,5,8,0:0:0:0:
256,192,86307,1,0,0:0:0:0:
256,192,87761,1,8,0:0:0:0:
256,192,88488,1,12,0:0:0:0:
256,192,88852,1,0,0:0:0:0:
256,192,89216,12,0,90670,0:0:0:0:
256,192,91397,5,12,0:0:0:0:
256,192,92125,1,0,0:0:0:0:
256,192,94307,1,12,0:0:0:0:
256,192,95034,12,0,96488,0:0:0:0:
256,192,97216,5,12,0:0:0:0:
256,192,97579,1,0,0:0:0:0:
256,192,97943,1,0,0:0:0:0:
256,192,100125,1,12,0:0:0:0:
256,192,100852,12,0,102307,0:0:0:0:
256,192,103034,5,12,0:0:0:0:
256,192,103397,1,4,0:0:0:0:
256,192,103761,12,0,105216,0:0:0:0:
256,192,105943,5,12,0:0:0:0:
256,192,106670,12,0,108125,0:0:0:0:
256,192,108852,5,12,0:0:0:0:
256,192,109216,1,4,0:0:0:0:
256,192,109579,12,0,112125,0:0:0:0:
256,192,112488,5,4,0:0:0:0:
256,192,113034,1,0,0:0:0:0:
256,192,113943,1,0,0:0:0:0:
256,192,114488,1,0,0:0:0:0:
256,192,115397,1,0,0:0:0:0:
256,192,115943,1,0,0:0:0:0:
256,192,116852,1,0,0:0:0:0:
256,192,117579,1,0,0:0:0:0:
256,192,118307,1,0,0:0:0:0:
256,192,119034,1,8,0:0:0:0:
256,192,119761,1,8,0:0:0:0:
256,192,120488,1,8,0:0:0:0:
256,192,120852,1,8,0:0:0:0:
256,192,121216,1,0,0:0:0:0:
256,192,121943,1,8,0:0:0:0:
256,192,122307,1,8,0:0:0:0:
256,192,123397,1,4,0:0:0:0:
256,192,123761,1,12,0:0:0:0:
256,192,124125,1,4,0:0:0:0:
256,192,132852,5,4,0:0:0:0:
256,192,134307,1,4,0:0:0:0:
256,192,135761,12,0,149943,0:0:0:0:
256,192,150307,5,0,0:0:0:0:
256,192,151397,1,8,0:0:0:0:
256,192,152488,1,8,0:0:0:0:
256,192,153216,1,0,0:0:0:0:
256,192,154307,1,0,0:0:0:0:
256,192,154670,1,0,0:0:0:0:
256,192,155397,1,8,0:0:0:0:
256,192,156125,1,12,0:0:0:0:
256,192,161216,5,8,0:0:0:0:
256,192,161943,5,0,0:0:0:0:
256,192,163034,1,8,0:0:0:0:
256,192,164125,1,8,0:0:0:0:
256,192,164488,1,0,0:0:0:0:
256,192,164852,1,0,0:0:0:0:
256,192,165943,1,8,0:0:0:0:
256,192,167034,1,8,0:0:0:0:
256,192,167397,1,8,0:0:0:0:
256,192,167761,1,0,0:0:0:0:
256,192,168852,1,0,0:0:0:0:
256,192,169943,1,8,0:0:0:0:
256,192,170670,1,0,0:0:0:0:
256,192,171761,1,0,0:0:0:0:
256,192,172125,1,8,0:0:0:0:
256,192,172488,1,0,0:0:0:0:
256,192,172852,1,8,0:0:0:0:
256,192,173216,1,8,0:0:0:0:
256,192,173579,1,4,0:0:0:0:
256,192,174307,1,0,0:0:0:0:
256,192,175034,1,0,0:0:0:0:
256,192,175397,1,8,0:0:0:0:
256,192,176125,1,8,0:0:0:0:
256,192,176488,1,0,0:0:0:0:
256,192,177216,1,0,0:0:0:0:
256,192,177943,1,0,0:0:0:0:
256,192,178670,1,8,0:0:0:0:
256,192,179034,1,8,0:0:0:0:
256,192,179397,1,0,0:0:0:0:
256,192,180125,1,0,0:0:0:0:
256,192,180852,1,0,0:0:0:0:
256,192,181216,1,8,0:0:0:0:
256,192,181943,1,8,0:0:0:0:
256,192,182307,1,0,0:0:0:0:
256,192,183034,1,0,0:0:0:0:
256,192,183761,1,0,0:0:0:0:
256,192,184488,1,8,0:0:0:0:
256,192,184852,1,8,0:0:0:0:
256,192,185216,1,0,0:0:0:0:
256,192,185579,1,8,0:0:0:0:
256,192,186307,1,8,0:0:0:0:
256,192,186670,1,0,0:0:0:0:
256,192,187397,1,0,0:0:0:0:
256,192,188125,1,0,0:0:0:0:
256,192,188488,1,8,0:0:0:0:
256,192,189216,1,8,0:0:0:0:
256,192,189579,1,0,0:0:0:0:
256,192,190307,1,8,0:0:0:0:
256,192,191034,1,0,0:0:0:0:
256,192,191397,1,8,0:0:0:0:
256,192,192125,1,8,0:0:0:0:
256,192,192488,1,0,0:0:0:0:
256,192,193216,1,0,0:0:0:0:
256,192,193943,1,0,0:0:0:0:
256,192,194670,1,0,0:0:0:0:
256,192,195034,1,0,0:0:0:0:
256,192,195397,1,8,0:0:0:0:
256,192,196125,1,8,0:0:0:0:
256,192,196488,1,8,0:0:0:0:
256,192,196852,1,0,0:0:0:0:
256,192,197216,1,8,0:0:0:0:
256,192,197943,1,8,0:0:0:0:
256,192,198307,1,0,0:0:0:0:
256,192,198670,1,8,0:0:0:0:
256,192,199397,1,8,0:0:0:0:
256,192,199761,1,0,0:0:0:0:
256,192,200125,1,8,0:0:0:0:
256,192,200852,1,0,0:0:0:0:
256,192,201216,1,0,0:0:0:0:
256,192,201943,1,8,0:0:0:0:
256,192,202670,1,0,0:0:0:0:
256,192,203034,1,8,0:0:0:0:
256,192,203761,1,8,0:0:0:0:
256,192,204125,1,0,0:0:0:0:
256,192,204488,1,8,0:0:0:0:
256,192,205216,1,8,0:0:0:0:
256,192,205579,1,0,0:0:0:0:
256,192,205943,1,8,0:0:0:0:
256,192,206670,1,0,0:0:0:0:
256,192,207034,1,0,0:0:0:0:
256,192,207761,1,0,0:0:0:0:
256,192,208488,1,0,0:0:0:0:
256,192,209216,1,0,0:0:0:0:
256,192,209579,1,8,0:0:0:0:
256,192,209943,1,0,0:0:0:0:
256,192,210670,1,0,0:0:0:0:
256,192,211034,1,8,0:0:0:0:
256,192,211397,1,0,0:0:0:0:
256,192,212125,1,0,0:0:0:0:
256,192,212488,1,8,0:0:0:0:
256,192,212852,1,0,0:0:0:0:
256,192,213216,1,8,0:0:0:0:
256,192,213943,1,8,0:0:0:0:
256,192,214307,1,0,0:0:0:0:
256,192,214670,1,8,0:0:0:0:
256,192,215397,1,8,0:0:0:0:
256,192,215761,1,0,0:0:0:0:
256,192,216125,1,8,0:0:0:0:
256,192,216852,1,8,0:0:0:0:
256,192,217216,1,0,0:0:0:0:
256,192,217943,1,0,0:0:0:0:
256,192,218307,1,8,0:0:0:0:
256,192,218670,1,0,0:0:0:0:
256,192,219034,1,8,0:0:0:0:
256,192,219397,1,8,0:0:0:0:
256,192,219761,1,8,0:0:0:0:
256,192,220125,1,4,0:0:0:0:
256,192,221579,1,0,0:0:0:0:
256,192,223034,1,4,0:0:0:0:
256,192,223761,1,8,0:0:0:0:
256,192,224488,1,0,0:0:0:0:
256,192,225216,1,8,0:0:0:0:
256,192,225943,1,0,0:0:0:0:
256,192,226488,1,0,0:0:0:0:
256,192,227397,1,0,0:0:0:0:
256,192,229216,1,12,0:0:0:0:
256,192,229579,12,0,231397,0:0:0:0:
256,192,231761,5,4,0:0:0:0:
256,192,232307,1,0,0:0:0:0:
256,192,233216,1,0,0:0:0:0:
256,192,234307,1,8,0:0:0:0:
256,192,234670,1,0,0:0:0:0:
256,192,235216,1,8,0:0:0:0:
256,192,236125,1,0,0:0:0:0:
256,192,236852,1,8,0:0:0:0:
256,192,237579,1,4,0:0:0:0:
256,192,237943,1,8,0:0:0:0:
256,192,238307,1,0,0:0:0:0:
256,192,239034,1,0,0:0:0:0:
256,192,239761,1,0,0:0:0:0:
256,192,240125,1,0,0:0:0:0:
256,192,240488,1,0,0:0:0:0:
256,192,240852,1,8,0:0:0:0:
256,192,241216,1,0,0:0:0:0:
256,192,241943,12,0,243034,0:0:0:0:
256,192,243397,5,0,0:0:0:0:
256,192,243761,1,8,0:0:0:0:
256,192,244852,1,0,0:0:0:0:
256,192,245943,1,8,0:0:0:0:
256,192,246307,1,0,0:0:0:0:
256,192,247761,1,0,0:0:0:0:
256,192,248125,1,0,0:0:0:0:
256,192,248488,1,8,0:0:0:0:
256,192,248852,1,8,0:0:0:0:
256,192,249216,1,0,0:0:0:0:
256,192,250670,1,0,0:0:0:0:
256,192,252125,1,8,0:0:0:0:
256,192,253579,1,8,0:0:0:0:
