osu file format v5

[General]
AudioFilename: 01 Hourglass.mp3
AudioLeadIn: 1004
PreviewTime: -1
Countdown: 1
SampleSet: Normal
StackLeniency: 0
Mode: 0
LetterboxInBreaks: 1
EditorBookmarks: 36509

[Metadata]
Title:Hourglass
Artist:Squeeze
Creator:Dranoel
Version:Hard
Source:
Tags:

[Difficulty]
HPDrainRate:6
CircleSize:5
OverallDifficulty:6
SliderMultiplier:1.4
SliderTickRate:1

[Events]
//Background and Video events
1,1210,"hourglass.avi"
//Break Periods
2,8108,22821
2,69102,83100
2,99599,113597
2,122482,128706
2,163928,170629
//Storyboard Layer 0 (Background)
//Storyboard Layer 1 (Failing)
//Storyboard Layer 2 (Passing)
//Storyboard Layer 3 (Foreground)
//Storyboard Sound Samples
//Background Colour Transformations
3,100,0,0,0

[TimingPoints]
4096,476.5164,4,1,0,43

[HitObjects]
109,137,536,2,6,B|133:84|182:42|254:35,1,140
209,44,1250,1,2
265,44,1489,1,0
321,44,1727,1,4
377,44,1965,5,2
433,44,2203,2,6,B|508:80|511:162,2,140
320,44,3633,1,2
263,46,3871,1,6
259,158,4334,6,2,B|206:198|271:234|358:276|192:298|285:361,1,210
268,346,5525,1,4
299,299,5763,1,2
333,254,6002,2,6,B|267:212|189:253,2,140
256,192,7193,12,6,7908
500,243,23871,5,2
475,294,24109,1,2
432,330,24347,1,2
380,350,24586,1,2
324,350,24824,6,4,B|247:343|202:283,1,140
160,321,25539,1,4
118,358,25777,2,4,B|36:331|50:228,1,140
40,193,26492,1,4
64,142,26730,6,2,B|104:94|147:176|198:125,1,140
332,43,27921,5,0
381,69,28160,1,0
420,108,28398,1,0
450,155,28636,1,0
452,211,28874,2,6,B|443:311|332:341,2,140
452,154,30066,6,2,B|403:101|381:208|316:132,1,140
153,287,31495,5,2
98,274,31733,1,2
52,240,31972,1,2
28,188,32210,1,2
25,131,32448,6,4,B|31:39|137:9,1,140
156,10,33163,1,4
212,5,33401,2,4,B|306:9|359:64,1,140
379,91,34116,1,4
403,141,34354,6,2,B|459:198|361:211|401:281,1,140
244,344,35546,5,4
317,301,35903,1,4
380,244,36260,1,4
415,204,36499,6,4,B|453:150|387:93,2,105
382,251,37452,6,4,B|346:306|413:362,2,105
414,204,38405,5,2
357,204,38643,1,4
301,205,38881,1,2
188,205,39358,1,2
75,204,39834,1,2
75,316,40311,5,2
131,318,40549,1,4
187,320,40787,1,2
299,318,41264,1,2
411,318,41740,1,2
414,204,42217,5,2
357,205,42455,1,4
301,205,42693,1,2
188,205,43170,1,2
75,204,43646,1,2
81,316,44123,5,2
137,319,44361,1,4
187,320,44599,1,2
299,318,45076,1,2
411,318,45552,1,2
503,254,46029,6,0,B|432:222|458:281|359:244,1,140
311,254,46744,1,4
255,255,46982,2,0,B|184:223|210:282|111:245,1,140
107,193,47697,5,4
95,137,47935,2,4,B|169:77|245:151,3,140
253,180,49603,5,2
286,224,49841,2,2,B|323:312|237:338,1,140
186,338,50556,1,2
129,338,50794,2,2,B|49:314|86:226,1,140
111,177,51509,6,2,B|175:99|272:179|331:110,1,210
272,85,52462,6,2,B|192:212,1,140
197,203,53177,1,4
197,203,53415,1,4
253,199,53653,6,6,B|311:110|376:226,1,140
306,103,54606,6,6,B|304:251,1,140
421,253,55559,6,6,B|375:197|344:294|281:217,1,140
325,338,56512,6,6,B|304:264|207:254,1,140
110,270,57465,6,0,B|52:334,2,70
113,157,58418,6,0,B|67:102,2,70
206,220,59371,6,0,B|166:255,7,35
206,220,60324,6,0,B|232:176|256:172|275:179|285:192|293:227|271:249|242:236,1,140
154,299,61277,6,0,B|134:279|121:304,4,35
266,299,62231,6,0,B|246:279|233:304,4,35
378,298,63184,6,0,B|358:278|345:303,4,35
490,298,64137,6,0,B|470:278|457:303,4,35
443,195,65090,6,0,B|392:160,1,35
414,175,65328,2,0,B|379:203,1,35
386,196,65566,1,0
273,192,66043,6,0,B|222:157,1,35
244,172,66281,2,0,B|209:200,1,35
216,193,66519,1,0
103,193,66996,6,0,B|49:152,1,35
75,171,67234,2,0,B|120:134|117:136,1,35
102,148,67472,2,0,B|64:107,1,35
78,122,67710,2,0,B|112:94,1,35
105,99,67949,2,0,B|145:62|164:180|201:69|261:124,1,140
257,192,68902,5,6
129,145,84150,5,2
97,192,84389,1,2
64,237,84627,1,6
176,239,85103,5,4
288,240,85580,1,4
348,145,86056,5,2
380,192,86295,1,2
413,237,86533,1,6
301,239,87009,5,4
189,240,87486,1,4
93,180,87962,5,2
65,229,88201,1,2
100,272,88439,1,2
212,275,88915,5,4
287,191,89392,1,4
399,186,89868,5,2
427,235,90107,1,2
392,278,90345,1,2
280,281,90821,5,4
205,197,91298,1,4
115,129,91775,6,4,B|75:106|112:47,2,70
178,157,92489,6,2,B|412:206|99:402|333:45|321:342,1,280
387,316,93681,6,4,B|427:339|390:398,2,70
318,302,94395,6,2,B|84:253|397:57|163:414|176:102,1,280
108,171,95587,6,0,B|59:175|51:133|86:94|161:90|412:67|229:154|186:224|116:255|-83:346|72:264|126:234|176:206|220:201|300:68|404:103|298:226|474:277|300:283|236:318|195:322|180:323|-70:403|177:288|231:241|288:245|440:259|418:268|426:289|395:318|516:435|335:338|341:321|340:292|280:130|498:24|533:337|508:256,1,980
493,350,99399,5,6
253,199,114647,6,6,B|311:110|376:226,1,140
306,103,115600,6,6,B|304:251,1,140
421,253,116553,6,6,B|375:197|344:294|281:217,1,140
325,338,117506,6,6,B|304:264|207:254,1,140
306,28,118459,6,0,B|251:27,4,35
302,140,119412,6,0,B|247:139,4,35
300,252,120366,6,0,B|245:251,7,35
265,251,121319,6,0,B|117:249,2,140
256,192,129896,5,0
204,171,130134,6,0,B|146:168|131:119,1,70
115,93,130611,1,0
130,39,130849,2,0,B|249:5|120:104|303:53,1,140
288,23,131564,1,0
399,25,132040,2,0,B|500:26|337:97|507:128,1,140
472,171,132755,2,0,B|382:142|402:240|269:139,1,210
256,193,133708,5,0
205,215,133946,6,0,B|170:196|176:250|114:224,1,70
185,265,134423,1,0
132,283,134661,2,0,B|171:370|184:291|282:361,1,140
303,337,135376,2,0,B|376:181|392:233|397:270|401:286|378:306|291:264|294:206,1,280
256,193,136567,5,0
255,248,136805,5,0
255,248,136924,1,0
255,248,137044,1,0
256,303,137282,1,0
256,303,137401,1,0
256,303,137520,5,2
200,305,137758,1,0
145,291,137997,1,2
97,260,138235,1,0
59,218,138473,1,2
48,163,138711,1,0
54,107,138950,1,2
88,63,139188,1,0
140,44,139426,1,2
195,47,139664,1,0
241,78,139903,1,2
258,131,140141,1,0
234,181,140379,1,2
189,215,140617,1,0
137,192,140856,1,2
122,137,141094,1,0
166,103,141332,5,6
275,128,141809,1,6
368,188,142285,1,6
440,273,142762,1,6
328,285,143238,1,6
221,249,143715,1,6
150,162,144191,1,6
134,51,144668,1,6
180,81,144906,6,0,B|247:134,3,70
279,158,145859,5,2
323,191,146097,1,2
415,254,146574,5,2
369,221,146812,1,2
278,155,147289,6,0,B|190:85,2,70
222,153,148003,1,0
165,151,148242,1,0
109,152,148480,1,0
48,57,148956,6,0,B|6:142|-1:182|4:211|24:239|62:252|114:251|334:75|52:243|42:266|43:309|55:326|109:336|180:339|380:386|144:50|496:199|157:51|15:359|264:367|319:373|371:333|383:319|388:295|380:272|418:148|95:158|173:352|438:270|422:172|409:152|381:113|369:103,1,700
256,192,151577,12,0,156104
9,191,156581,1,0
9,191,156700,1,0
9,191,156819,1,0
9,191,156938,1,0
9,191,157057,2,0,B|84:122|136:202,1,140
129,190,157653,5,0
129,190,157772,1,0
129,190,157891,1,0
129,190,158010,2,0,B|200:119|256:201,1,140
249,189,158606,5,0
249,189,158725,1,0
249,189,158844,1,0
249,189,158963,2,0,B|327:119|376:200,1,140
369,188,159559,5,0
369,188,159678,1,0
369,188,159797,1,0
369,188,159916,1,0
446,268,160393,5,0
446,268,160512,1,0
446,268,160631,1,0
446,268,160750,1,0
446,268,160869,2,0,B|371:337|319:257,1,140
326,269,161465,5,0
326,269,161584,1,0
326,269,161703,1,0
326,269,161822,2,0,B|255:340|199:258,1,140
206,270,162418,5,0
206,270,162537,1,0
206,270,162656,1,0
206,270,162775,2,0,B|128:340|79:259,1,140
86,271,163371,5,0
86,271,163490,1,0
86,271,163609,1,0
86,271,163728,1,0
323,117,171829,5,2
361,157,172068,1,2
397,199,172306,1,2
433,241,172544,2,2,B|443:324|341:346,1,140
267,199,173735,5,2
227,161,173974,1,2
185,125,174212,1,2
143,89,174450,2,2,B|59:87|36:164,1,140
110,298,175641,5,4
152,261,175880,1,4
196,226,176118,1,4
232,268,176356,1,4
270,308,176594,1,4
315,275,176833,1,4
358,239,177071,1,4
398,277,177309,1,4
440,313,177547,1,4
426,201,178024,6,4,B|362:138|281:159,3,140
256,192,179930,12,2,183980
