osu file format v5

[General]
AudioFilename: FF8 Intro Audio.mp3
AudioLeadIn: 0
PreviewTime: -1
Countdown: 1
SampleSet: Soft

[Metadata]
Title:FF8 Intro
Artist:Square-Enix
Creator:freezingicekirby
Version:Normal

[Difficulty]
HPDrainRate:6
CircleSize:5
OverallDifficulty:7
SliderMultiplier:1.4
SliderTickRate:2

[Events]
//Background and Video events
1,0,"FF8 intro 2.wmv"
//Break Periods
2,36028,47650
2,84189,88904
2,119083,131068
2,157793,162872
//Storyboard Layer 0 (Background)
//Storyboard Layer 1 (Failing)
//Storyboard Layer 2 (Passing)
//Storyboard Layer 3 (Foreground)
//Storyboard Sound Samples
//Background Colour Transformations
3,100,0,0,0

[TimingPoints]
23107,363.476515514985,4,2,0,100

[HitObjects]
256,192,24560,5,0
256,192,24742,1,0
256,192,24924,1,0
256,192,25106,1,0
256,192,25287,1,0
256,192,25469,1,0
256,192,25651,1,0
256,192,25833,1,0
256,192,26014,1,0
256,192,26196,1,0
256,288,26560,2,0,B|96:192|96:64|416:64,1,420
416,96,27832,1,0
448,128,28013,2,0,B|448:320|288:352|256:352,1,280
256,352,28922,1,0
256,288,29104,1,0
192,288,29467,1,0
128,224,29831,5,0
64,128,30740,1,0
224,64,31466,1,0
224,64,31648,1,0
224,64,31830,1,0
224,64,32012,1,0
224,64,32193,1,0
224,64,32375,1,0
320,64,32920,2,0,B|64:96|128:288|416:288,1,490
352,224,34738,1,0
352,224,35101,1,0
352,224,35465,1,0
352,224,35828,1,0
256,320,48732,6,0,B|96:192|96:96|224:64|352:64|448:160|416:224|320:288,2,560
320,320,51821,1,0
352,320,52185,1,0
256,192,53820,1,0
352,192,55092,1,0
352,192,55456,1,0
256,192,56183,6,0,B|352:64,5,140
256,192,58364,1,0
256,192,58545,1,0
256,192,58727,1,0
256,192,61635,5,0
160,192,62362,1,0
160,96,63089,1,0
192,96,63271,1,0
256,96,63998,1,0
352,96,64725,1,0
352,192,65452,1,0
352,288,66360,1,0
256,288,67087,1,0
224,288,67269,1,0
160,192,67996,5,0
160,128,68723,1,0
224,128,69450,1,0
256,128,69631,1,0
320,128,70358,1,0
320,224,71085,6,0,B|160:224,1,140
128,224,71812,1,0
96,192,72176,1,0
128,128,72721,1,0
192,128,73085,1,0
256,128,73448,1,0
256,128,73811,1,0
256,192,74175,2,0,B|256:320|64:320,2,210
256,192,75447,5,0
256,192,76174,1,0
256,192,76356,1,0
256,192,76538,1,0
256,192,76719,1,0
256,192,76901,1,0
256,192,77083,1,0
256,192,77628,12,0,83807
256,192,89804,1,0
256,192,89986,1,0
256,192,90168,1,0
96,224,90531,2,0,B|96:128,1,70
160,160,90895,1,0
416,160,91440,2,0,B|416:256,1,70
352,224,91804,1,0
256,192,93803,1,0
256,192,94166,2,0,B|256:96,2,70
256,192,95438,1,0
192,256,95620,1,0
128,256,95802,1,0
64,256,95984,1,0
64,192,96165,1,0
64,128,96347,1,0
64,64,96529,1,0
128,64,96710,1,0
192,64,97074,6,0,B|480:64|512:288|160:288|160:128|128:256|96:288,4,560
192,128,103253,1,0
192,192,103435,1,0
192,256,103617,1,0
256,192,104707,5,0
256,192,104889,1,0
224,160,105252,1,0
160,160,105616,1,0
96,128,105979,1,0
32,128,106343,2,0,B|32:320,3,140
128,256,107615,1,0
224,192,107978,1,0
320,160,108342,1,0
448,128,109432,6,0,B|448:288,2,140
384,128,110341,1,0
320,128,110523,1,0
256,128,111068,6,0,B|256:288,2,140
192,128,111977,1,0
128,128,112158,1,0
64,32,112703,6,0,B|416:32,1,280
352,96,113612,1,0
352,160,113794,1,0
352,224,114339,2,0,B|96:224,1,210
128,288,115066,1,0
128,352,115248,1,0
192,320,115793,6,0,B|416:320,2,210
192,320,117065,1,0
192,320,117247,1,0
256,256,117610,2,0,B|256:96,2,140
256,192,118883,1,0
256,192,119064,1,0
352,192,131968,5,0
288,192,132331,1,0
224,192,132695,1,0
224,192,132876,1,0
160,160,133240,1,0
128,96,133603,1,0
160,32,133967,1,0
224,32,134330,1,0
256,32,134512,1,0
288,32,134876,5,0
352,64,135057,1,0
384,128,135239,1,0
352,192,135421,1,0
288,224,135602,1,0
224,224,135966,2,0,B|224:384|32:384|32:96,1,420
96,64,137238,1,0
160,64,137602,2,0,B|448:64|339:239|339:239,1,280
288,256,138510,1,0
224,288,138692,1,0
160,288,139237,2,0,B|64:96,1,210
64,96,140328,5,0
96,64,141055,1,0
128,64,141236,1,0
160,64,141418,1,0
192,64,141600,1,0
224,64,141963,2,0,B|256:160,1,70
256,192,144689,5,0
256,192,145053,1,0
256,192,145416,1,0
128,192,145962,2,0,B|128:64,1,70
192,128,146507,2,0,B|192:224,1,70
256,192,147234,2,0,B|256:96,1,70
256,192,147961,2,0,B|256:320,1,70
256,320,149051,5,0
256,256,149233,1,0
256,192,149960,1,0
256,128,150687,1,0
256,64,151232,1,0
320,64,151595,1,0
384,128,151959,1,0
384,224,152322,1,0
288,224,152868,5,0
288,224,153231,1,0
256,160,153595,1,0
256,128,153958,1,0
256,128,154140,1,0
256,96,154322,1,0
256,32,154685,2,0,B|0:32|0:352|480:352,1,700
448,320,156866,1,0
416,288,157048,2,0,B|352:224,1,70
256,192,163954,5,0
256,192,164317,1,0
160,192,164862,1,0
160,192,165044,1,0
160,192,165226,1,0
352,192,165589,1,0
352,192,165953,1,0
256,192,166316,1,0
256,192,166498,1,0
256,192,166680,1,0
256,96,167225,1,0
256,96,167588,1,0
352,64,167952,2,0,B|160:224,1,210
192,320,168861,2,0,B|416:320|448:160,1,280
256,192,170133,12,0,175040
256,192,176857,1,0
256,192,177039,1,0
256,192,177221,1,0
256,192,177402,1,0
256,192,177584,1,0
256,192,177766,1,0
256,192,177947,1,0
256,192,178129,5,0
256,192,178311,1,0
256,192,178493,1,0
256,192,178674,1,0
256,192,178856,1,0
256,192,179038,1,0
256,192,179220,1,0
256,192,179401,1,0
256,192,179583,1,0
256,64,180128,2,0,B|256:352,3,280
256,192,182854,1,0
256,192,183036,1,0
256,192,183218,1,0
32,288,184854,2,0,B|32:64|32:64|192:64|192:64|64:64|64:64|64:192|64:192|128:192,1,700
192,288,187034,2,0,B|192:64|192:64|352:64|352:64|224:64|224:64|224:192|224:192|288:192,1,700
480,96,189215,2,0,B|384:0|288:32|288:160|416:160|512:224|512:320|448:352|320:352|320:352|288:288|320:224|320:192|512:128|544:32,1,910
