osu file format v14

[General]
AudioFilename: Squall Of Scream - Here(inst).mp3
AudioLeadIn: 0
PreviewTime: 19562
Countdown: 0
SampleSet: Normal
StackLeniency: 0.7
Mode: 1
LetterboxInBreaks: 0
WidescreenStoryboard: 0

[Editor]
DistanceSpacing: 1.2
BeatDivisor: 4
GridSize: 32
TimelineZoom: 2.1

[Metadata]
Title:Here(inst)
TitleUnicode:Here(inst)
Artist:Squall of Scream
ArtistUnicode:Squall of Scream
Creator:Gemu-
Version:Muzukashii
Source:東方Project
Tags:SOS I'll be right here Comic Market 91 Noof 東方アレンジ Touhou Arrange A.M.A Kaguya Houraisan Merodic Hardcore
BeatmapID:1456843
BeatmapSetID:688394

[Difficulty]
HPDrainRate:6
CircleSize:2
OverallDifficulty:4
ApproachRate:5
SliderMultiplier:1.4
SliderTickRate:1

[Events]
//Background and Video events
0,0,"Background.jpg",0,0
//Break Periods
//Storyboard Layer 0 (Background)
//Storyboard Layer 1 (Fail)
//Storyboard Layer 2 (Pass)
//Storyboard Layer 3 (Foreground)
//Storyboard Sound Samples

[TimingPoints]
5340,444.444444444444,4,1,0,80,1,0
48006,-100,4,1,0,80,0,1
55117,-100,4,1,0,80,0,0

[HitObjects]
256,192,5340,5,4,0:0:0:0:
256,192,6006,1,0,0:0:0:0:
256,192,6228,1,8,0:0:0:0:
256,192,6562,1,8,0:0:0:0:
256,192,6895,1,8,0:0:0:0:
256,192,7117,1,0,0:0:0:0:
256,192,7784,1,0,0:0:0:0:
256,192,8006,1,8,0:0:0:0:
256,192,8228,1,8,0:0:0:0:
256,192,8339,1,8,0:0:0:0:
256,192,8451,1,8,0:0:0:0:
256,192,8673,1,8,0:0:0:0:
256,192,8895,1,0,0:0:0:0:
256,192,9562,1,0,0:0:0:0:
256,192,9784,1,8,0:0:0:0:
256,192,10117,1,0,0:0:0:0:
256,192,10451,1,8,0:0:0:0:
256,192,10673,1,0,0:0:0:0:
256,192,11339,1,0,0:0:0:0:
256,192,11562,1,8,0:0:0:0:
256,192,11784,1,0,0:0:0:0:
256,192,12006,1,8,0:0:0:0:
256,192,12117,1,8,0:0:0:0:
256,192,12228,1,8,0:0:0:0:
256,192,12451,1,0,0:0:0:0:
256,192,13117,1,0,0:0:0:0:
256,192,13339,1,8,0:0:0:0:
256,192,13673,1,8,0:0:0:0:
256,192,14006,1,8,0:0:0:0:
256,192,14228,1,0,0:0:0:0:
256,192,14895,1,0,0:0:0:0:
256,192,15117,1,8,0:0:0:0:
256,192,15339,1,8,0:0:0:0:
256,192,15451,1,8,0:0:0:0:
256,192,15562,1,8,0:0:0:0:
256,192,15784,1,8,0:0:0:0:
256,192,16006,1,0,0:0:0:0:
256,192,16673,1,0,0:0:0:0:
256,192,16895,1,8,0:0:0:0:
256,192,17228,1,0,0:0:0:0:
256,192,17562,1,8,0:0:0:0:
256,192,17784,1,0,0:0:0:0:
256,192,18451,1,0,0:0:0:0:
256,192,18673,1,8,0:0:0:0:
256,192,18895,1,0,0:0:0:0:
256,192,19117,1,8,0:0:0:0:
256,192,19562,1,12,0:0:0:0:
256,192,19784,1,0,0:0:0:0:
256,192,19895,1,0,0:0:0:0:
256,192,20006,1,0,0:0:0:0:
256,192,20228,1,0,0:0:0:0:
256,192,20451,1,8,0:0:0:0:
256,192,20673,1,8,0:0:0:0:
256,192,20784,1,8,0:0:0:0:
256,192,21117,1,8,0:0:0:0:
256,192,21339,1,8,0:0:0:0:
256,192,21562,1,0,0:0:0:0:
256,192,22006,1,8,0:0:0:0:
256,192,22117,1,8,0:0:0:0:
256,192,22228,1,8,0:0:0:0:
256,192,22451,1,0,0:0:0:0:
256,192,22673,1,8,0:0:0:0:
256,192,22895,1,0,0:0:0:0:
256,192,23117,1,4,0:0:0:0:
256,192,23562,1,0,0:0:0:0:
256,192,23784,1,0,0:0:0:0:
256,192,24006,1,8,0:0:0:0:
256,192,24228,1,0,0:0:0:0:
256,192,24339,1,8,0:0:0:0:
256,192,24673,1,8,0:0:0:0:
256,192,24895,1,0,0:0:0:0:
256,192,25117,1,0,0:0:0:0:
256,192,25228,1,0,0:0:0:0:
256,192,25339,1,0,0:0:0:0:
256,192,25562,1,8,0:0:0:0:
256,192,25784,1,8,0:0:0:0:
256,192,26006,1,0,0:0:0:0:
256,192,26228,1,8,0:0:0:0:
256,192,26339,1,8,0:0:0:0:
256,192,26451,1,8,0:0:0:0:
256,192,26673,1,4,0:0:0:0:
256,192,27117,1,0,0:0:0:0:
256,192,27339,1,0,0:0:0:0:
256,192,27562,1,8,0:0:0:0:
256,192,27784,1,0,0:0:0:0:
256,192,27895,1,8,0:0:0:0:
256,192,28228,1,8,0:0:0:0:
256,192,28450,1,8,0:0:0:0:
256,192,28673,1,0,0:0:0:0:
256,192,29117,1,8,0:0:0:0:
256,192,29228,1,8,0:0:0:0:
256,192,29339,1,8,0:0:0:0:
256,192,29562,1,0,0:0:0:0:
256,192,29784,1,8,0:0:0:0:
256,192,30006,1,0,0:0:0:0:
256,192,30228,1,4,0:0:0:0:
256,192,30673,1,0,0:0:0:0:
256,192,30895,1,0,0:0:0:0:
256,192,31117,1,8,0:0:0:0:
256,192,31339,1,0,0:0:0:0:
256,192,31450,1,8,0:0:0:0:
256,192,31784,1,8,0:0:0:0:
256,192,32006,1,0,0:0:0:0:
256,192,32228,1,0,0:0:0:0:
256,192,32339,1,0,0:0:0:0:
256,192,32450,1,0,0:0:0:0:
256,192,32673,1,8,0:0:0:0:
256,192,32895,1,8,0:0:0:0:
256,192,33117,1,0,0:0:0:0:
256,192,33339,1,0,0:0:0:0:
256,192,33451,1,0,0:0:0:0:
256,192,33562,1,0,0:0:0:0:
256,192,33784,1,12,0:0:0:0:
256,192,34006,1,0,0:0:0:0:
256,192,34228,1,0,0:0:0:0:
256,192,34451,1,0,0:0:0:0:
256,192,34673,1,8,0:0:0:0:
256,192,35117,1,0,0:0:0:0:
256,192,35339,1,0,0:0:0:0:
256,192,35562,1,8,0:0:0:0:
256,192,35784,1,0,0:0:0:0:
256,192,36006,1,0,0:0:0:0:
256,192,36228,1,0,0:0:0:0:
256,192,36451,1,8,0:0:0:0:
256,192,36895,1,8,0:0:0:0:
256,192,37117,1,0,0:0:0:0:
256,192,37339,1,12,0:0:0:0:
256,192,37562,1,0,0:0:0:0:
256,192,37784,1,0,0:0:0:0:
256,192,38007,1,0,0:0:0:0:
256,192,38229,1,8,0:0:0:0:
256,192,38673,1,0,0:0:0:0:
256,192,38895,1,0,0:0:0:0:
256,192,39118,1,8,0:0:0:0:
256,192,39340,1,0,0:0:0:0:
256,192,39562,1,0,0:0:0:0:
256,192,39784,1,0,0:0:0:0:
256,192,40007,1,8,0:0:0:0:
256,192,40229,1,0,0:0:0:0:
256,192,40451,1,0,0:0:0:0:
256,192,40562,1,0,0:0:0:0:
256,192,40673,1,0,0:0:0:0:
256,192,40895,1,12,0:0:0:0:
256,192,41339,1,0,0:0:0:0:
256,192,41784,1,0,0:0:0:0:
256,192,42228,1,0,0:0:0:0:
256,192,42451,1,0,0:0:0:0:
256,192,42673,1,8,0:0:0:0:
256,192,43117,1,0,0:0:0:0:
256,192,43562,1,0,0:0:0:0:
256,192,44006,1,0,0:0:0:0:
256,192,44228,1,0,0:0:0:0:
256,192,44451,1,12,0:0:0:0:
256,192,44895,1,0,0:0:0:0:
256,192,45339,1,0,0:0:0:0:
256,192,45784,1,0,0:0:0:0:
256,192,46006,1,0,0:0:0:0:
256,192,46228,1,8,0:0:0:0:
256,192,46673,1,0,0:0:0:0:
256,192,47117,1,0,0:0:0:0:
256,192,47339,1,8,0:0:0:0:
256,192,47562,1,8,0:0:0:0:
256,192,47673,1,8,0:0:0:0:
256,192,47784,1,8,0:0:0:0:
256,192,48006,1,12,0:0:0:0:
256,192,48451,1,8,0:0:0:0:
256,192,48673,1,0,0:0:0:0:
256,192,48895,1,8,0:0:0:0:
256,192,49117,1,8,0:0:0:0:
256,192,49228,1,8,0:0:0:0:
256,192,49339,1,8,0:0:0:0:
256,192,49562,1,0,0:0:0:0:
256,192,49784,1,8,0:0:0:0:
256,192,50117,1,0,0:0:0:0:
256,192,50228,1,8,0:0:0:0:
256,192,50451,1,8,0:0:0:0:
256,192,50562,1,8,0:0:0:0:
256,192,50673,1,8,0:0:0:0:
256,192,50895,1,0,0:0:0:0:
256,192,51117,1,8,0:0:0:0:
256,192,51339,1,0,0:0:0:0:
256,192,51562,1,4,0:0:0:0:
256,192,52006,1,8,0:0:0:0:
256,192,52228,1,0,0:0:0:0:
256,192,52451,1,8,0:0:0:0:
256,192,52673,1,8,0:0:0:0:
256,192,52784,1,8,0:0:0:0:
256,192,52895,1,8,0:0:0:0:
256,192,53117,1,0,0:0:0:0:
256,192,53339,1,8,0:0:0:0:
256,192,53673,1,8,0:0:0:0:
256,192,53784,1,0,0:0:0:0:
256,192,54006,1,8,0:0:0:0:
256,192,54228,1,8,0:0:0:0:
256,192,54451,1,0,0:0:0:0:
256,192,54673,1,8,0:0:0:0:
256,192,54784,1,8,0:0:0:0:
256,192,54895,1,8,0:0:0:0:
256,192,55117,1,12,0:0:0:0:
256,192,55339,12,0,58673,0:0:0:0:
