osu file format v14

[General]
AudioFilename: Sqeepo - Irish Swag.mp3
AudioLeadIn: 0
PreviewTime: 25566
Countdown: 1
SampleSet: Normal
StackLeniency: 0.7
Mode: 0
LetterboxInBreaks: 1
WidescreenStoryboard: 0

[Editor]
Bookmarks: 8846
DistanceSpacing: 1.5
BeatDivisor: 8
GridSize: 8
TimelineZoom: 2.5

[Metadata]
Title:Irish Swag
TitleUnicode:Irish Swag
Artist:Sqeepo
ArtistUnicode:Sqeepo
Creator:Bowzaa
Version:Enough
Source:
Tags:Squeeble
BeatmapID:512390
BeatmapSetID:218619

[Difficulty]
HPDrainRate:7
CircleSize:4.5
OverallDifficulty:9.3
ApproachRate:8.6
SliderMultiplier:1.4
SliderTickRate:1

[Events]
//Background and Video events
//Break Periods
2,56241,65004
//Storyboard Layer 0 (Background)
//Storyboard Layer 1 (Fail)
//Storyboard Layer 2 (Pass)
//Storyboard Layer 3 (Foreground)
//Storyboard Sound Samples

[TimingPoints]
103,292.682926829268,4,1,0,100,1,0
12395,-100,4,1,0,100,0,0
17078,-100,4,1,0,100,0,0
21724,-133.333333333333,4,1,0,100,0,0
22163,-100,4,1,0,100,0,0
27907,-100,4,1,0,100,0,1
36981,-200,4,1,0,100,0,1
37566,-200,4,1,0,100,0,1
39907,-100,4,1,0,100,0,1
46346,-200,4,1,0,100,0,1
46639,-200,4,1,0,100,0,1
50444,-100,4,1,0,100,0,1
53371,-100,4,1,0,100,0,1
55712,-133.333333333333,4,1,0,100,0,0
78542,-68.9655172413793,4,1,0,100,0,0
79127,-111.111111111111,4,1,0,100,0,0
87907,-66.6666666666667,4,1,0,100,0,0
89078,-133.333333333333,4,1,0,100,0,0

[HitObjects]
88,276,9468,6,0,L|88:196,1,70,0|0,0:0|0:0,0:0:0:0:
133,141,9761,2,0,L|193:93,1,70,0|0,0:0|0:0,0:0:0:0:
187,181,10054,5,0,0:0:0:0:
187,181,10200,1,0,0:0:0:0:
228,228,10346,2,0,L|288:164,1,70,0|0,0:0|0:0,0:0:0:0:
392,88,10639,6,0,L|392:164,1,70,0|0,0:0|0:0,0:0:0:0:
328,136,10932,1,0,0:0:0:0:
328,136,11078,1,0,0:0:0:0:
164,144,11224,5,0,0:0:0:0:
116,300,11371,1,0,0:0:0:0:
196,64,11517,1,0,0:0:0:0:
172,252,11663,1,0,0:0:0:0:
412,52,11810,6,0,L|468:124,1,70,0|0,0:0|0:0,0:0:0:0:
412,148,12102,1,0,0:0:0:0:
412,148,12249,1,0,0:0:0:0:
384,192,12395,6,0,P|340:224|316:228,3,65.625,0|0|0|0,0:0|0:0|0:0|0:0,0:0:0:0:
208,168,12944,5,0,0:0:0:0:
268,128,13090,1,0,0:0:0:0:
308,188,13237,1,0,0:0:0:0:
248,228,13383,1,0,0:0:0:0:
208,100,13529,5,0,0:0:0:0:
336,124,13675,1,0,0:0:0:0:
308,252,13821,1,0,0:0:0:0:
180,228,13968,1,0,0:0:0:0:
72,68,14115,6,0,L|104:144,1,70,0|0,0:0|0:0,0:0:0:0:
152,112,14407,1,0,0:0:0:0:
152,112,14554,1,0,0:0:0:0:
96,132,14700,6,0,L|132:200,1,70,0|0,0:0|0:0,0:0:0:0:
80,208,14993,1,0,0:0:0:0:
80,208,15139,1,0,0:0:0:0:
132,192,15285,6,0,L|200:232,1,70,0|0,0:0|0:0,0:0:0:0:
208,176,15578,1,0,0:0:0:0:
208,176,15724,1,0,0:0:0:0:
340,128,15871,5,0,0:0:0:0:
404,224,16017,1,0,0:0:0:0:
440,48,16163,1,0,0:0:0:0:
304,256,16310,1,0,0:0:0:0:
72,36,16456,6,0,L|72:120,1,70,0|0,0:0|0:0,0:0:0:0:
136,108,16749,1,0,0:0:0:0:
136,108,16895,1,0,0:0:0:0:
88,152,17042,6,0,P|116:192|144:204,3,70,0|0|0|0,0:0|0:0|0:0|0:0,0:0:0:0:
344,152,17627,5,0,0:0:0:0:
431,68,17774,1,0,0:0:0:0:
328,152,17920,1,0,0:0:0:0:
432,248,18066,1,0,0:0:0:0:
332,168,18213,5,0,0:0:0:0:
240,264,18359,1,0,0:0:0:0:
328,152,18506,1,0,0:0:0:0:
233,69,18652,1,0,0:0:0:0:
96,96,18834,5,0,0:0:0:0:
112,112,18981,1,0,0:0:0:0:
96,128,19127,1,0,0:0:0:0:
96,152,19420,5,0,0:0:0:0:
168,80,19566,1,0,0:0:0:0:
224,168,19713,1,0,0:0:0:0:
288,88,19859,1,0,0:0:0:0:
388,136,20005,5,0,0:0:0:0:
392,224,20152,1,0,0:0:0:0:
304,192,20298,1,0,0:0:0:0:
296,280,20444,1,0,0:0:0:0:
224,304,20590,5,0,0:0:0:0:
184,272,20736,1,0,0:0:0:0:
200,216,20883,1,0,0:0:0:0:
176,168,21029,1,0,0:0:0:0:
216,128,21176,5,0,0:0:0:0:
264,152,21322,1,0,0:0:0:0:
304,112,21468,1,0,0:0:0:0:
352,136,21615,1,0,0:0:0:0:
376,124,21761,6,0,L|436:124,3,52.5000020027161,0|0|0|0,0:0|0:0|0:0|0:0,0:0:0:0:
432,160,22346,6,0,L|432:244,3,70,0|0|0|0,0:0|0:0|0:0|0:0,0:0:0:0:
124,268,22932,5,0,0:0:0:0:
224,44,23078,1,0,0:0:0:0:
88,92,23224,1,0,0:0:0:0:
240,224,23371,1,0,0:0:0:0:
256,88,23517,5,0,0:0:0:0:
256,116,23663,1,0,0:0:0:0:
256,140,23810,1,0,0:0:0:0:
424,272,24102,5,0,0:0:0:0:
308,48,24249,1,0,0:0:0:0:
444,48,24395,1,0,0:0:0:0:
280,272,24542,1,0,0:0:0:0:
376,116,24688,1,0,0:0:0:0:
504,112,24834,1,0,0:0:0:0:
364,216,24981,1,0,0:0:0:0:
220,208,25127,1,0,0:0:0:0:
256,64,25273,5,0,0:0:0:0:
332,188,25420,1,0,0:0:0:0:
256,320,25566,1,0,0:0:0:0:
180,188,25712,1,0,0:0:0:0:
256,188,25859,5,0,0:0:0:0:
256,192,26042,12,0,26554,0:0:0:0:
128,64,27029,5,0,0:0:0:0:
384,64,27322,5,0,0:0:0:0:
256,320,27615,5,0,0:0:0:0:
72,72,28200,6,0,B|108:88|128:48|152:72,3,70,0|8|8|8,0:0|0:0|0:0|0:0,0:0:0:0:
176,64,28785,1,0,0:0:0:0:
316,64,28932,1,0,0:0:0:0:
244,184,29078,1,0,0:0:0:0:
244,108,29224,1,0,0:0:0:0:
248,220,29371,6,0,B|260:240|236:260|248:296,3,70,0|8|8|8,0:0|0:0|0:0|0:0,0:0:0:0:
315,288,29956,1,0,0:0:0:0:
364,238,30102,1,0,0:0:0:0:
314,188,30249,1,0,0:0:0:0:
264,237,30395,1,0,0:0:0:0:
252,324,30542,5,0,0:0:0:0:
176,256,30688,1,0,0:0:0:0:
96,192,30834,1,0,0:0:0:0:
176,128,30981,1,0,0:0:0:0:
256,64,31127,1,0,0:0:0:0:
352,104,31273,1,0,0:0:0:0:
400,180,31420,1,0,0:0:0:0:
368,280,31566,1,0,0:0:0:0:
244,220,31712,5,0,0:0:0:0:
244,79,31859,1,0,0:0:0:0:
383,79,32005,1,0,0:0:0:0:
383,218,32151,1,0,0:0:0:0:
312,148,32298,6,0,L|376:112,1,70
270,148,32590,1,0,0:0:0:0:
248,148,32737,1,0,0:0:0:0:
180,148,32883,6,0,B|164:132|144:168|112:140,3,70,0|8|8|8,0:0|0:0|0:0|0:0,0:0:0:0:
114,281,33468,1,0,0:0:0:0:
254,281,33615,1,0,0:0:0:0:
352,182,33761,1,0,0:0:0:0:
212,182,33907,1,0,0:0:0:0:
260,52,34054,5,0,0:0:0:0:
396,80,34200,1,0,0:0:0:0:
352,212,34346,1,0,0:0:0:0:
216,180,34493,1,0,0:0:0:0:
352,212,34639,5,0,0:0:0:0:
396,80,34785,1,0,0:0:0:0:
260,52,34932,1,0,0:0:0:0:
216,176,35078,1,0,0:0:0:0:
288,144,35224,5,0,0:0:0:0:
336,232,35371,1,0,0:0:0:0:
336,96,35517,1,0,0:0:0:0:
288,280,35663,1,0,0:0:0:0:
240,192,35810,5,0,0:0:0:0:
376,168,35956,1,0,0:0:0:0:
216,128,36102,1,0,0:0:0:0:
392,232,36249,1,0,0:0:0:0:
320,224,36395,6,0,L|260:168,1,70
364,168,36688,1,0,0:0:0:0:
260,76,36834,1,0,0:0:0:0:
120,72,36981,6,0,P|144:100|136:136,1,70,0|4,0:0|0:0,0:0:0:0:
120,176,37566,6,0,B|149:173|149:173|136:160|136:160|160:168|160:168|144:152|168:144,1,105
224,56,38151,5,0,0:0:0:0:
288,168,38298,1,0,0:0:0:0:
288,56,38444,1,0,0:0:0:0:
224,168,38590,1,0,0:0:0:0:
320,112,38737,1,0,0:0:0:0:
196,112,38883,1,0,0:0:0:0:
256,212,39029,5,0,0:0:0:0:
256,16,39176,1,0,0:0:0:0:
172,160,39322,1,0,0:0:0:0:
340,60,39468,1,0,0:0:0:0:
172,60,39615,1,0,0:0:0:0:
340,160,39761,1,0,0:0:0:0:
256,108,39907,6,0,B|260:132|248:148|256:184,3,70,0|0|0|0,0:0|0:0|0:0|0:0,0:0:0:0:
256,320,40493,1,0,0:0:0:0:
308,192,40639,1,0,0:0:0:0:
352,248,40785,1,0,0:0:0:0:
428,128,40932,1,0,0:0:0:0:
328,28,41078,5,0,0:0:0:0:
252,148,41224,1,0,0:0:0:0:
200,104,41371,1,0,0:0:0:0:
144,232,41517,1,0,0:0:0:0:
256,320,41663,5,0,0:0:0:0:
384,64,41883,1,0,0:0:0:0:
128,64,42102,1,0,0:0:0:0:
328,120,42249,5,0,0:0:0:0:
328,264,42395,1,0,0:0:0:0:
184,264,42542,1,0,0:0:0:0:
184,120,42688,1,0,0:0:0:0:
376,192,42834,5,0,0:0:0:0:
256,328,42981,1,0,0:0:0:0:
136,192,43127,1,0,0:0:0:0:
256,72,43273,1,0,0:0:0:0:
136,192,43420,5,0,0:0:0:0:
256,328,43566,1,0,0:0:0:0:
376,192,43712,1,0,0:0:0:0:
256,72,43859,1,0,0:0:0:0:
184,264,44005,5,0,0:0:0:0:
328,264,44151,1,0,0:0:0:0:
328,120,44298,1,0,0:0:0:0:
184,120,44444,1,0,0:0:0:0:
144,112,44590,6,0,B|120:120|128:80|96:64,3,70,0|0|0|0,0:0|0:0|0:0|0:0,0:0:0:0:
64,136,45176,1,0,0:0:0:0:
112,200,45322,1,0,0:0:0:0:
96,272,45468,1,0,0:0:0:0:
160,312,45615,1,0,0:0:0:0:
232,320,45761,6,0,L|232:248,3,70,0|0|0|0,0:0|0:0|0:0|0:0,0:0:0:0:
304,240,46346,6,0,L|360:192,1,70
248,32,46932,6,0,L|280:48,2,35
248,104,47517,1,0,0:0:0:0:
264,352,47810,6,0,L|240:320,2,35
264,272,48395,1,0,0:0:0:0:
48,192,48688,6,0,L|72:160,2,35
120,208,49273,1,0,0:0:0:0:
448,320,49859,5,0,0:0:0:0:
400,272,50005,1,0,0:0:0:0:
48,48,50444,5,0,0:0:0:0:
104,88,50590,1,0,0:0:0:0:
176,96,50737,2,0,P|184:64|216:40,1,70
216,128,51029,2,0,P|240:96|280:80,1,70
248,152,51249,2,0,P|288:144|320:168,1,70
328,160,51468,1,0,0:0:0:0:
432,32,51615,5,0,0:0:0:0:
408,160,51761,1,0,0:0:0:0:
312,56,51907,1,0,0:0:0:0:
256,192,52200,5,0,0:0:0:0:
112,328,52493,5,0,0:0:0:0:
144,216,52639,1,0,0:0:0:0:
216,304,52785,1,0,0:0:0:0:
256,192,53078,5,0,0:0:0:0:
128,88,53371,6,0,L|88:152,2,70,0|0|0,0:0|0:0|0:0,0:0:0:0:
128,228,53810,1,0,0:0:0:0:
226,129,53956,1,0,0:0:0:0:
226,268,54102,1,0,0:0:0:0:
325,168,54249,1,0,0:0:0:0:
325,307,54395,1,0,0:0:0:0:
424,207,54542,1,0,0:0:0:0:
325,307,54688,5,0,0:0:0:0:
325,167,54834,1,0,0:0:0:0:
226,268,54981,1,0,0:0:0:0:
226,129,55127,1,0,0:0:0:0:
128,228,55273,1,0,0:0:0:0:
224,128,55420,1,0,0:0:0:0:
224,16,55566,1,0,0:0:0:0:
226,129,55712,2,0,P|176:104|120:128,1,118.125004506111
192,96,65663,5,0,0:0:0:0:
296,96,65810,1,0,0:0:0:0:
256,192,65956,1,0,0:0:0:0:
352,152,66102,5,0,0:0:0:0:
352,256,66249,1,0,0:0:0:0:
256,192,66395,1,0,0:0:0:0:
288,296,66542,5,0,0:0:0:0:
184,296,66688,1,0,0:0:0:0:
256,192,66834,2,0,L|200:192,1,52.5000020027161
88,48,67127,5,0,0:0:0:0:
192,48,67273,1,0,0:0:0:0:
192,152,67420,1,0,0:0:0:0:
88,152,67566,1,0,0:0:0:0:
192,152,67712,5,0,0:0:0:0:
266,226,67859,1,0,0:0:0:0:
191,300,68005,1,0,0:0:0:0:
116,225,68151,1,0,0:0:0:0:
264,224,68298,5,0,0:0:0:0:
264,120,68444,1,0,0:0:0:0:
368,120,68590,1,0,0:0:0:0:
368,224,68737,1,0,0:0:0:0:
368,120,68883,5,0,0:0:0:0:
264,120,69029,1,0,0:0:0:0:
264,224,69176,2,0,L|200:224,1,52.5000020027161
200,56,69468,5,0,0:0:0:0:
200,160,69615,1,0,0:0:0:0:
312,56,69761,1,0,0:0:0:0:
312,160,69907,1,0,0:0:0:0:
256,56,70054,1,0,0:0:0:0:
256,160,70200,1,0,0:0:0:0:
256,264,70346,5,0,0:0:0:0:
160,224,70493,1,0,0:0:0:0:
136,120,70639,1,0,0:0:0:0:
160,224,70785,1,0,0:0:0:0:
256,264,70932,5,0,0:0:0:0:
352,224,71078,1,0,0:0:0:0:
384,120,71224,1,0,0:0:0:0:
352,224,71371,1,0,0:0:0:0:
256,264,71517,6,0,L|256:208,1,52.5000020027161
256,104,71810,5,0,0:0:0:0:
336,168,71956,1,0,0:0:0:0:
336,272,72102,1,0,0:0:0:0:
256,336,72249,1,0,0:0:0:0:
176,272,72395,1,0,0:0:0:0:
176,168,72542,1,0,0:0:0:0:
256,192,72688,12,0,73566,0:0:0:0:
128,320,73859,5,0,0:0:0:0:
384,320,74152,5,0,0:0:0:0:
256,64,74445,5,0,0:0:0:0:
256,64,75029,6,0,L|328:64,1,65.6250025033952
416,192,75322,6,0,L|416:264,1,65.6250025033952
256,328,75615,6,0,L|184:328,1,65.6250025033952
96,192,75907,6,0,L|96:120,1,65.6250025033952
96,126,76200,5,0,0:0:0:0:
344,72,76493,5,0,0:0:0:0:
440,72,76639,1,0,0:0:0:0:
392,192,76785,1,0,0:0:0:0:
208,152,76932,5,0,0:0:0:0:
304,152,77078,1,0,0:0:0:0:
256,272,77224,1,0,0:0:0:0:
344,72,77371,5,0,0:0:0:0:
440,72,77517,1,0,0:0:0:0:
392,192,77663,1,0,0:0:0:0:
72,232,77810,5,0,0:0:0:0:
168,232,77956,1,0,0:0:0:0:
120,352,78102,1,0,0:0:0:0:
208,152,78249,5,0,0:0:0:0:
304,152,78395,1,0,0:0:0:0:
256,272,78542,2,0,B|368:344|368:344|392:360|408:360|424:352|440:336|440:320|438:298|424:280|408:272|384:272|368:280|352:304|368:344,1,355.25001084137
367,343,79127,2,0,B|352:304|368:272|400:272|416:272|432:296|440:312|432:328|440:344|416:336|416:360|400:360|376:352,1,204.749993751526
440,192,79749,5,0,0:0:0:0:
384,72,79895,1,0,0:0:0:0:
328,192,80042,1,0,0:0:0:0:
384,144,80188,5,0,0:0:0:0:
328,24,80334,1,0,0:0:0:0:
272,144,80481,1,0,0:0:0:0:
256,216,80627,5,0,0:0:0:0:
200,96,80773,1,0,0:0:0:0:
152,216,80920,2,0,B|133:208|133:208|128:224|128:224|128:208|128:208|104:224|104:224|88:224,1,94.499997116089
64,40,81322,5,0,0:0:0:0:
168,40,81468,1,0,0:0:0:0:
112,128,81615,1,0,0:0:0:0:
216,128,81761,1,0,0:0:0:0:
152,216,81907,1,0,0:0:0:0:
256,216,82054,2,0,P|240:240|240:208,1,78.7499975967408
272,208,82346,6,0,B|306:200|323:199|329:184|304:184|312:184|312:184|316:174|325:170|360:144,1,125.999996154785
328,88,82785,1,0,0:0:0:0:
400,200,82932,1,0,0:0:0:0:
320,80,83078,1,0,0:0:0:0:
392,192,83224,1,0,0:0:0:0:
376,264,83371,1,0,0:0:0:0:
304,288,83517,2,0,B|264:248|272:232|272:232|240:256|240:256,1,94.499997116089
232,216,83810,6,0,B|240:192|240:192|256:200|256:200|256:176|256:176|273:180|273:180|296:160,1,110.249996635437
104,96,84395,5,0,0:0:0:0:
160,192,84542,1,0,0:0:0:0:
128,72,84688,1,0,0:0:0:0:
144,224,84834,1,0,0:0:0:0:
160,48,84981,1,0,0:0:0:0:
112,248,85127,1,0,0:0:0:0:
200,40,85273,5,0,0:0:0:0:
72,256,85420,1,0,0:0:0:0:
128,144,85566,6,0,B|160:120|160:120|192:136|192:136|208:120,1,94.499997116089
232,104,85859,6,0,P|264:104|248:128,1,62.9999980773926
256,200,86151,5,0,0:0:0:0:
336,128,86298,1,0,0:0:0:0:
288,232,86444,1,0,0:0:0:0:
312,88,86590,1,0,0:0:0:0:
416,288,86737,5,0,0:0:0:0:
272,72,86883,5,0,0:0:0:0:
328,256,87029,1,0,0:0:0:0:
224,80,87176,1,0,0:0:0:0:
336,192,87322,2,0,L|264:152,1,78.7499975967408
128,224,87615,5,0,0:0:0:0:
408,160,87761,1,0,0:0:0:0:
256,136,87907,2,0,B|240:192|272:224|271:274|271:274|328:256,1,183.750007009506
333,247,88200,2,0,B|384:208|384:208|352:176|368:112,1,157.500006008148
288,136,88493,5,0,0:0:0:0:
208,0,88639,1,0,0:0:0:0:
264,144,88785,1,0,0:0:0:0:
320,16,88932,1,0,0:0:0:0:
176,80,89078,6,0,B|160:104|160:104|152:112|152:112|160:120|160:120|144:120|144:120|160:128|160:128|144:136|144:136,1,91.8750035047532
