osu file format v7

[General]
AudioFilename: Revelation.MP3
AudioLeadIn: 3000
PreviewTime: 10522
Countdown: 0
SampleSet: Soft
StackLeniency: 0.7
Mode: 0
LetterboxInBreaks: 1

[Editor]
DistanceSpacing: 1
BeatDivisor: 4
GridSize: 8

[Metadata]
Title:Revelation
Artist:Spring Head
Creator:uranuss8600
Version:SHD
Source:
Tags:ez2on ez2dj DJNightmare

[Difficulty]
HPDrainRate:7
CircleSize:5
OverallDifficulty:8
SliderMultiplier:2
SliderTickRate:1

[Events]
//Background and Video events
0,0,"ez3.jpg"
//Break Periods
2,65339,69589
//Storyboard Layer 0 (Background)
//Storyboard Layer 1 (Fail)
//Storyboard Layer 2 (Pass)
//Storyboard Layer 3 (Foreground)
//Storyboard Sound Samples
//Background Colour Transformations
3,100,163,162,255

[TimingPoints]
119,325.097529258778,4,2,1,80,1,0
119,-100,4,2,1,55,0,0
10522,325.097529258778,4,2,1,80,1,0
15642,-100,4,2,1,80,0,0
20925,-50,4,2,1,80,0,0
21171,-100,4,2,1,80,0,0
29458,-50,4,2,1,80,0,0
29865,-100,4,2,1,80,0,0
30759,-50,4,2,1,80,0,0
31165,-100,4,2,1,80,0,0
32059,-200,4,2,1,80,0,0
32709,-100,4,2,1,80,0,0
32953,-50,4,2,1,80,0,0
33360,-100,4,2,1,80,0,0
37261,-200,4,2,1,80,0,0
37911,-100,4,2,1,80,0,0
38155,-50,4,2,1,80,0,0
38480,-100,4,2,1,80,0,0
41975,-200,4,2,1,80,0,0
42462,-100,4,2,1,80,0,0
50183,-200,4,2,1,80,0,0
50752,-100,4,2,1,80,0,0
51971,-100,4,2,1,21,0,0
54572,-100,4,2,1,80,0,0
55629,-200,4,2,1,80,0,0
56198,-100,4,2,1,80,0,0
78061,-50,4,2,1,80,0,0
78711,-100,4,2,1,80,0,0
79402,-50,4,2,1,80,0,0
80661,-100,4,2,1,80,0,0
86676,-200,4,2,1,80,0,0
87407,-100,4,2,1,80,0,0
88382,-50,4,2,1,80,0,0
89114,-100,4,2,1,80,0,0
89805,-50,4,2,1,80,0,0
91064,-100,4,2,1,80,0,0
91877,-200,4,2,1,80,0,0
92527,-100,4,2,1,80,0,0

[Colours]
Combo1 : 0,249,0
Combo2 : 0,210,255
Combo3 : 252,86,243

[HitObjects]
368,40,119,5,2
448,88,281,1,0
368,128,444,1,2
448,176,606,1,0
368,216,769,1,2
448,264,931,1,0
368,312,1094,1,2
144,312,1419,5,2
64,264,1582,1,0
144,216,1744,1,2
64,176,1907,1,0
144,128,2070,1,2
64,88,2232,1,0
144,40,2395,1,2
320,40,2719,6,0,B|384:32|400:96,1,100
376,184,3044,2,0,B|350:243|287:225,1,100,2|0
216,168,3369,2,0,B|177:116|224:70,1,100
304,128,3695,5,2
200,296,3857,1,2
160,208,4020,6,0,B|152:144|215:128,1,100
256,216,4345,2,0,B|320:208|336:272,1,100,2|0
392,344,4670,1,2
418,305,4751,1,2
428,265,4832,1,2
414,224,4914,1,2
392,190,4995,1,2
248,56,5320,6,0,B|196:17|150:64,1,100
80,120,5645,1,0
56,160,5726,1,2
80,200,5808,1,0
160,256,5970,2,0,B|211:294|257:247,2,100,0|0|2
360,232,6620,6,0,B|321:283|368:329,1,100
440,264,6946,2,0,B|478:212|431:166,1,100,2|0
344,144,7271,1,0
376,104,7352,1,2
352,64,7433,1,2
304,72,7514,1,0
296,120,7596,1,2
96,96,7921,6,0,B|57:147|104:193,1,100,0|2
184,136,8246,1,2
192,232,8408,2,0,B|256:240|272:175,1,100
184,136,8734,1,2
264,80,8896,2,0,B|238:20|175:38,1,100,2|0
360,200,9221,6,0,B|424:208|440:143,1,100,2|0
360,200,9546,2,0,B|334:140|271:158,1,100,2|0
360,200,9871,2,0,B|321:251|368:297,2,100,0|2|2
136,32,10522,5,4
136,32,10684,2,0,B|208:112,1,100,2|8
269,31,11009,1,0
269,31,11171,2,0,B|197:111,1,100
203,206,11497,1,8
400,152,11822,6,0,B|435:249,1,100,0|2
434,245,12147,1,8
360,312,12310,2,0,B|247:270,1,100
266,277,12635,1,0
344,216,12797,1,8
112,96,13122,6,0,B|137:36|200:64,1,100,0|2
272,120,13447,2,0,B|310:172|256:216,1,100,8|0
168,248,13772,2,0,B|103:255|96:192,1,100,0|2
180,153,14098,5,8
273,327,14260,1,0
368,288,14423,5,0
320,96,14748,1,8
368,288,15073,1,0
320,96,15398,1,8
120,112,15723,6,0,B|64:136,2,50,0|0|2
220,112,16048,2,0,B|276:136,2,50,8|0|2
120,112,16373,2,0,B|232:112,1,100,0|0
320,112,16698,1,8
320,112,17023,6,0,B|368:88,2,50,0|0|2
256,192,17349,1,8
256,192,17511,1,2
320,272,17674,2,0,B|368:296,2,50,0|0|0
384,192,17999,1,8
200,104,18324,6,0,B|160:64,2,50,0|0|2
272,168,18649,2,0,B|317:136|367:170,1,100,8|0
448,112,18974,2,0,B|493:67,2,50,0|0|2
365,169,19299,2,0,B|320:201|270:167,1,100,8|0
200,240,19624,5,0
200,240,19706,1,0
200,240,19787,1,2
120,184,19949,1,8
120,184,20031,1,0
120,184,20112,1,0
152,88,20274,6,0,B|264:64|264:64,1,100
352,48,20600,6,0,B|352:80,1,25
352,96,20681,2,0,B|392:109,1,25
400,112,20762,2,0,B|430:123,1,25
400,128,20843,2,0,B|362:140,1,25
352,144,20925,6,0,L|280:168|352:192|352:264,1,200,4|0
280,304,21250,1,8
88,240,21575,2,0,B|56:192|96:136,1,100
176,192,21900,1,8
176,192,22062,1,0
272,56,22225,6,0,B|320:24|377:64,1,100
318,145,22550,1,8
272,232,22713,2,0,B|320:264|377:224,2,100
318,145,23200,1,8
136,56,23525,5,0
136,56,23688,2,0,B|104:104|144:161,1,100,0|8
224,104,24013,1,0
256,200,24176,1,2
352,232,24338,1,0
256,200,24501,1,8
72,272,24826,5,2
160,320,24988,2,0,B|200:272|144:208,2,100,0|8|0
281,247,25476,1,2
339,209,25557,1,0
388,260,25639,1,0
361,324,25720,1,0
290,315,25801,1,8
432,320,25964,1,0
432,320,26126,5,0
80,320,26451,1,8
80,64,26776,1,0
432,64,27101,1,8
256,192,27427,6,0,B|256:144|304:104,1,100,0|2
256,192,27752,2,0,B|297:215|308:277,1,100,8|0
256,192,28077,2,0,B|214:216|155:194,1,100,0|0
256,192,28402,1,8
104,64,28727,5,0
176,248,29052,1,8
256,192,29215,1,0
264,288,29377,1,0
176,248,29540,2,0,B|104:88|272:200,1,200,2|8
408,64,30027,5,0
344,144,30190,1,0
336,240,30352,1,8
256,184,30515,1,0
248,280,30677,1,0
256,184,30840,2,0,B|184:344|352:232,1,200,2|8
72,192,31328,6,0,L|168:192|192:136,1,150,2|0
208,96,31653,2,0,L|304:288,1,200,8|2
328,240,32140,2,0,L|349:190|453:190,1,150,0|2
296,56,32791,5,0
96,96,33116,2,0,B|40:120|48:184,1,100,2|0
192,200,33441,1,0
192,200,33603,1,8
192,200,33929,6,0,B|231:251|184:297,1,100,0|2
104,240,34254,1,8
96,336,34416,2,0,B|32:344|16:279,1,100,0|2
104,240,34742,1,2
24,184,34904,2,0,B|50:124|113:142,1,100,8|0
104,240,35230,5,0
192,200,35392,2,0,B|232:248|176:312,2,100,0|8|0
104,240,35880,1,0
104,240,35961,1,0
104,240,36043,1,0
104,240,36123,1,0
104,240,36204,1,8
440,192,36529,6,0,L|344:192|320:248,1,150,2|0
304,288,36854,2,0,L|208:96,1,200,8|2
184,144,37342,2,0,L|163:194|59:194,1,150,0|2
216,328,37992,5,0
416,288,38317,2,0,B|472:264|464:200,1,100,0|0
320,184,38642,1,0
320,184,38804,1,8
256,192,39130,12,0,41081
176,96,41406,6,0,L|192:72,1,25
208,56,41487,2,0,L|256:56,1,25
256,56,41568,2,0,L|304:56,1,25
304,56,41650,2,0,L|320:80,1,25
328,96,41731,5,4
208,256,42056,2,0,B|256:296|312:248,1,100,2|0
112,184,42544,2,0,B|192:245|192:245,1,100,2|8
376,144,43031,5,0
384,296,43275,2,0,B|328:320|280:256,1,100,2|0
240,80,43763,1,2
376,144,44007,1,8
224,272,44332,5,0
136,320,44494,1,0
52,269,44657,2,0,B|140:365|236:261,1,200,0|2
188,181,45144,2,0,B|136:142|90:189,1,100,0|8
368,120,45632,5,0
240,48,45876,1,2
240,200,46120,1,0
240,200,46364,1,0
368,120,46607,1,8
168,96,46932,5,0
96,168,47095,1,0
192,200,47258,1,8
131,97,47420,1,0
113,197,47583,1,0
210,168,47746,1,8
480,40,48233,5,0
360,128,48477,1,2
480,40,48720,1,0
400,168,48964,2,0,B|280:184|336:64,1,150,0|8
128,120,49533,5,0
80,208,49696,1,0
128,120,49858,1,8
80,208,50021,1,8
128,120,50346,6,0,L|78:212,1,100,2|0
184,208,50834,5,0
56,136,51077,1,2
184,208,51321,1,0
312,280,51565,1,0
184,208,51809,1,8
256,192,52134,12,0,54410
136,192,54735,6,0,B|195:166|178:103,2,100,0|0|2
168,96,55222,2,0,B|116:57|70:104,1,100
112,192,55548,2,0,B|52:166|69:103,2,100,0|2|0
208,184,56035,5,8
344,248,56279,1,8
328,96,56523,1,8
232,56,56685,6,0,L|240:112,1,50
216,152,56848,2,0,L|152:176,1,50
128,80,57092,2,0,L|64:40,2,50,0|0|2
88,56,57336,5,2
88,152,57498,1,2
88,152,57579,1,0
88,152,57661,2,0,L|88:256,1,100,2|2
288,256,57986,5,2
288,256,58148,2,0,L|288:152,1,100,0|2
288,157,58392,1,0
288,157,58473,1,2
288,56,58636,5,8
432,88,58880,1,8
464,232,59124,1,8
384,288,59286,6,0,L|440:264,1,50,2|2
384,288,59449,2,0,L|384:344,1,50,2|2
384,288,59611,2,0,L|320:256,2,50,2|2|2
328,208,59936,5,2
240,256,60099,2,0,L|160:288,1,50,2|0
144,288,60261,1,2
96,272,60343,2,0,L|8:232,1,50,0|2
144,72,60587,5,2
144,192,60749,1,2
224,128,60912,2,0,L|280:128,3,50,2|0|0|2
224,128,61237,5,8
360,64,61481,1,8
456,184,61724,1,8
368,232,61887,2,0,B|264:208,1,100,2|2
344,136,62212,2,0,B|376:184,1,50,2|2
344,136,62375,2,0,B|280:176,1,50,2|0
344,144,62537,6,0,B|312:256,1,100,2|2
272,216,62781,1,0
232,240,62862,2,0,B|208:176,3,50,2|0|2|0
128,144,63187,6,0,B|48:144,1,50,2|2
40,184,63350,2,0,B|40:248,1,50,2|2
80,264,63512,2,0,B|152:264,1,50,2|0
168,232,63675,2,0,B|168:176,1,50,2|0
168,136,63837,5,8
320,128,64081,1,8
424,232,64325,1,8
336,272,64488,6,0,B|308:263,1,25
276,255,64569,2,0,B|252:287,1,25
244,287,64651,2,0,B|228:255,1,25
204,247,64732,2,0,B|196:279,1,25
204,303,64813,2,0,B|196:271,1,25
180,311,64894,2,0,B|148:303|148:303,1,25
124,287,64976,2,0,B|124:247,1,25
148,239,65058,2,0,B|188:231,2,25,0|0|4
72,64,70339,5,0
448,152,70665,1,2
72,232,70990,1,0
448,320,71315,1,8
160,40,71640,5,0
352,344,71965,1,2
352,40,72290,1,0
160,344,72615,1,8
256,120,72940,6,0,B|184:8|72:80,1,200,0|2
256,264,73590,2,0,B|328:376|440:304,1,200,0|2
75,278,74241,5,8
437,108,74566,1,8
183,227,74890,1,2
328,159,75053,1,2
256,88,75216,6,0,B|256:128,1,25
256,136,75297,2,0,B|256:176,1,25
256,184,75378,2,0,B|256:224,1,25
256,232,75460,2,0,B|256:272,1,25
256,280,75541,5,4
360,112,75866,6,0,B|472:192|352:280,1,200,8|0
304,192,76354,2,0,B|168:192|168:192,1,100,0|8
64,336,76841,5,0
216,336,77085,1,0
144,208,77329,1,0
64,80,77573,1,0
216,80,77817,1,8
384,280,78142,6,0,B|488:192|368:96,1,200
184,112,78467,2,0,B|80:200|200:296,1,200
280,104,78792,1,2
280,104,78955,1,2
280,200,79117,2,0,B|280:144,1,50
280,200,79280,2,0,B|280:256,1,50
200,192,79442,6,0,B|144:56|296:40,2,200,0|0|0
400,192,79930,2,0,B|456:328|304:344,2,200,0|2|2
200,192,80417,1,0
400,192,80580,1,0
328,264,80743,6,0,B|256:328|176:256,1,150,2|0
152,240,81068,2,0,B|56:152|168:48,1,200,8|2
240,24,81556,2,0,B|336:80|336:80,1,100,0|8
416,248,82043,5,0
288,168,82287,1,2
344,304,82531,1,0
384,160,82774,1,0
272,256,83018,1,8
128,120,83343,5,2
208,64,83506,2,0,B|328:64,1,100
392,120,83831,1,2
304,176,83994,2,0,B|184:176,1,100,2|2
208,280,84319,2,0,B|320:280,1,100,0|2
392,224,84644,5,0
256,288,84888,1,0
120,224,85131,1,8
144,128,85294,2,0,B|192:88,1,50,2|2
232,80,85456,2,0,B|296:80,1,50,2|2
328,96,85619,2,0,B|368:128,2,50,2|2|2
400,160,85944,6,0,B|472:224|392:304,1,150,2|0
368,320,86269,1,2
320,336,86350,1,0
272,344,86432,1,2
224,336,86513,1,0
176,320,86594,1,2
96,248,86757,2,0,B|56:200|56:200,1,50,0|8
160,176,87245,5,0
312,176,87488,1,2
160,176,87732,1,0
312,176,87976,1,0
160,176,88220,1,8
472,104,88545,6,0,B|376:208|277:75,1,200
211,279,88870,2,0,B|115:175|16:308,1,200
80,80,89195,1,2
184,80,89358,1,2
280,80,89520,2,0,L|352:80,1,50
384,80,89683,2,0,L|448:80,1,50
304,96,89845,6,0,B|360:-16|488:72,2,200
304,296,90333,2,0,B|248:408|120:320,2,200,0|2|2
156,161,90820,1,0
356,161,90983,1,0
256,160,91146,5,2
432,248,91471,2,0,B|416:384|264:352,1,200,8|0
192,344,91959,2,0,B|88:336|96:224,1,150,2|0
152,112,92690,5,2
288,184,92934,1,0
424,256,93178,1,0
288,184,93422,1,8
288,184,93746,5,2
345,77,93909,1,0
288,184,94072,1,0
394,240,94234,1,8
288,184,94397,5,2
224,304,94559,1,0
288,184,94722,1,0
147,108,94884,1,8
40,200,95047,6,0,B|96:200,1,50,2|0
144,248,95209,2,0,B|80:248,1,50,0|2
144,200,95372,2,0,B|224:200,1,50,2|0
244,249,95535,2,0,B|188:249,1,50,0|2
244,249,95697,6,0,B|272:240,1,25
304,232,95778,2,0,B|328:264,1,25
336,264,95860,2,0,B|352:232,1,25
376,224,95941,2,0,B|384:256,1,25
376,280,96022,2,0,B|384:248,1,25
400,288,96103,2,0,B|432:280|432:280,1,25
456,264,96185,2,0,B|456:224,1,25
432,216,96267,2,0,B|392:208,2,25,0|0|4
