osu file format v7

[General]
AudioFilename: Revelation.MP3
AudioLeadIn: 0
PreviewTime: 10522
Countdown: 0
SampleSet: Soft
StackLeniency: 0.7
Mode: 0
LetterboxInBreaks: 1

[Editor]
DistanceSpacing: 1
BeatDivisor: 4
GridSize: 8

[Metadata]
Title:Revelation
Artist:Spring Head
Creator:uranuss8600
Version:HD
Source:
Tags:ez2on ez2dj DJNightmare

[Difficulty]
HPDrainRate:4
CircleSize:4
OverallDifficulty:5
SliderMultiplier:1.4
SliderTickRate:1

[Events]
//Background and Video events
0,0,"ez2.jpg"
//Break Periods
2,39004,40206
2,65338,69139
//Storyboard Layer 0 (Background)
//Storyboard Layer 1 (Fail)
//Storyboard Layer 2 (Pass)
//Storyboard Layer 3 (Foreground)
//Storyboard Sound Samples
//Background Colour Transformations
3,100,163,162,255

[TimingPoints]
119,325.097529258778,4,2,1,80,1,0
119,-100,4,2,1,55,0,0
10522,325.097529258778,4,2,1,80,1,0
15642,-100,4,2,1,80,0,0
20437,-100,4,2,1,80,0,0
28564,-50,4,2,1,80,0,0
31165,-100,4,2,1,80,0,0
32059,-200,4,2,1,80,0,0
32709,-100,4,2,1,80,0,0
32953,-50,4,2,1,80,0,0
33360,-100,4,2,1,80,0,0
37261,-200,4,2,1,80,0,0
37911,-100,4,2,1,80,0,0
38155,-50,4,2,1,80,0,0
38480,-100,4,2,1,80,0,0
50183,-200,4,2,1,80,0,0
50752,-100,4,2,1,80,0,0
51971,-100,4,2,1,20,0,0
54572,-100,4,2,1,80,0,0
55629,-200,4,2,1,80,0,0
56198,-100,4,2,1,80,0,0
78061,-50,4,2,1,80,0,0
78711,-100,4,2,1,80,0,0
79402,-50,4,2,1,80,0,0
80661,-100,4,2,1,80,0,0
86676,-200,4,2,1,80,0,0
87407,-100,4,2,1,80,0,0
88382,-50,4,2,1,80,0,0
89114,-100,4,2,1,80,0,0
89805,-50,4,2,1,80,0,0
91064,-100,4,2,1,80,0,0
91877,-200,4,2,1,80,0,0
92527,-100,4,2,1,80,0,0

[Colours]
Combo1 : 0,249,0
Combo2 : 0,210,255
Combo3 : 252,86,243

[HitObjects]
112,312,10522,6,0,B|208:312,3,70,4|2|8|0
256,248,11172,6,0,B|176:248,3,70,0|2|8|0
256,184,11822,6,0,B|352:184,3,70,0|2|8|0
400,120,12472,6,0,B|304:120,3,70,0|2|8|2
264,56,13122,5,0
88,112,13447,1,8
120,288,13773,1,0
288,320,14098,1,8
424,240,14423,5,0
376,112,14748,1,8
256,192,15073,5,2
256,192,15154,1,0
256,192,15236,1,2
256,192,15317,1,0
256,192,15398,1,8
88,64,15723,5,0
88,208,16048,1,8
208,136,16373,2,0,B|264:136|368:136,1,140,0|8
424,256,17024,5,0
288,256,17349,1,8
352,136,17674,2,0,B|296:136|192:136,1,140,0|8
136,256,18324,5,0
144,120,18649,2,0,B|224:112|264:200,1,140,8|0
136,256,19299,1,8
272,296,19624,5,0
400,240,19949,1,8
344,112,20275,1,0
224,176,20600,6,4,B|208:192,8,17.5,0|0|0|0|0|0|0|0|4
128,72,21250,5,0
104,208,21575,1,2
240,160,21900,1,8
360,88,22225,6,0,B|331:116,1,35
360,144,22388,1,2
336,168,22469,1,0
360,200,22550,1,8
256,96,22875,5,0
128,144,23200,1,8
256,192,23526,6,0,B|232:104|328:80,1,140,2|0
256,192,24176,2,0,B|191:256|123:185,1,140,0|8
256,192,24826,2,0,B|344:215|316:310,1,140,2|8
184,304,25476,5,2
168,273,25557,2,0,B|141:229,1,35,0|2
130,213,25720,1,0
113,184,25801,1,8
56,56,26126,5,2
192,56,26451,1,0
120,176,26776,1,0
264,176,27102,1,8
344,56,27427,1,2
416,176,27752,1,8
280,176,28077,6,0,B|328:176,4,35,0|0|0|0|8
408,232,28727,5,2
408,232,29052,1,8
352,232,29215,1,2
296,232,29377,1,2
352,288,29540,2,0,B|288:288|192:288|192:288,1,140,0|8
104,152,30027,5,2
160,152,30190,1,0
104,152,30352,1,8
160,152,30515,1,2
160,96,30677,1,2
160,96,30840,2,0,B|224:96|320:96|320:96,1,140,0|8
392,208,31328,6,0,L|336:208|296:160,1,105,2|0
288,144,31653,2,0,L|208:288|208:288,1,140,8|2
200,240,32140,2,0,L|176:200|104:200,1,105,0|8
192,80,32791,5,0
304,48,33116,2,0,B|376:80,1,70,2|0
440,152,33441,1,0
440,224,33603,1,8
256,192,33929,12,8,36204
392,184,36529,6,0,L|336:184|296:232,1,105,2|0
288,248,36854,2,0,L|208:104|208:104,1,140,8|2
200,152,37341,2,0,L|176:192|104:192,1,105,0|8
192,304,37992,5,0
304,336,38317,2,0,B|376:304,1,70,2|0
440,232,38642,1,0
440,160,38804,1,8
64,208,41406,6,0,B|80:192,8,17.5,0|0|0|0|0|0|0|0|4
168,112,42056,6,0,B|232:72|304:115,1,140,2|0
360,152,42544,2,0,B|440:216|440:216,1,70,2|8
336,312,43031,5,0
232,312,43275,2,0,B|160:328|144:232,1,105,2|0
112,168,43763,1,2
168,80,44007,1,8
328,40,44332,5,0
400,32,44494,1,0
448,88,44657,2,0,B|440:176|344:168,1,140,0|2
280,168,45144,2,0,B|208:168,1,70,0|8
72,144,45632,6,0,L|72:216|104:248,2,105,0|2|0
152,72,46364,1,0
72,144,46607,1,8
152,320,46932,5,0
224,320,47095,1,0
186,260,47258,1,8
224,320,47420,1,8
152,320,47583,1,0
82,320,47745,2,0,B|226:320|226:320,1,140,2|0
296,320,48233,6,0,L|296:248|328:216,2,105,0|2|0
232,240,48964,2,0,L|200:240|136:176,1,105,0|8
40,80,49533,5,0
112,80,49696,1,0
40,80,49858,1,8
40,152,50021,1,8
168,200,50346,2,0,L|232:256,1,70,2|0
176,304,50834,5,0
280,296,51077,1,2
272,192,51321,1,0
168,200,51565,1,0
280,296,51809,1,8
256,192,52134,12,0,54410
64,264,54735,6,0,L|128:304,1,70,2|2
136,232,55060,2,0,L|200:272,1,70,0|2
208,200,55385,2,0,L|272:240,1,70,2|2
280,168,55710,2,0,L|344:208,1,70,0|8
424,144,56279,1,8
360,64,56523,1,8
360,144,56685,6,0,L|312:144,1,35
288,144,56848,2,0,L|248:144,1,35
184,144,57092,2,0,L|136:144,2,35,0|0|2
184,144,57336,5,2
184,216,57498,2,0,L|256:264,1,70,2|0
272,272,57742,1,0
304,288,57823,1,2
304,288,57986,5,2
240,256,58148,2,0,L|240:176,1,70,2|0
240,152,58392,1,0
240,120,58473,1,2
320,64,58636,6,0,L|400:64|432:96,2,105,8|8|8
320,136,59286,6,0,L|360:136,1,35,2|2
392,136,59449,2,0,L|424:168,1,35,2|2
424,192,59611,2,0,L|424:240,2,35,2|2|2
336,224,59936,5,2
312,288,60099,2,0,L|248:312,1,35,2|0
248,304,60261,1,0
212,300,60343,2,0,L|148:276,1,35,0|2
248,272,60587,5,2
248,200,60749,1,2
248,128,60912,2,0,L|248:72,2,35
176,128,61237,5,8
248,48,61481,1,8
320,128,61724,1,8
248,128,61887,2,0,B|248:208,1,70,2|2
205,254,62212,2,0,B|237:294,1,35,2|2
262,282,62375,2,0,B|294:242,1,35,2|0
304,224,62537,6,0,B|344:160,1,70,2|2
360,136,62781,1,0
378,106,62862,2,0,B|402:66,3,35,0|0|2|0
360,72,63187,6,0,B|296:72,1,35,2|2
288,72,63350,2,0,B|232:72,1,35,2|2
216,72,63512,2,0,B|152:72,1,35
144,72,63675,2,0,B|80:72,1,35,2|0
72,72,63837,5,8
128,160,64081,1,8
192,248,64325,1,8
256,192,64488,12,4,65138
304,56,70339,5,0
478,137,70665,1,2
396,312,70990,1,0
222,230,71315,1,8
319,99,71640,5,0
264,215,71965,1,2
380,269,72290,1,0
435,153,72615,1,8
232,96,72940,6,0,B|168:24|80:96,1,140,0|2
88,216,73590,2,0,B|152:288|240:216,1,140,0|8
348,51,74241,5,8
468,259,74566,1,8
392,128,74890,1,2
424,183,75053,1,2
360,184,75216,6,0,B|345:195,8,17.5,0|0|0|0|0|0|0|0|4
272,296,75866,6,0,B|208:336|136:288,1,140,8|0
208,312,76354,2,0,B|208:232|208:232,1,70,0|8
328,176,76841,5,0
328,176,77085,2,0,B|424:120|424:120,1,105,0|2
418,124,77573,1,0
328,176,77817,1,8
96,312,78142,6,0,L|40:264|96:192,1,140
176,312,78467,2,0,L|232:264|176:192,1,140
136,168,78792,1,2
136,168,78955,1,2
136,96,79117,2,0,L|107:67,1,35
136,96,79280,2,0,L|164:67,1,35
264,48,79442,6,0,B|352:24|384:120,1,140
312,232,79767,2,0,B|224:256|192:160,1,140
336,160,80092,2,0,L|460:247,1,140,2|2
336,160,80417,1,0
448,240,80580,1,0
294,302,80743,6,0,B|251:359|176:317,1,105,2|0
168,312,81068,2,0,B|103:273|113:187,1,140,8|2
136,128,81556,2,0,B|207:91|207:91,1,70,0|8
408,64,82043,5,0
249,86,82287,1,2
221,243,82531,1,0
363,318,82774,1,0
478,207,83018,1,8
272,176,83343,5,2
272,176,83506,2,0,B|208:232,1,70,2|0
272,177,83831,1,2
272,177,83994,2,0,B|255:93,1,70,2|2
272,177,84319,2,0,B|352:204,1,70,0|2
296,296,84644,5,0
136,288,84888,1,0
112,136,85131,1,8
199,92,85294,2,0,B|255:95,1,35,2|2
280,109,85456,2,0,B|320:144,1,35,2|2
328,176,85619,2,0,B|338:216,2,35,2|2|2
416,120,85944,6,0,B|479:152|451:233,1,105,2|0
447,242,86269,2,0,B|419:312|333:317,1,140,8|2
272,320,86757,2,0,B|200:323|184:239,1,105,0|0
64,168,87488,5,2
120,80,87732,1,0
224,64,87976,1,0
168,152,88220,1,8
400,256,88545,6,0,B|328:328|264:224,1,140
280,248,88870,2,0,B|208:176|136:264,1,140
96,280,89195,1,2
96,280,89358,1,2
96,208,89520,2,0,L|67:179,1,35
72,144,89683,2,0,L|100:115,1,35
216,104,89845,6,0,B|256:29|343:57,1,140
216,104,90170,2,0,B|260:176|192:237,1,140
216,104,90495,2,0,B|130:105|111:16,1,140,2|2
216,104,90820,1,0
216,104,90983,1,0
216,104,91146,5,2
344,168,91471,2,0,B|316:238|230:243,1,140,8|0
176,240,91959,2,0,B|104:243|88:159,1,105,2|0
120,88,92690,5,2
208,32,92934,1,0
120,88,93178,1,0
208,32,93422,1,8
392,120,93746,6,0,B|392:192,1,70,2|2
456,160,94072,1,0
456,160,94234,1,2
392,192,94397,2,0,B|312:192,1,70,2|2
392,192,94722,1,0
322,192,94884,1,2
256,272,95047,5,0
120,192,95291,1,0
256,112,95535,1,8
256,192,95697,12,4,96347
