osu file format v7

[General]
AudioFilename: Revelation.MP3
AudioLeadIn: 0
PreviewTime: 10522
Countdown: 0
SampleSet: Soft
StackLeniency: 0.7
Mode: 0
LetterboxInBreaks: 1

[Editor]
DistanceSpacing: 0.800000011920929
BeatDivisor: 4
GridSize: 8

[Metadata]
Title:Revelation
Artist:Spring Head
Creator:uranuss8600
Version:EZ
Source:
Tags:ez2on ez2dj DJNightmare

[Difficulty]
HPDrainRate:2
CircleSize:3
OverallDifficulty:2
SliderMultiplier:1
SliderTickRate:1

[Events]
//Background and Video events
0,0,"ezez.jpg"
Video,0,"revelation.flv"
//Break Periods
2,34129,34969
2,39330,40171
2,65338,68779
//Storyboard Layer 0 (Background)
//Storyboard Layer 1 (Fail)
//Storyboard Layer 2 (Pass)
//Storyboard Layer 3 (Foreground)
//Storyboard Sound Samples
//Background Colour Transformations
3,100,163,162,255

[TimingPoints]
119,325.097529258778,4,2,1,80,1,0
119,-100,4,2,1,55,0,0
10522,325.097529258778,4,2,1,80,1,0
15642,-100,4,2,1,80,0,0
51971,-100,4,2,1,20,0,0
54572,-100,4,2,1,80,0,0

[Colours]
Combo1 : 0,249,0
Combo2 : 0,210,255
Combo3 : 252,86,243

[HitObjects]
24,48,10522,5,4
160,336,11822,1,0
304,48,13122,1,0
448,336,14423,1,0
216,112,15723,6,0,B|128:32|24:120,1,200
144,224,17023,2,0,B|232:304|336:216,1,200,2|0
440,112,18324,6,0,B|352:32|248:120,1,200
336,248,19624,2,0,B|248:328|144:240,1,200,2|0
96,192,20600,1,8
96,192,20925,5,4
368,32,22225,1,0
368,352,23525,1,0
104,168,24826,1,0
176,128,25151,1,8
240,176,25476,1,0
208,248,25801,1,8
128,244,26126,5,0
448,192,27427,1,0
128,144,28727,1,0
448,112,30027,1,0
376,144,30352,1,8
304,176,30678,1,0
232,208,31003,1,8
256,192,31328,12,0,33929
256,192,36529,12,0,39130
291,287,41731,6,0,B|227:247|203:191|227:127|296:84,1,250,6|0
407,51,43031,2,0,B|479:139|479:243|398:336,1,300,2|0
351,267,44332,6,0,B|311:331|255:355|191:331|148:262,1,250,2|0
115,151,45632,2,0,B|203:79|307:79|400:160,1,300,2|0
454,105,46932,6,0,B|518:145|542:201|518:265|449:308,1,250,2|0
391,206,48232,2,0,B|303:278|199:278|106:197,1,300,2|0
91,282,49533,6,0,B|27:242|3:186|27:122|96:79,1,250,2|0
208,49,50834,2,0,B|280:137|280:241|199:334,1,300,2|0
256,192,52134,12,0,54410
84,124,54735,6,0,B|287:80,1,200,0|8
424,148,56035,2,0,B|221:192,1,200,0|8
286,339,57336,6,0,B|83:295,1,200,0|8
229,216,58636,2,0,B|432:260,1,200,0|8
425,98,59936,6,0,B|222:142,1,200,0|8
347,248,61237,2,0,B|144:292,1,200,0|8
149,130,62537,6,0,B|352:174,1,200,0|8
227,280,63838,2,0,B|430:324,1,200,0|8
358,175,65138,5,4
471,47,70339,5,0
335,335,71639,1,2
191,47,72939,1,0
47,335,74240,1,2
364,291,75541,6,0,B|428:251|452:195|428:131|359:88,1,250,6|0
248,55,76841,2,0,B|176:143|176:247|257:340,1,300,2|0
321,296,78142,6,0,B|423:251,1,100,2|2
377,183,78792,2,0,B|275:228,1,100,2|2
252,150,79442,2,0,B|354:105,2,100
178,180,80417,1,0
136,111,80743,6,0,B|72:151|48:207|72:271|141:314,1,250,2|0
250,352,82043,2,0,B|322:264|322:160|241:67,1,300,2|0
192,128,83343,5,0
112,128,83668,2,0,B|112:240,1,100
192,224,84319,1,0
272,224,84644,2,0,B|272:104,1,100,0|2
352,128,85294,1,0
352,128,85619,1,2
408,72,85944,6,0,B|472:112|496:168|472:232|403:275,1,250,2|0
292,308,87244,2,0,B|220:220|220:116|301:23,1,300,2|0
344,96,88545,6,0,B|446:141,1,100,2|2
376,192,89195,2,0,B|478:237,1,100,2|2
400,280,89845,2,0,B|502:325,2,100
325,250,90820,1,0
248,280,91146,6,0,B|184:240|160:184|184:120|253:77,1,250,2|0
368,56,92446,2,0,B|440:144|440:248|359:341,1,300,2|0
304,280,93746,5,0
248,216,94071,2,0,B|168:128,1,100
128,80,94722,1,0
208,64,95047,2,0,B|328:64,2,100,2|2|0
128,80,96022,1,2
128,80,96347,5,4
