osu file format v13

[General]
AudioFilename: Audio.mp3
AudioLeadIn: 0
PreviewTime: 498
Countdown: 0
SampleSet: Normal
StackLeniency: 0.7
Mode: 1
LetterboxInBreaks: 0
WidescreenStoryboard: 0

[Editor]
DistanceSpacing: 0.8
BeatDivisor: 4
GridSize: 32
TimelineZoom: 1

[Metadata]
Title:Let Me Hit It
TitleUnicode:Let Me Hit It
Artist:Sporty-O
ArtistUnicode:Sporty-O
Creator:Neku okazaki
Version:Oni
Source:
Tags:Dubstep cut ver audiostalkers original mix
BeatmapID:538313
BeatmapSetID:231701

[Difficulty]
HPDrainRate:7
CircleSize:2
OverallDifficulty:6
ApproachRate:5
SliderMultiplier:1.4
SliderTickRate:1

[Events]
//Background and Video events
0,0,"BG.png",0,0
//Break Periods
//Storyboard Layer 0 (Background)
//Storyboard Layer 1 (Fail)
//Storyboard Layer 2 (Pass)
//Storyboard Layer 3 (Foreground)
//Storyboard Sound Samples

[TimingPoints]
517,468.75,4,1,0,80,1,0

[HitObjects]
256,192,517,5,0,0:0:0:0:
256,192,985,1,0,0:0:0:0:
256,192,1454,1,8,0:0:0:0:
256,192,1923,1,8,0:0:0:0:
256,192,2274,1,8,0:0:0:0:
256,192,2392,1,0,0:0:0:0:
256,192,2626,1,0,0:0:0:0:
256,192,2860,1,8,0:0:0:0:
256,192,3095,1,8,0:0:0:0:
256,192,3329,1,0,0:0:0:0:
256,192,3446,1,8,0:0:0:0:
256,192,3563,1,0,0:0:0:0:
256,192,3798,1,8,0:0:0:0:
256,192,4032,1,8,0:0:0:0:
256,192,4267,1,0,0:0:0:0:
256,192,4735,1,0,0:0:0:0:
256,192,5204,1,8,0:0:0:0:
256,192,5673,1,8,0:0:0:0:
256,192,6142,1,8,0:0:0:0:
256,192,6259,1,8,0:0:0:0:
256,192,6376,1,0,0:0:0:0:
256,192,6493,1,0,0:0:0:0:
256,192,6610,1,8,0:0:0:0:
256,192,6845,1,8,0:0:0:0:
256,192,7079,1,0,0:0:0:0:
256,192,7196,1,0,0:0:0:0:
256,192,7313,1,8,0:0:0:0:
256,192,7548,1,8,0:0:0:0:
256,192,7665,1,8,0:0:0:0:
256,192,7782,1,0,0:0:0:0:
256,192,7899,1,8,0:0:0:0:
256,192,8017,1,0,0:0:0:0:
256,192,8485,1,0,0:0:0:0:
256,192,8954,1,8,0:0:0:0:
256,192,9423,1,8,0:0:0:0:
256,192,9774,1,8,0:0:0:0:
256,192,9892,1,0,0:0:0:0:
256,192,10126,1,0,0:0:0:0:
256,192,10360,1,8,0:0:0:0:
256,192,10595,1,8,0:0:0:0:
256,192,10829,1,0,0:0:0:0:
256,192,10946,1,8,0:0:0:0:
256,192,11063,1,0,0:0:0:0:
256,192,11298,1,8,0:0:0:0:
256,192,11532,1,8,0:0:0:0:
256,192,11767,1,0,0:0:0:0:
256,192,12235,1,0,0:0:0:0:
256,192,12704,1,8,0:0:0:0:
256,192,13173,1,8,0:0:0:0:
256,192,13642,1,8,0:0:0:0:
256,192,13759,1,8,0:0:0:0:
256,192,13876,1,0,0:0:0:0:
256,192,13993,1,0,0:0:0:0:
256,192,14110,1,8,0:0:0:0:
256,192,14227,1,0,0:0:0:0:
256,192,14345,1,8,0:0:0:0:
256,192,14462,1,8,0:0:0:0:
256,192,14579,1,0,0:0:0:0:
256,192,15517,1,0,0:0:0:0:
256,192,15985,1,0,0:0:0:0:
256,192,16454,1,8,0:0:0:0:
256,192,16923,1,8,0:0:0:0:
256,192,17274,1,8,0:0:0:0:
256,192,17392,1,0,0:0:0:0:
256,192,17626,1,0,0:0:0:0:
256,192,17860,1,8,0:0:0:0:
256,192,18095,1,8,0:0:0:0:
256,192,18329,1,0,0:0:0:0:
256,192,18563,1,0,0:0:0:0:
256,192,18681,1,0,0:0:0:0:
256,192,18798,1,8,0:0:0:0:
256,192,19032,1,8,0:0:0:0:
256,192,19267,1,0,0:0:0:0:
256,192,19735,1,0,0:0:0:0:
256,192,20204,1,8,0:0:0:0:
256,192,20673,1,8,0:0:0:0:
256,192,21142,1,8,0:0:0:0:
256,192,21259,1,8,0:0:0:0:
256,192,21376,1,0,0:0:0:0:
256,192,21493,1,8,0:0:0:0:
256,192,21610,1,0,0:0:0:0:
256,192,21845,1,8,0:0:0:0:
256,192,22079,1,0,0:0:0:0:
256,192,22196,1,0,0:0:0:0:
256,192,22313,1,8,0:0:0:0:
256,192,22431,1,0,0:0:0:0:
256,192,22548,1,8,0:0:0:0:
256,192,22782,1,8,0:0:0:0:
256,192,22899,1,8,0:0:0:0:
256,192,23017,1,0,0:0:0:0:
256,192,23485,1,0,0:0:0:0:
256,192,23954,1,8,0:0:0:0:
256,192,24423,1,8,0:0:0:0:
256,192,24774,1,8,0:0:0:0:
256,192,24892,1,0,0:0:0:0:
256,192,25126,1,0,0:0:0:0:
256,192,25360,1,8,0:0:0:0:
256,192,25595,1,8,0:0:0:0:
256,192,25829,1,0,0:0:0:0:
256,192,26063,1,0,0:0:0:0:
256,192,26181,1,0,0:0:0:0:
256,192,26298,1,8,0:0:0:0:
256,192,26532,1,8,0:0:0:0:
256,192,26767,1,0,0:0:0:0:
256,192,27235,1,0,0:0:0:0:
256,192,27704,1,8,0:0:0:0:
256,192,28173,1,8,0:0:0:0:
256,192,28642,1,0,0:0:0:0:
256,192,28798,1,0,0:0:0:0:
256,192,28954,1,0,0:0:0:0:
256,192,29110,1,8,0:0:0:0:
256,192,29267,1,8,0:0:0:0:
256,192,29423,1,8,0:0:0:0:
256,192,29579,1,0,0:0:0:0:
256,192,29735,1,0,0:0:0:0:
256,192,29892,1,0,0:0:0:0:
256,192,30048,1,8,0:0:0:0:
256,192,30204,1,0,0:0:0:0:
256,192,30360,1,0,0:0:0:0:
256,192,30517,1,8,0:0:0:0:
