osu file format v14

[General]
AudioFilename: Audio.mp3
AudioLeadIn: 0
PreviewTime: 498
Countdown: 0
SampleSet: Normal
StackLeniency: 0.7
Mode: 1
LetterboxInBreaks: 0
WidescreenStoryboard: 0

[Editor]
DistanceSpacing: 0.8
BeatDivisor: 4
GridSize: 32
TimelineZoom: 1

[Metadata]
Title:Let Me Hit It
TitleUnicode:Let Me Hit It
Artist:Sporty-O
ArtistUnicode:Sporty-O
Creator:Neku okazaki
Version:Futsuu
Source:
Tags:Dubstep cut ver audiostalkers original mix
BeatmapID:538310
BeatmapSetID:231701

[Difficulty]
HPDrainRate:5
CircleSize:2
OverallDifficulty:4
ApproachRate:3
SliderMultiplier:1.4
SliderTickRate:1

[Events]
//Background and Video events
0,0,"BG.png",0,0
//Break Periods
//Storyboard Layer 0 (Background)
//Storyboard Layer 1 (Fail)
//Storyboard Layer 2 (Pass)
//Storyboard Layer 3 (Foreground)
//Storyboard Sound Samples

[TimingPoints]
517,468.75,4,1,0,80,1,0

[HitObjects]
256,192,517,5,0,0:0:0:0:
256,192,1454,1,8,0:0:0:0:
256,192,2392,1,8,0:0:0:0:
256,192,2860,1,0,0:0:0:0:
256,192,3329,1,8,0:0:0:0:
256,192,3798,1,8,0:0:0:0:
256,192,4032,1,8,0:0:0:0:
256,192,4267,1,0,0:0:0:0:
256,192,5204,1,8,0:0:0:0:
256,192,6142,1,8,0:0:0:0:
256,192,6376,1,0,0:0:0:0:
256,192,6610,1,0,0:0:0:0:
256,192,7079,1,0,0:0:0:0:
256,192,7548,1,8,0:0:0:0:
256,192,7782,1,0,0:0:0:0:
256,192,8017,1,0,0:0:0:0:
256,192,8954,1,8,0:0:0:0:
256,192,9892,1,0,0:0:0:0:
256,192,10360,1,8,0:0:0:0:
256,192,10829,1,0,0:0:0:0:
256,192,11298,1,8,0:0:0:0:
256,192,11532,1,8,0:0:0:0:
256,192,11767,1,0,0:0:0:0:
256,192,12704,1,8,0:0:0:0:
256,192,13642,1,0,0:0:0:0:
256,192,14110,1,8,0:0:0:0:
256,192,14579,1,8,0:0:0:0:
256,192,15517,1,0,0:0:0:0:
256,192,16454,1,8,0:0:0:0:
256,192,17392,1,0,0:0:0:0:
256,192,17860,1,8,0:0:0:0:
256,192,18329,1,0,0:0:0:0:
256,192,18798,1,8,0:0:0:0:
256,192,19032,1,8,0:0:0:0:
256,192,19267,1,0,0:0:0:0:
256,192,20204,1,8,0:0:0:0:
256,192,21142,1,0,0:0:0:0:
256,192,21376,1,0,0:0:0:0:
256,192,21610,1,8,0:0:0:0:
256,192,22079,1,8,0:0:0:0:
256,192,22313,1,0,0:0:0:0:
256,192,22548,1,8,0:0:0:0:
256,192,23017,1,0,0:0:0:0:
256,192,23954,1,8,0:0:0:0:
256,192,24892,1,0,0:0:0:0:
256,192,25126,1,0,0:0:0:0:
256,192,25360,1,8,0:0:0:0:
256,192,25829,1,8,0:0:0:0:
256,192,26298,1,8,0:0:0:0:
256,192,26532,1,8,0:0:0:0:
256,192,26767,1,0,0:0:0:0:
256,192,27704,1,8,0:0:0:0:
256,192,28642,1,0,0:0:0:0:
256,192,29110,1,0,0:0:0:0:
256,192,29579,1,0,0:0:0:0:
256,192,30048,1,8,0:0:0:0:
256,192,30517,1,0,0:0:0:0:
