osu file format v13

[General]
AudioFilename: Sporty-O - Let Me Hit It.mp3
AudioLeadIn: 0
PreviewTime: 74129
Countdown: 0
SampleSet: Normal
StackLeniency: 0.7
Mode: 3
LetterboxInBreaks: 0
SpecialStyle: 0
WidescreenStoryboard: 0

[Editor]
DistanceSpacing: 0.8
BeatDivisor: 4
GridSize: 4
TimelineZoom: 0.9000001

[Metadata]
Title:Let Me Hit It
TitleUnicode:Let Me Hit It
Artist:Sporty-O
ArtistUnicode:Sporty-O
Creator:DrawdeX
Version:4K NM
Source:
Tags:audiostalkers original mix short version Maou - sama ExUsagi xLoupGarou
BeatmapID:434317
BeatmapSetID:180812

[Difficulty]
HPDrainRate:7
CircleSize:4
OverallDifficulty:6
ApproachRate:5
SliderMultiplier:1.4
SliderTickRate:1

[Events]
//Background and Video events
0,0,"bg.png",0,0
//Break Periods
//Storyboard Layer 0 (Background)
//Storyboard Layer 1 (Fail)
//Storyboard Layer 2 (Pass)
//Storyboard Layer 3 (Foreground)
//Storyboard Sound Samples
//Background Colour Transformations
3,100,163,162,255

[TimingPoints]
67,468.75,4,1,1,60,1,0
75067,-100,4,1,1,60,0,1
105067,-100,4,1,1,60,0,0

[HitObjects]
192,192,67,5,0,0:0:0:0:
320,192,535,1,8,0:0:0:0:
192,192,1004,1,0,0:0:0:0:
320,192,1473,5,8,0:0:0:0:
64,192,1707,1,0,0:0:0:0:
192,192,1707,128,0,1942:0:0:0:0:
448,192,1942,1,0,0:0:0:0:
64,192,2410,1,8,0:0:0:0:
448,192,2879,1,0,0:0:0:0:
64,192,3348,1,8,0:0:0:0:
448,192,3582,1,0,0:0:0:0:
320,192,3582,128,0,3817:0:0:0:0:
192,192,3817,1,0,0:0:0:0:
320,192,4285,1,8,0:0:0:0:
192,192,4754,1,0,0:0:0:0:
448,192,5223,1,8,0:0:0:0:
64,192,5457,1,0,0:0:0:0:
192,192,5457,128,0,5692:0:0:0:0:
320,192,5692,1,0,0:0:0:0:
448,192,6160,1,8,0:0:0:0:
320,192,6629,128,2,6863:0:0:0:0:
64,192,6629,1,0,0:0:0:0:
192,192,7098,128,2,7332:0:0:0:0:
448,192,7098,1,0,0:0:0:0:
64,192,7567,1,0,0:0:0:0:
320,192,8035,1,8,0:0:0:0:
192,192,8504,1,0,0:0:0:0:
320,192,8973,1,8,0:0:0:0:
64,192,9207,1,0,0:0:0:0:
192,192,9207,128,0,9442:0:0:0:0:
448,192,9442,1,0,0:0:0:0:
64,192,9910,1,8,0:0:0:0:
448,192,10379,1,0,0:0:0:0:
64,192,10848,1,8,0:0:0:0:
320,192,11082,1,0,0:0:0:0:
448,192,11082,128,0,11317:0:0:0:0:
192,192,11317,1,0,0:0:0:0:
320,192,11785,1,8,0:0:0:0:
192,192,12254,1,0,0:0:0:0:
448,192,12723,1,8,0:0:0:0:
192,192,12957,1,0,0:0:0:0:
64,192,12957,128,0,13192:0:0:0:0:
320,192,13192,1,0,0:0:0:0:
64,192,13660,1,8,0:0:0:0:
320,192,14129,128,2,14363:0:0:0:0:
64,192,14129,1,0,0:0:0:0:
192,192,14598,128,2,14832:0:0:0:0:
448,192,14598,1,0,0:0:0:0:
448,192,15067,128,0,16942:0:0:0:0:
192,192,15535,1,8,0:0:0:0:
64,192,16004,1,0,0:0:0:0:
192,192,16473,1,8,0:0:0:0:
64,192,16942,128,0,18817:0:0:0:0:
320,192,17410,1,8,0:0:0:0:
448,192,17879,1,0,0:0:0:0:
320,192,18348,1,8,0:0:0:0:
192,192,18817,128,0,20692:0:0:0:0:
448,192,19285,1,8,0:0:0:0:
320,192,19754,1,0,0:0:0:0:
448,192,20223,1,8,0:0:0:0:
320,192,20692,128,0,22567:0:0:0:0:
64,192,21160,1,8,0:0:0:0:
192,192,21629,1,0,0:0:0:0:
448,192,22098,128,2,22567:0:0:0:0:
64,192,22567,1,0,0:0:0:0:
448,192,23035,1,8,0:0:0:0:
64,192,23504,1,0,0:0:0:0:
192,192,23973,1,8,0:0:0:0:
448,192,24442,1,0,0:0:0:0:
192,192,24910,1,8,0:0:0:0:
320,192,25379,1,0,0:0:0:0:
64,192,25848,128,10,26317:0:0:0:0:
320,192,26317,1,0,0:0:0:0:
448,192,26785,1,8,0:0:0:0:
192,192,27254,1,0,0:0:0:0:
320,192,27723,1,8,0:0:0:0:
64,192,28192,1,0,0:0:0:0:
192,192,28660,1,8,0:0:0:0:
448,192,29129,1,0,0:0:0:0:
320,192,29598,128,10,30067:0:0:0:0:
64,192,30067,128,2,31942:0:0:0:0:
448,192,30535,1,8,0:0:0:0:
320,192,31004,1,0,0:0:0:0:
448,192,31473,1,8,0:0:0:0:
320,192,31942,128,2,33817:0:0:0:0:
192,192,32410,1,8,0:0:0:0:
64,192,32879,1,0,0:0:0:0:
192,192,33348,1,8,0:0:0:0:
64,192,33817,128,2,35692:0:0:0:0:
448,192,34285,1,8,0:0:0:0:
320,192,34754,1,0,0:0:0:0:
448,192,35223,1,8,0:0:0:0:
320,192,35692,128,2,37567:0:0:0:0:
192,192,36160,1,8,0:0:0:0:
64,192,36629,1,0,0:0:0:0:
192,192,37098,1,8,0:0:0:0:
64,192,37567,128,0,38035:0:0:0:0:
320,192,38035,128,0,38504:0:0:0:0:
192,192,38035,1,8,0:0:0:0:
192,192,38504,128,0,38973:0:0:0:0:
448,192,38973,128,0,39442:0:0:0:0:
64,192,38973,1,8,0:0:0:0:
192,192,39442,128,0,39910:0:0:0:0:
64,192,39910,128,0,40379:0:0:0:0:
320,192,39910,1,8,0:0:0:0:
448,192,40379,128,0,40848:0:0:0:0:
320,192,40848,128,0,41317:0:0:0:0:
64,192,40848,1,8,0:0:0:0:
192,192,41317,128,0,41785:0:0:0:0:
64,192,41785,128,0,42254:0:0:0:0:
320,192,41785,1,8,0:0:0:0:
448,192,42254,128,0,42723:0:0:0:0:
320,192,42723,128,0,43192:0:0:0:0:
192,192,42723,1,8,0:0:0:0:
64,192,43192,128,0,43660:0:0:0:0:
448,192,43660,128,0,44129:0:0:0:0:
192,192,43660,1,8,0:0:0:0:
64,192,44129,1,0,0:0:0:0:
448,192,44363,1,0,0:0:0:0:
64,192,44598,1,0,0:0:0:0:
448,192,44832,1,0,0:0:0:0:
192,192,45067,128,0,46004:0:0:0:0:
448,192,46004,1,6,0:0:0:0:
64,192,46473,1,8,0:0:0:0:
192,192,46473,1,0,0:0:0:0:
320,192,46942,128,0,47879:0:0:0:0:
64,192,47879,1,6,0:0:0:0:
448,192,48348,1,8,0:0:0:0:
320,192,48348,1,0,0:0:0:0:
64,192,48582,1,8,0:0:0:0:
192,192,48817,128,0,49754:0:0:0:0:
448,192,49754,1,6,0:0:0:0:
64,192,50223,1,0,0:0:0:0:
192,192,50223,1,8,0:0:0:0:
320,192,50692,128,0,51629:0:0:0:0:
64,192,51629,1,6,0:0:0:0:
448,192,52098,1,8,0:0:0:0:
320,192,52098,1,0,0:0:0:0:
192,192,52332,1,8,0:0:0:0:
64,192,52567,128,0,53035:0:0:0:0:
448,192,52567,1,0,0:0:0:0:
320,192,53035,1,8,0:0:0:0:
448,192,53504,128,0,53973:0:0:0:0:
64,192,53504,1,0,0:0:0:0:
192,192,53973,1,8,0:0:0:0:
64,192,54442,128,0,54910:0:0:0:0:
448,192,54442,1,0,0:0:0:0:
320,192,54910,1,8,0:0:0:0:
448,192,55379,128,0,55848:0:0:0:0:
64,192,55379,1,0,0:0:0:0:
192,192,55848,1,8,0:0:0:0:
64,192,56317,128,0,56785:0:0:0:0:
448,192,56317,1,0,0:0:0:0:
320,192,56785,1,8,0:0:0:0:
448,192,57254,128,0,57723:0:0:0:0:
64,192,57254,1,0,0:0:0:0:
192,192,57723,1,8,0:0:0:0:
64,192,58192,128,0,58660:0:0:0:0:
448,192,58192,1,0,0:0:0:0:
320,192,58660,1,8,0:0:0:0:
441,198,59129,128,0,59598:0:0:0:0:
64,192,59129,1,0,0:0:0:0:
192,192,59598,1,8,0:0:0:0:
320,192,59832,1,8,0:0:0:0:
64,192,60067,128,0,60535:0:0:0:0:
448,192,60067,1,0,0:0:0:0:
448,192,60535,128,2,61004:0:0:0:0:
192,192,60535,1,0,0:0:0:0:
192,192,61004,128,0,61473:0:0:0:0:
320,192,61004,1,0,0:0:0:0:
320,192,61473,128,2,61942:0:0:0:0:
64,192,61473,1,0,0:0:0:0:
64,192,61942,128,0,62410:0:0:0:0:
448,192,61942,1,0,0:0:0:0:
448,192,62410,128,2,62879:0:0:0:0:
192,192,62410,1,0,0:0:0:0:
192,192,62879,128,0,63348:0:0:0:0:
320,192,62879,1,0,0:0:0:0:
320,192,63348,128,2,63817:0:0:0:0:
64,192,63348,1,0,0:0:0:0:
64,192,63817,128,0,64285:0:0:0:0:
448,192,63817,1,0,0:0:0:0:
448,192,64285,128,2,64754:0:0:0:0:
192,192,64285,1,0,0:0:0:0:
192,192,64754,128,0,65223:0:0:0:0:
320,192,64754,1,0,0:0:0:0:
320,192,65223,128,2,65692:0:0:0:0:
64,192,65223,1,0,0:0:0:0:
64,192,65692,128,0,66160:0:0:0:0:
448,192,65692,1,0,0:0:0:0:
448,192,66160,128,2,66629:0:0:0:0:
192,192,66160,1,0,0:0:0:0:
192,192,66629,128,0,67098:0:0:0:0:
320,192,66629,1,0,0:0:0:0:
316,192,67098,128,2,67567:0:0:0:0:
64,192,67098,1,0,0:0:0:0:
192,192,67567,1,0,0:0:0:0:
320,192,67801,1,0,0:0:0:0:
192,192,68035,1,8,0:0:0:0:
320,192,68270,1,0,0:0:0:0:
192,192,68504,1,0,0:0:0:0:
320,192,68738,1,0,0:0:0:0:
192,192,68973,1,8,0:0:0:0:
320,192,69207,1,0,0:0:0:0:
61,192,69442,1,0,0:0:0:0:
448,192,69676,1,0,0:0:0:0:
64,192,69910,1,8,0:0:0:0:
448,192,70145,1,0,0:0:0:0:
64,192,70379,1,0,0:0:0:0:
448,192,70613,1,0,0:0:0:0:
61,192,70848,1,8,0:0:0:0:
448,192,71082,1,0,0:0:0:0:
192,192,71317,128,2,71785:0:0:0:0:
320,192,71317,1,0,0:0:0:0:
320,192,71785,128,2,72254:0:0:0:0:
64,192,71785,1,0,0:0:0:0:
64,192,72254,128,2,72723:0:0:0:0:
448,192,72254,1,0,0:0:0:0:
448,192,72723,128,2,73192:0:0:0:0:
192,192,72723,1,0,0:0:0:0:
192,192,73192,128,2,73660:0:0:0:0:
320,192,73192,1,0,0:0:0:0:
320,192,73660,128,2,74129:0:0:0:0:
64,192,73660,1,0,0:0:0:0:
64,192,74129,1,4,0:0:0:0:
448,192,74129,1,0,0:0:0:0:
320,192,74598,1,0,0:0:0:0:
320,192,74832,1,0,0:0:0:0:
64,192,75067,1,0,0:0:0:0:
443,192,75067,128,2,75535:0:0:0:0:
320,192,75535,128,2,76004:0:0:0:0:
64,192,75535,1,0,0:0:0:0:
192,192,76004,128,2,76473:0:0:0:0:
448,192,76004,1,0,0:0:0:0:
64,192,76473,128,2,76942:0:0:0:0:
448,192,76473,1,0,0:0:0:0:
448,192,76942,1,0,0:0:0:0:
192,192,77176,1,0,0:0:0:0:
320,192,77410,1,8,0:0:0:0:
448,192,77645,1,0,0:0:0:0:
192,192,77879,1,0,0:0:0:0:
448,192,78113,1,0,0:0:0:0:
320,192,78348,1,8,0:0:0:0:
192,192,78582,1,0,0:0:0:0:
64,192,78817,128,2,79285:0:0:0:0:
448,192,78817,1,0,0:0:0:0:
192,192,79285,128,2,79754:0:0:0:0:
448,192,79285,1,0,0:0:0:0:
320,192,79754,128,2,80223:0:0:0:0:
64,192,79754,1,0,0:0:0:0:
448,192,80223,128,2,80692:0:0:0:0:
64,192,80223,1,0,0:0:0:0:
320,192,80692,1,0,0:0:0:0:
320,192,80926,1,0,0:0:0:0:
192,192,81160,1,8,0:0:0:0:
192,192,81395,1,0,0:0:0:0:
448,192,81629,1,0,0:0:0:0:
448,192,81863,1,0,0:0:0:0:
64,192,82098,1,8,0:0:0:0:
64,192,82332,1,0,0:0:0:0:
64,192,82567,1,0,0:0:0:0:
448,192,82567,128,2,83035:0:0:0:0:
320,192,83035,128,2,83504:0:0:0:0:
64,192,83035,1,0,0:0:0:0:
192,192,83504,128,2,83973:0:0:0:0:
448,192,83504,1,0,0:0:0:0:
64,192,83973,128,2,84442:0:0:0:0:
448,192,83973,1,0,0:0:0:0:
448,192,84442,1,0,0:0:0:0:
192,192,84676,1,0,0:0:0:0:
320,192,84910,1,8,0:0:0:0:
64,192,85145,1,0,0:0:0:0:
192,192,85379,1,0,0:0:0:0:
64,192,85613,1,0,0:0:0:0:
320,192,85848,1,8,0:0:0:0:
192,192,86082,1,0,0:0:0:0:
448,192,86317,1,0,0:0:0:0:
64,192,86317,128,2,86785:0:0:0:0:
192,192,86785,128,2,87254:0:0:0:0:
448,192,86785,1,0,0:0:0:0:
320,192,87254,128,2,87723:0:0:0:0:
64,192,87254,1,0,0:0:0:0:
448,192,87723,128,2,88192:0:0:0:0:
64,192,87723,1,0,0:0:0:0:
192,192,88192,1,0,0:0:0:0:
192,192,88426,1,0,0:0:0:0:
320,192,88660,1,8,0:0:0:0:
320,192,88895,1,0,0:0:0:0:
64,192,89129,128,2,89598:0:0:0:0:
448,192,89129,1,0,0:0:0:0:
448,192,89598,1,4,0:0:0:0:
448,192,90067,128,2,90535:0:0:0:0:
64,192,90067,1,0,0:0:0:0:
320,192,90535,128,2,91004:0:0:0:0:
64,192,90535,1,0,0:0:0:0:
192,192,91004,128,2,91473:0:0:0:0:
448,192,91004,1,0,0:0:0:0:
64,192,91473,128,2,91942:0:0:0:0:
448,192,91473,1,0,0:0:0:0:
448,192,91942,1,0,0:0:0:0:
192,192,92176,1,0,0:0:0:0:
320,192,92410,1,8,0:0:0:0:
64,192,92645,1,0,0:0:0:0:
192,192,92879,1,0,0:0:0:0:
448,192,93113,1,0,0:0:0:0:
320,192,93348,1,8,0:0:0:0:
192,192,93582,1,0,0:0:0:0:
448,192,93817,1,0,0:0:0:0:
64,192,93817,128,2,94285:0:0:0:0:
192,192,94285,128,2,94754:0:0:0:0:
448,192,94285,1,0,0:0:0:0:
320,192,94754,128,2,95223:0:0:0:0:
64,192,94754,1,0,0:0:0:0:
448,192,95223,128,2,95692:0:0:0:0:
64,192,95223,1,0,0:0:0:0:
320,192,95692,1,0,0:0:0:0:
320,192,95926,1,0,0:0:0:0:
192,192,96160,1,8,0:0:0:0:
192,192,96395,1,0,0:0:0:0:
448,192,96629,1,0,0:0:0:0:
448,192,96863,1,0,0:0:0:0:
64,192,97098,1,8,0:0:0:0:
64,192,97332,1,0,0:0:0:0:
448,192,97567,128,2,98035:0:0:0:0:
64,192,97567,1,0,0:0:0:0:
320,192,98035,128,2,98504:0:0:0:0:
64,192,98035,1,0,0:0:0:0:
192,192,98504,128,2,98973:0:0:0:0:
448,192,98504,1,0,0:0:0:0:
64,192,98973,128,2,99442:0:0:0:0:
448,192,98973,1,0,0:0:0:0:
448,192,99442,1,0,0:0:0:0:
192,192,99676,1,0,0:0:0:0:
320,192,99910,1,8,0:0:0:0:
64,192,100145,1,0,0:0:0:0:
192,192,100379,1,0,0:0:0:0:
64,192,100613,1,0,0:0:0:0:
320,192,100848,1,8,0:0:0:0:
192,192,101082,1,0,0:0:0:0:
64,192,101317,128,2,101785:0:0:0:0:
448,192,101317,1,0,0:0:0:0:
192,192,101785,128,2,102254:0:0:0:0:
448,192,101785,1,0,0:0:0:0:
320,192,102254,128,2,102723:0:0:0:0:
64,192,102254,1,0,0:0:0:0:
448,192,102723,128,2,103192:0:0:0:0:
64,192,102723,1,0,0:0:0:0:
64,192,103192,128,2,103660:0:0:0:0:
320,192,103192,1,0,0:0:0:0:
192,192,103660,128,2,104129:0:0:0:0:
448,192,103660,1,0,0:0:0:0:
448,192,104129,128,2,104598:0:0:0:0:
64,192,104129,1,0,0:0:0:0:
61,192,104598,128,2,105067:0:0:0:0:
320,192,104598,1,0,0:0:0:0:
317,192,105067,5,4,0:0:0:0:
192,192,105535,1,8,0:0:0:0:
320,192,106004,1,0,0:0:0:0:
192,192,106473,1,8,0:0:0:0:
64,192,106707,1,0,0:0:0:0:
320,192,106707,128,0,106942:0:0:0:0:
448,192,106942,1,0,0:0:0:0:
64,192,107410,1,8,0:0:0:0:
448,192,107879,1,0,0:0:0:0:
64,192,108348,1,8,0:0:0:0:
192,192,108348,128,0,108582:0:0:0:0:
448,192,108582,1,0,0:0:0:0:
320,192,108582,128,0,108817:0:0:0:0:
192,192,108817,1,0,0:0:0:0:
320,192,109285,1,8,0:0:0:0:
192,192,109754,1,0,0:0:0:0:
320,192,110223,1,8,0:0:0:0:
448,192,110457,1,0,0:0:0:0:
64,192,110692,1,0,0:0:0:0:
320,192,110692,128,0,111160:0:0:0:0:
192,192,110926,1,0,0:0:0:0:
448,192,111160,1,8,0:0:0:0:
64,192,111160,128,0,111629:0:0:0:0:
192,192,111395,1,0,0:0:0:0:
448,192,111629,1,0,0:0:0:0:
320,192,111629,128,0,112098:0:0:0:0:
192,192,111863,1,0,0:0:0:0:
448,192,112098,128,2,112567:0:0:0:0:
64,192,112098,1,8,0:0:0:0:
192,192,112332,1,0,0:0:0:0:
64,192,112567,1,0,0:0:0:0:
320,192,113035,1,8,0:0:0:0:
192,192,113504,1,0,0:0:0:0:
320,192,113973,1,8,0:0:0:0:
64,192,114207,1,0,0:0:0:0:
192,192,114207,128,0,114442:0:0:0:0:
448,192,114442,1,0,0:0:0:0:
64,192,114910,1,8,0:0:0:0:
320,192,115379,1,0,0:0:0:0:
192,192,115848,1,8,0:0:0:0:
64,192,116317,1,2,0:0:0:0:
192,192,116551,1,0,0:0:0:0:
448,192,116785,1,0,0:0:0:0:
192,192,117020,1,0,0:0:0:0:
64,192,117254,128,0,117723:0:0:0:0:
448,192,117254,1,2,0:0:0:0:
448,192,117723,128,0,118192:0:0:0:0:
192,192,117723,1,2,0:0:0:0:
64,192,118192,128,2,119598:0:0:0:0:
448,192,119598,1,4,0:0:0:0:
