osu file format v13

[General]
AudioFilename: Sporty-O - Let Me Hit It.mp3
AudioLeadIn: 0
PreviewTime: 74129
Countdown: 0
SampleSet: Normal
StackLeniency: 0.7
Mode: 3
LetterboxInBreaks: 0
SpecialStyle: 0
WidescreenStoryboard: 1

[Editor]
DistanceSpacing: 0.8
BeatDivisor: 4
GridSize: 4
TimelineZoom: 0.7

[Metadata]
Title:Let Me Hit It
TitleUnicode:Let Me Hit It
Artist:Sporty-O
ArtistUnicode:Sporty-O
Creator:DrawdeX
Version:4K HD
Source:
Tags:audiostalkers original mix short version Maou - sama ExUsagi xLoupGarou
BeatmapID:434315
BeatmapSetID:180812

[Difficulty]
HPDrainRate:7
CircleSize:4
OverallDifficulty:7
ApproachRate:5
SliderMultiplier:1.4
SliderTickRate:1

[Events]
//Background and Video events
0,0,"bg.png",0,0
//Break Periods
//Storyboard Layer 0 (Background)
//Storyboard Layer 1 (Fail)
//Storyboard Layer 2 (Pass)
//Storyboard Layer 3 (Foreground)
//Storyboard Sound Samples
//Background Colour Transformations
3,100,163,162,255

[TimingPoints]
67,468.75,4,1,1,60,1,0
74129,-16.6666666666667,4,1,1,60,0,0
74246,-500,4,1,1,60,0,0
74481,-250,4,1,1,60,0,0
74598,-125,4,1,1,60,0,0
75067,-100,4,1,1,60,0,1
76942,-500,4,1,1,60,0,1
77000,-83.3333333333333,4,1,1,60,0,1
77176,-500,4,1,1,60,0,1
77234,-83.3333333333333,4,1,1,60,0,1
77410,-500,4,1,1,60,0,1
77469,-83.3333333333333,4,1,1,60,0,1
77645,-500,4,1,1,60,0,1
77703,-83.3333333333333,4,1,1,60,0,1
77879,-500,4,1,1,60,0,1
77938,-83.3333333333333,4,1,1,60,0,1
78113,-500,4,1,1,60,0,1
78172,-83.3333333333333,4,1,1,60,0,1
78348,-500,4,1,1,60,0,1
78404,-83.3333333333333,4,1,1,60,0,1
78582,-500,4,1,1,60,0,1
78641,-83.3333333333333,4,1,1,60,0,1
78817,-100,4,1,1,60,0,1
84442,-500,4,1,1,60,0,1
84500,-83.3333333333333,4,1,1,60,0,1
84676,-500,4,1,1,60,0,1
84734,-83.3333333333333,4,1,1,60,0,1
84910,-500,4,1,1,60,0,1
84969,-83.3333333333333,4,1,1,60,0,1
85145,-500,4,1,1,60,0,1
85203,-83.3333333333333,4,1,1,60,0,1
85379,-500,4,1,1,60,0,1
85438,-83.3333333333333,4,1,1,60,0,1
85613,-500,4,1,1,60,0,1
85672,-83.3333333333333,4,1,1,60,0,1
85848,-500,4,1,1,60,0,1
85906,-83.3333333333333,4,1,1,60,0,1
86082,-500,4,1,1,60,0,1
86141,-83.3333333333333,4,1,1,60,0,1
86317,-100,4,1,1,60,0,1
89129,-125,4,1,1,60,0,1
89598,-200,4,1,1,60,0,1
90067,-100,4,1,1,60,0,1
91942,-500,4,1,1,60,0,1
92000,-83.3333333333333,4,1,1,60,0,1
92176,-500,4,1,1,60,0,1
92234,-83.3333333333333,4,1,1,60,0,1
92410,-500,4,1,1,60,0,1
92469,-83.3333333333333,4,1,1,60,0,1
92645,-500,4,1,1,60,0,1
92703,-83.3333333333333,4,1,1,60,0,1
92879,-500,4,1,1,60,0,1
92938,-83.3333333333333,4,1,1,60,0,1
93113,-500,4,1,1,60,0,1
93172,-83.3333333333333,4,1,1,60,0,1
93348,-500,4,1,1,60,0,1
93406,-83.3333333333333,4,1,1,60,0,1
93582,-500,4,1,1,60,0,1
93641,-83.3333333333333,4,1,1,60,0,1
93817,-100,4,1,1,60,0,1
99442,-500,4,1,1,60,0,1
99500,-83.3333333333333,4,1,1,60,0,1
99676,-500,4,1,1,60,0,1
99734,-83.3333333333333,4,1,1,60,0,1
99910,-500,4,1,1,60,0,1
99969,-83.3333333333333,4,1,1,60,0,1
100145,-500,4,1,1,60,0,1
100203,-83.3333333333333,4,1,1,60,0,1
100379,-500,4,1,1,60,0,1
100438,-83.3333333333333,4,1,1,60,0,1
100613,-500,4,1,1,60,0,1
100672,-83.3333333333333,4,1,1,60,0,1
100848,-500,4,1,1,60,0,1
100906,-83.3333333333333,4,1,1,60,0,1
101082,-500,4,1,1,60,0,1
101141,-83.3333333333333,4,1,1,60,0,1
101317,-100,4,1,1,60,0,1
105067,-100,4,1,1,60,0,0

[HitObjects]
192,192,67,5,0,0:0:0:0:
64,192,67,1,0,0:0:0:0:
448,192,301,1,0,0:0:0:0:
320,192,535,1,0,0:0:0:0:
192,192,535,1,8,0:0:0:0:
448,192,770,1,0,0:0:0:0:
192,192,1004,1,0,0:0:0:0:
64,192,1004,1,0,0:0:0:0:
448,192,1238,1,0,0:0:0:0:
320,192,1473,1,8,0:0:0:0:
64,192,1473,1,0,0:0:0:0:
192,192,1707,1,0,0:0:0:0:
320,192,1942,1,0,0:0:0:0:
448,192,1942,1,0,0:0:0:0:
64,192,2176,1,0,0:0:0:0:
192,192,2410,1,0,0:0:0:0:
320,192,2410,1,8,0:0:0:0:
64,192,2645,1,0,0:0:0:0:
320,192,2879,1,0,0:0:0:0:
448,192,2879,1,0,0:0:0:0:
64,192,3113,1,0,0:0:0:0:
448,192,3348,1,8,0:0:0:0:
192,192,3348,1,0,0:0:0:0:
320,192,3582,1,0,0:0:0:0:
192,192,3817,1,0,0:0:0:0:
64,192,3817,1,0,0:0:0:0:
448,192,4051,1,0,0:0:0:0:
192,192,4285,1,8,0:0:0:0:
320,192,4285,1,0,0:0:0:0:
448,192,4520,1,0,0:0:0:0:
192,192,4754,1,0,0:0:0:0:
64,192,4754,1,0,0:0:0:0:
448,192,4988,1,0,0:0:0:0:
64,192,5223,1,0,0:0:0:0:
320,192,5223,1,8,0:0:0:0:
192,192,5457,1,0,0:0:0:0:
448,192,5692,1,0,0:0:0:0:
320,192,5692,1,0,0:0:0:0:
64,192,5926,1,0,0:0:0:0:
320,192,6160,1,8,0:0:0:0:
192,192,6160,1,0,0:0:0:0:
64,192,6395,1,0,0:0:0:0:
320,192,6629,1,0,0:0:0:0:
448,192,6629,128,2,6863:0:0:0:0:
192,192,6863,1,0,0:0:0:0:
320,192,7098,1,0,0:0:0:0:
64,192,7098,128,2,7332:0:0:0:0:
192,192,7332,1,0,0:0:0:0:
320,192,7567,5,0,0:0:0:0:
448,192,7567,1,0,0:0:0:0:
64,192,7801,1,0,0:0:0:0:
320,192,8035,1,8,0:0:0:0:
192,192,8035,1,0,0:0:0:0:
64,192,8270,1,0,0:0:0:0:
320,192,8504,1,0,0:0:0:0:
448,192,8504,1,0,0:0:0:0:
64,192,8738,1,0,0:0:0:0:
448,192,8973,1,0,0:0:0:0:
192,192,8973,1,8,0:0:0:0:
320,192,9207,1,0,0:0:0:0:
192,192,9442,1,0,0:0:0:0:
64,192,9442,1,0,0:0:0:0:
448,192,9676,1,0,0:0:0:0:
192,192,9910,1,8,0:0:0:0:
320,192,9910,1,0,0:0:0:0:
448,192,10145,1,0,0:0:0:0:
192,192,10379,1,0,0:0:0:0:
64,192,10379,1,0,0:0:0:0:
448,192,10613,1,0,0:0:0:0:
64,192,10848,1,0,0:0:0:0:
320,192,10848,1,8,0:0:0:0:
192,192,11082,1,0,0:0:0:0:
448,192,11317,1,0,0:0:0:0:
320,192,11317,1,0,0:0:0:0:
64,192,11551,1,0,0:0:0:0:
192,192,11785,1,0,0:0:0:0:
320,196,11785,1,8,0:0:0:0:
64,192,12020,1,0,0:0:0:0:
320,192,12254,1,0,0:0:0:0:
448,192,12254,1,0,0:0:0:0:
64,192,12488,1,0,0:0:0:0:
448,192,12723,1,0,0:0:0:0:
192,192,12723,1,8,0:0:0:0:
320,192,12957,1,0,0:0:0:0:
192,192,13192,1,0,0:0:0:0:
64,192,13192,1,0,0:0:0:0:
448,192,13426,1,0,0:0:0:0:
320,192,13660,1,8,0:0:0:0:
192,192,13660,1,0,0:0:0:0:
448,192,13895,5,0,0:0:0:0:
64,192,14129,128,2,14363:0:0:0:0:
192,192,14129,1,0,0:0:0:0:
320,192,14363,1,0,0:0:0:0:
192,192,14598,1,0,0:0:0:0:
448,192,14598,128,2,14832:0:0:0:0:
320,192,14832,1,0,0:0:0:0:
64,192,15067,128,2,15535:0:0:0:0:
192,192,15067,1,0,0:0:0:0:
320,192,15535,128,0,16004:0:0:0:0:
439,192,15535,1,8,0:0:0:0:
64,192,16004,1,0,0:0:0:0:
448,192,16004,128,2,16473:0:0:0:0:
64,192,16473,1,8,0:0:0:0:
192,192,16473,128,0,16942:0:0:0:0:
448,192,16942,128,2,17410:0:0:0:0:
320,192,16942,1,0,0:0:0:0:
64,192,17410,1,8,0:0:0:0:
64,192,17879,128,2,18348:0:0:0:0:
448,192,17879,1,0,0:0:0:0:
192,192,18348,128,0,18817:0:0:0:0:
320,192,18348,1,8,0:0:0:0:
448,192,18817,128,2,19285:0:0:0:0:
64,192,18817,1,0,0:0:0:0:
192,192,19285,128,0,19754:0:0:0:0:
320,192,19285,1,8,0:0:0:0:
64,192,19754,128,2,20223:0:0:0:0:
448,192,19754,1,0,0:0:0:0:
448,192,20223,1,8,0:0:0:0:
320,192,20223,128,0,20692:0:0:0:0:
64,192,20692,128,2,21160:0:0:0:0:
192,192,20692,1,0,0:0:0:0:
448,192,21160,1,8,0:0:0:0:
448,192,21629,128,2,22098:0:0:0:0:
192,192,21629,1,0,0:0:0:0:
320,192,22098,128,0,22567:0:0:0:0:
64,192,22098,1,8,0:0:0:0:
64,192,22567,128,2,23035:0:0:0:0:
192,192,22567,1,0,0:0:0:0:
448,192,23035,1,8,0:0:0:0:
320,192,23035,128,0,23504:0:0:0:0:
192,192,23504,1,0,0:0:0:0:
448,192,23504,128,2,23973:0:0:0:0:
192,192,23973,128,0,24442:0:0:0:0:
64,192,23973,1,8,0:0:0:0:
320,192,24442,1,0,0:0:0:0:
448,192,24442,128,2,24910:0:0:0:0:
64,192,24910,1,8,0:0:0:0:
448,192,25379,1,0,0:0:0:0:
64,192,25379,128,2,25848:0:0:0:0:
320,192,25848,1,8,0:0:0:0:
192,192,25848,128,0,26317:0:0:0:0:
448,192,26317,128,2,26785:0:0:0:0:
64,192,26317,1,0,0:0:0:0:
192,192,26785,128,0,27254:0:0:0:0:
320,192,26785,1,8,0:0:0:0:
64,192,27254,128,2,27723:0:0:0:0:
448,192,27254,1,0,0:0:0:0:
192,192,27723,1,8,0:0:0:0:
320,192,27723,128,0,28192:0:0:0:0:
64,192,28192,128,2,28660:0:0:0:0:
448,192,28192,1,0,0:0:0:0:
448,192,28660,1,8,0:0:0:0:
448,192,29129,128,2,29598:0:0:0:0:
64,192,29129,1,0,0:0:0:0:
320,192,29598,128,0,30067:0:0:0:0:
192,192,29598,1,8,0:0:0:0:
64,192,30067,128,0,31942:0:0:0:0:
448,192,30067,1,0,0:0:0:0:
320,192,30301,1,0,0:0:0:0:
320,192,30535,1,0,0:0:0:0:
192,192,30535,1,8,0:0:0:0:
448,192,30770,1,0,0:0:0:0:
315,192,31004,1,0,0:0:0:0:
448,192,31004,1,0,0:0:0:0:
192,192,31238,1,0,0:0:0:0:
192,192,31473,1,0,0:0:0:0:
320,192,31473,1,8,0:0:0:0:
320,192,31707,1,0,0:0:0:0:
448,192,31942,1,0,0:0:0:0:
320,192,31942,128,0,33817:0:0:0:0:
192,192,32176,1,0,0:0:0:0:
64,192,32410,1,8,0:0:0:0:
448,192,32410,1,0,0:0:0:0:
192,192,32645,1,0,0:0:0:0:
64,192,32879,1,0,0:0:0:0:
448,192,32879,1,0,0:0:0:0:
192,192,33113,1,0,0:0:0:0:
64,192,33348,1,8,0:0:0:0:
448,192,33348,1,0,0:0:0:0:
192,192,33582,1,0,0:0:0:0:
64,192,33817,1,0,0:0:0:0:
448,192,33817,128,0,35692:0:0:0:0:
192,192,34051,1,0,0:0:0:0:
64,192,34285,1,0,0:0:0:0:
192,192,34285,1,8,0:0:0:0:
320,192,34520,1,0,0:0:0:0:
320,192,34754,1,0,0:0:0:0:
192,192,34754,1,0,0:0:0:0:
64,192,34988,1,0,0:0:0:0:
64,192,35223,1,8,0:0:0:0:
192,192,35223,1,0,0:0:0:0:
320,192,35457,1,0,0:0:0:0:
320,192,35692,128,0,37567:0:0:0:0:
64,192,35692,1,0,0:0:0:0:
192,192,35926,1,0,0:0:0:0:
64,192,36160,1,8,0:0:0:0:
448,192,36160,1,0,0:0:0:0:
192,192,36395,1,0,0:0:0:0:
64,192,36629,1,0,0:0:0:0:
444,192,36629,1,0,0:0:0:0:
192,192,36863,1,0,0:0:0:0:
64,192,37098,1,8,0:0:0:0:
448,192,37098,1,0,0:0:0:0:
192,192,37332,1,0,0:0:0:0:
448,192,37567,1,0,0:0:0:0:
64,192,37567,128,0,38035:0:0:0:0:
320,192,37801,1,0,0:0:0:0:
320,192,38035,128,2,38504:0:0:0:0:
192,192,38035,1,8,0:0:0:0:
192,192,38270,1,0,0:0:0:0:
192,192,38504,128,0,38973:0:0:0:0:
448,192,38504,1,0,0:0:0:0:
448,192,38738,1,0,0:0:0:0:
448,192,38973,128,2,39442:0:0:0:0:
64,192,38973,1,8,0:0:0:0:
64,192,39207,1,0,0:0:0:0:
64,192,39442,128,0,39910:0:0:0:0:
320,192,39442,1,0,0:0:0:0:
320,192,39676,1,0,0:0:0:0:
320,192,39910,128,2,40379:0:0:0:0:
192,192,39910,1,8,0:0:0:0:
192,192,40145,1,0,0:0:0:0:
448,192,40379,1,0,0:0:0:0:
192,192,40379,128,0,40848:0:0:0:0:
448,192,40613,1,0,0:0:0:0:
64,192,40848,1,8,0:0:0:0:
448,192,40848,128,2,41317:0:0:0:0:
64,192,41082,1,0,0:0:0:0:
64,192,41317,128,0,41785:0:0:0:0:
320,192,41317,1,0,0:0:0:0:
320,192,41551,1,0,0:0:0:0:
192,192,41785,1,8,0:0:0:0:
320,192,41785,128,2,42254:0:0:0:0:
192,192,42020,1,0,0:0:0:0:
192,192,42254,128,0,42723:0:0:0:0:
448,192,42254,1,0,0:0:0:0:
448,192,42488,1,0,0:0:0:0:
448,192,42723,128,2,43192:0:0:0:0:
64,192,42723,1,8,0:0:0:0:
64,192,42957,1,0,0:0:0:0:
64,192,43192,128,0,43660:0:0:0:0:
320,192,43192,1,0,0:0:0:0:
320,192,43426,1,0,0:0:0:0:
192,192,43660,1,0,0:0:0:0:
192,192,43895,1,0,0:0:0:0:
320,192,44129,1,2,0:0:0:0:
320,192,44363,1,2,0:0:0:0:
448,192,44598,1,8,0:0:0:0:
448,192,44832,1,8,0:0:0:0:
448,192,45067,128,2,46004:0:0:0:0:
64,192,45067,1,0,0:0:0:0:
192,192,45301,1,0,0:0:0:0:
320,192,45535,1,8,0:0:0:0:
192,192,45770,1,0,0:0:0:0:
64,192,46004,1,6,0:0:0:0:
320,192,46004,1,0,0:0:0:0:
192,192,46238,1,0,0:0:0:0:
448,192,46473,1,0,0:0:0:0:
320,192,46707,1,0,0:0:0:0:
192,192,46824,1,0,0:0:0:0:
64,192,46942,128,2,47879:0:0:0:0:
320,192,47176,1,0,0:0:0:0:
192,192,47410,1,8,0:0:0:0:
320,192,47645,1,0,0:0:0:0:
192,192,47879,1,0,0:0:0:0:
448,192,47879,1,6,0:0:0:0:
320,192,48113,1,0,0:0:0:0:
64,192,48348,1,0,0:0:0:0:
192,192,48582,1,0,0:0:0:0:
320,192,48699,1,0,0:0:0:0:
448,192,48817,128,2,49754:0:0:0:0:
192,192,49051,1,0,0:0:0:0:
320,192,49285,1,8,0:0:0:0:
192,192,49520,1,0,0:0:0:0:
64,192,49754,1,6,0:0:0:0:
320,192,49754,1,0,0:0:0:0:
192,192,49988,1,0,0:0:0:0:
448,192,50223,1,0,0:0:0:0:
320,192,50457,1,0,0:0:0:0:
192,192,50574,1,0,0:0:0:0:
64,192,50692,128,2,51629:0:0:0:0:
320,192,50926,1,0,0:0:0:0:
192,192,51160,1,8,0:0:0:0:
320,192,51395,1,0,0:0:0:0:
192,192,51629,1,0,0:0:0:0:
448,192,51629,1,6,0:0:0:0:
320,192,51863,1,0,0:0:0:0:
64,192,52098,1,0,0:0:0:0:
192,192,52332,1,0,0:0:0:0:
320,192,52449,1,0,0:0:0:0:
448,192,52567,128,0,52801:0:0:0:0:
64,192,52567,1,12,0:0:0:0:
320,192,52801,128,0,53035:0:0:0:0:
192,192,53035,1,0,0:0:0:0:
320,192,53270,1,8,0:0:0:0:
448,192,53504,1,12,0:0:0:0:
64,192,53504,128,0,53738:0:0:0:0:
192,192,53738,128,0,53973:0:0:0:0:
320,192,53973,1,0,0:0:0:0:
192,192,54207,1,8,0:0:0:0:
64,192,54442,128,0,54676:0:0:0:0:
448,192,54442,1,12,0:0:0:0:
192,192,54676,128,0,54910:0:0:0:0:
320,192,54910,1,0,0:0:0:0:
192,192,55145,1,8,0:0:0:0:
448,192,55379,128,0,55613:0:0:0:0:
64,192,55379,1,12,0:0:0:0:
320,192,55613,128,0,55848:0:0:0:0:
192,192,55848,1,0,0:0:0:0:
320,192,56082,1,8,0:0:0:0:
448,192,56317,128,0,56551:0:0:0:0:
64,192,56317,1,12,0:0:0:0:
320,192,56551,128,0,56785:0:0:0:0:
192,192,56785,1,0,0:0:0:0:
320,192,57020,1,8,0:0:0:0:
64,192,57254,128,0,57488:0:0:0:0:
448,192,57254,1,12,0:0:0:0:
192,192,57488,128,0,57723:0:0:0:0:
320,192,57723,1,0,0:0:0:0:
192,192,57957,1,8,0:0:0:0:
64,192,58192,128,0,58426:0:0:0:0:
448,192,58192,1,12,0:0:0:0:
192,192,58426,128,0,58660:0:0:0:0:
320,192,58660,1,0,0:0:0:0:
192,192,58895,1,8,0:0:0:0:
64,192,59129,1,12,0:0:0:0:
448,192,59129,128,0,59363:0:0:0:0:
320,192,59363,128,0,59598:0:0:0:0:
64,192,59598,1,2,0:0:0:0:
448,192,59715,1,0,0:0:0:0:
64,192,59832,1,2,0:0:0:0:
448,192,59949,1,2,0:0:0:0:
64,192,60067,128,0,60301:0:0:0:0:
320,192,60067,1,8,0:0:0:0:
448,192,60301,1,0,0:0:0:0:
192,192,60418,1,0,0:0:0:0:
320,192,60535,128,0,60770:0:0:0:0:
64,192,60535,1,8,0:0:0:0:
448,192,60770,1,0,0:0:0:0:
64,192,60887,1,0,0:0:0:0:
320,192,61004,1,8,0:0:0:0:
192,192,61004,128,0,61238:0:0:0:0:
448,192,61238,1,0,0:0:0:0:
64,192,61356,1,0,0:0:0:0:
448,192,61473,128,0,61707:0:0:0:0:
320,192,61473,1,8,0:0:0:0:
192,192,61707,1,0,0:0:0:0:
64,192,61824,1,0,0:0:0:0:
320,192,61942,128,0,62176:0:0:0:0:
448,192,61942,1,8,0:0:0:0:
192,192,62176,1,0,0:0:0:0:
320,192,62293,1,0,0:0:0:0:
448,192,62410,1,8,0:0:0:0:
64,192,62410,128,0,62645:0:0:0:0:
320,192,62645,1,0,0:0:0:0:
448,192,62762,1,0,0:0:0:0:
192,192,62879,1,8,0:0:0:0:
64,192,62879,128,0,63113:0:0:0:0:
320,192,63113,1,0,0:0:0:0:
64,192,63231,1,0,0:0:0:0:
192,192,63348,128,0,63582:0:0:0:0:
448,192,63348,1,8,0:0:0:0:
64,192,63582,1,0,0:0:0:0:
448,192,63699,1,0,0:0:0:0:
64,192,63817,128,0,64051:0:0:0:0:
320,192,63817,1,8,0:0:0:0:
192,192,64051,1,0,0:0:0:0:
64,192,64168,1,0,0:0:0:0:
448,192,64285,1,8,0:0:0:0:
320,192,64285,128,0,64520:0:0:0:0:
192,192,64520,1,0,0:0:0:0:
64,192,64637,1,0,0:0:0:0:
448,192,64754,1,8,0:0:0:0:
192,192,64754,128,0,64988:0:0:0:0:
320,192,64988,1,0,0:0:0:0:
192,192,65106,1,0,0:0:0:0:
64,192,65223,128,0,65457:0:0:0:0:
448,192,65223,1,8,0:0:0:0:
192,192,65457,1,0,0:0:0:0:
320,192,65574,1,0,0:0:0:0:
192,192,65692,128,0,65926:0:0:0:0:
448,192,65692,1,8,0:0:0:0:
64,192,65926,1,0,0:0:0:0:
320,192,66160,1,8,0:0:0:0:
448,192,66160,128,0,66395:0:0:0:0:
192,192,66395,1,0,0:0:0:0:
64,192,66512,1,0,0:0:0:0:
448,192,66629,1,8,0:0:0:0:
320,192,66629,128,0,66863:0:0:0:0:
192,192,66863,1,0,0:0:0:0:
320,192,66981,1,0,0:0:0:0:
64,192,67098,128,0,67332:0:0:0:0:
448,192,67098,1,8,0:0:0:0:
189,192,67332,1,0,0:0:0:0:
320,192,67449,1,0,0:0:0:0:
64,192,67567,128,2,67801:0:0:0:0:
448,192,67567,1,0,0:0:0:0:
192,192,67801,128,2,68035:0:0:0:0:
448,192,67801,1,0,0:0:0:0:
448,192,68035,128,2,68270:0:0:0:0:
64,192,68035,1,0,0:0:0:0:
320,192,68270,128,2,68504:0:0:0:0:
64,192,68270,1,0,0:0:0:0:
64,192,68504,128,2,68738:0:0:0:0:
448,192,68504,1,0,0:0:0:0:
192,192,68738,128,2,68973:0:0:0:0:
448,192,68738,1,0,0:0:0:0:
448,192,68973,128,2,69207:0:0:0:0:
64,192,68973,1,0,0:0:0:0:
320,192,69207,128,2,69442:0:0:0:0:
64,192,69207,1,0,0:0:0:0:
448,192,69442,1,0,0:0:0:0:
64,192,69442,128,2,69676:0:0:0:0:
192,192,69676,128,2,69910:0:0:0:0:
448,192,69676,1,0,0:0:0:0:
64,192,69910,1,0,0:0:0:0:
448,192,69910,128,2,70145:0:0:0:0:
320,192,70145,128,2,70379:0:0:0:0:
64,192,70145,1,0,0:0:0:0:
64,192,70379,128,2,70613:0:0:0:0:
448,192,70379,1,0,0:0:0:0:
192,192,70613,128,2,70848:0:0:0:0:
448,192,70613,1,0,0:0:0:0:
448,192,70848,128,2,71082:0:0:0:0:
64,192,70848,1,0,0:0:0:0:
320,192,71082,128,2,71317:0:0:0:0:
64,192,71082,1,0,0:0:0:0:
64,192,71317,128,0,74129:0:0:0:0:
448,192,71317,1,0,0:0:0:0:
448,192,71551,1,0,0:0:0:0:
320,192,71668,1,0,0:0:0:0:
448,192,71785,1,0,0:0:0:0:
320,192,72020,1,0,0:0:0:0:
192,192,72137,1,0,0:0:0:0:
320,192,72254,1,0,0:0:0:0:
448,192,72488,1,0,0:0:0:0:
320,192,72606,1,0,0:0:0:0:
448,192,72723,1,0,0:0:0:0:
192,192,72957,1,0,0:0:0:0:
320,192,73074,1,0,0:0:0:0:
192,192,73192,1,0,0:0:0:0:
320,192,73426,1,0,0:0:0:0:
448,192,73543,1,0,0:0:0:0:
320,192,73660,1,0,0:0:0:0:
192,192,73895,1,0,0:0:0:0:
320,192,74012,1,0,0:0:0:0:
192,192,74129,1,4,0:0:0:0:
448,192,74129,1,8,0:0:0:0:
64,192,75067,128,0,75535:0:0:0:0:
317,192,75067,128,0,75535:0:0:0:0:
192,192,75535,128,0,76004:0:0:0:0:
448,192,75535,128,0,76004:0:0:0:0:
320,192,76004,128,0,76473:0:0:0:0:
192,192,76473,128,0,76942:0:0:0:0:
64,192,76473,128,0,76942:0:0:0:0:
320,192,76942,1,0,0:0:0:0:
448,192,76942,1,0,0:0:0:0:
448,192,77176,1,0,0:0:0:0:
64,192,77410,1,0,0:0:0:0:
192,192,77410,1,8,0:0:0:0:
64,192,77645,1,0,0:0:0:0:
192,192,77879,1,0,0:0:0:0:
320,192,77879,1,0,0:0:0:0:
320,192,78113,1,0,0:0:0:0:
448,192,78348,1,0,0:0:0:0:
64,192,78348,1,8,0:0:0:0:
64,192,78582,1,0,0:0:0:0:
64,192,78817,128,0,79285:0:0:0:0:
448,192,78817,128,0,79285:0:0:0:0:
192,192,79285,128,0,79754:0:0:0:0:
320,192,79285,128,0,79754:0:0:0:0:
448,192,79754,128,0,80223:0:0:0:0:
320,192,80223,128,0,80692:0:0:0:0:
64,192,80223,128,0,80692:0:0:0:0:
448,192,80692,1,0,0:0:0:0:
192,192,80809,1,0,0:0:0:0:
448,192,80926,1,0,0:0:0:0:
192,192,81043,1,0,0:0:0:0:
320,192,81160,1,8,0:0:0:0:
64,192,81277,1,0,0:0:0:0:
320,192,81395,1,0,0:0:0:0:
64,192,81512,1,0,0:0:0:0:
192,192,81629,1,0,0:0:0:0:
448,192,81746,1,0,0:0:0:0:
192,192,81863,1,0,0:0:0:0:
448,192,81981,1,0,0:0:0:0:
320,192,82098,1,8,0:0:0:0:
192,192,82215,1,0,0:0:0:0:
320,192,82332,1,0,0:0:0:0:
192,192,82449,1,0,0:0:0:0:
448,192,82567,128,0,83035:0:0:0:0:
320,192,82567,128,0,83035:0:0:0:0:
64,192,83035,128,0,83504:0:0:0:0:
192,192,83035,128,0,83504:0:0:0:0:
320,192,83504,128,0,83973:0:0:0:0:
64,192,83973,128,0,84442:0:0:0:0:
448,192,83973,128,0,84442:0:0:0:0:
192,192,84442,1,0,0:0:0:0:
320,192,84442,1,0,0:0:0:0:
64,192,84676,1,0,0:0:0:0:
320,192,84910,1,8,0:0:0:0:
448,192,84910,1,0,0:0:0:0:
448,192,85145,1,0,0:0:0:0:
192,192,85379,1,0,0:0:0:0:
320,192,85379,1,0,0:0:0:0:
192,192,85613,1,0,0:0:0:0:
64,192,85848,1,8,0:0:0:0:
448,192,85848,1,0,0:0:0:0:
448,192,86082,1,0,0:0:0:0:
448,192,86317,128,0,86785:0:0:0:0:
64,192,86317,128,0,86785:0:0:0:0:
192,192,86785,128,0,87254:0:0:0:0:
320,192,86785,128,0,87254:0:0:0:0:
64,192,87254,128,0,87723:0:0:0:0:
448,192,87723,128,0,88192:0:0:0:0:
192,192,87723,128,0,88192:0:0:0:0:
320,192,88192,1,0,0:0:0:0:
64,192,88309,1,0,0:0:0:0:
320,192,88426,1,0,0:0:0:0:
64,192,88543,1,0,0:0:0:0:
448,192,88660,1,8,0:0:0:0:
192,192,88777,1,0,0:0:0:0:
448,192,88895,1,0,0:0:0:0:
192,192,89012,1,0,0:0:0:0:
64,192,89129,128,2,89598:0:0:0:0:
448,192,89598,1,4,0:0:0:0:
320,192,89598,1,8,0:0:0:0:
320,192,90067,128,0,90535:0:0:0:0:
64,192,90067,128,0,90535:0:0:0:0:
192,192,90535,128,0,91004:0:0:0:0:
448,192,90535,128,0,91004:0:0:0:0:
320,192,91004,128,0,91473:0:0:0:0:
64,192,91473,128,0,91942:0:0:0:0:
192,192,91473,128,0,91942:0:0:0:0:
448,192,91942,1,0,0:0:0:0:
320,192,91942,128,0,92176:0:0:0:0:
448,192,92176,1,0,0:0:0:0:
192,192,92410,1,8,0:0:0:0:
64,192,92410,128,0,92645:0:0:0:0:
320,192,92645,1,0,0:0:0:0:
448,192,92879,1,0,0:0:0:0:
320,192,92879,128,0,93113:0:0:0:0:
64,192,93113,1,0,0:0:0:0:
448,192,93348,1,8,0:0:0:0:
192,192,93348,128,0,93582:0:0:0:0:
320,192,93582,1,0,0:0:0:0:
448,192,93817,128,0,94285:0:0:0:0:
64,192,93817,128,0,94285:0:0:0:0:
320,192,94285,128,0,94754:0:0:0:0:
192,192,94285,128,0,94754:0:0:0:0:
448,192,94754,128,0,95223:0:0:0:0:
64,192,95223,128,0,95692:0:0:0:0:
320,192,95223,128,0,95692:0:0:0:0:
192,192,95692,1,0,0:0:0:0:
448,192,95809,1,0,0:0:0:0:
320,192,95926,1,0,0:0:0:0:
64,192,96043,1,0,0:0:0:0:
192,192,96160,1,8,0:0:0:0:
64,192,96277,1,0,0:0:0:0:
320,192,96395,1,0,0:0:0:0:
448,192,96512,1,0,0:0:0:0:
320,192,96629,1,0,0:0:0:0:
448,192,96746,1,0,0:0:0:0:
192,192,96863,1,0,0:0:0:0:
320,192,96981,1,0,0:0:0:0:
64,192,97098,1,8,0:0:0:0:
192,192,97215,1,0,0:0:0:0:
64,192,97332,1,0,0:0:0:0:
192,192,97449,1,0,0:0:0:0:
320,192,97567,128,0,98035:0:0:0:0:
448,192,97567,128,0,98035:0:0:0:0:
192,192,98035,128,0,98504:0:0:0:0:
64,192,98035,128,0,98504:0:0:0:0:
320,192,98504,128,0,98973:0:0:0:0:
64,192,98973,128,0,99442:0:0:0:0:
192,192,98973,128,0,99442:0:0:0:0:
320,192,99442,1,0,0:0:0:0:
448,192,99442,1,0,0:0:0:0:
448,192,99676,1,0,0:0:0:0:
192,192,99910,1,0,0:0:0:0:
64,192,99910,1,8,0:0:0:0:
64,192,100145,1,0,0:0:0:0:
320,192,100379,1,0,0:0:0:0:
192,192,100379,1,0,0:0:0:0:
320,192,100613,1,0,0:0:0:0:
448,192,100848,1,8,0:0:0:0:
64,192,100848,1,0,0:0:0:0:
64,192,101082,1,0,0:0:0:0:
64,192,101317,128,0,101785:0:0:0:0:
448,192,101317,128,0,101785:0:0:0:0:
192,192,101785,128,0,102254:0:0:0:0:
320,192,101785,128,0,102254:0:0:0:0:
64,192,102254,128,0,102723:0:0:0:0:
320,192,102723,128,0,103192:0:0:0:0:
192,192,102723,128,0,103192:0:0:0:0:
58,192,103192,1,0,0:0:0:0:
58,192,103348,1,0,0:0:0:0:
58,192,103504,1,0,0:0:0:0:
314,192,103660,1,8,0:0:0:0:
314,192,103817,1,0,0:0:0:0:
314,192,103973,1,0,0:0:0:0:
186,192,104129,1,0,0:0:0:0:
186,192,104285,1,0,0:0:0:0:
186,192,104442,1,0,0:0:0:0:
442,192,104598,1,8,0:0:0:0:
442,192,104754,1,0,0:0:0:0:
442,192,104910,1,0,0:0:0:0:
64,192,105067,1,4,0:0:0:0:
192,192,105067,1,8,0:0:0:0:
64,192,105418,1,0,0:0:0:0:
442,192,105535,1,0,0:0:0:0:
320,192,105770,1,0,0:0:0:0:
320,192,106004,128,2,106238:0:0:0:0:
64,192,106004,1,0,0:0:0:0:
64,192,106238,128,2,106473:0:0:0:0:
448,192,106238,1,8,0:0:0:0:
448,192,106473,128,2,106707:0:0:0:0:
192,192,106473,1,8,0:0:0:0:
192,192,106707,128,2,106942:0:0:0:0:
320,192,106942,1,8,0:0:0:0:
448,192,107293,1,0,0:0:0:0:
64,192,107410,1,0,0:0:0:0:
192,192,107645,1,0,0:0:0:0:
192,192,107879,128,2,108113:0:0:0:0:
448,192,107879,1,0,0:0:0:0:
64,192,108113,1,8,0:0:0:0:
448,192,108113,128,2,108348:0:0:0:0:
320,192,108348,1,0,0:0:0:0:
192,192,108504,1,0,0:0:0:0:
192,192,108660,1,0,0:0:0:0:
320,192,108817,1,8,0:0:0:0:
192,192,108817,1,4,0:0:0:0:
64,192,109168,1,0,0:0:0:0:
448,192,109285,1,0,0:0:0:0:
320,192,109520,1,0,0:0:0:0:
64,192,109754,1,0,0:0:0:0:
320,192,109754,128,2,109988:0:0:0:0:
64,192,109988,128,2,110223:0:0:0:0:
448,192,109988,1,8,0:0:0:0:
448,192,110223,128,2,110457:0:0:0:0:
192,192,110223,1,8,0:0:0:0:
192,192,110457,128,2,110692:0:0:0:0:
316,192,110692,1,0,0:0:0:0:
316,192,110848,1,0,0:0:0:0:
316,192,111004,1,0,0:0:0:0:
60,192,111160,1,0,0:0:0:0:
60,192,111317,1,0,0:0:0:0:
60,192,111473,1,0,0:0:0:0:
188,192,111629,1,0,0:0:0:0:
188,192,111785,1,0,0:0:0:0:
188,192,111942,1,0,0:0:0:0:
448,192,112098,128,2,112567:0:0:0:0:
192,192,112567,1,8,0:0:0:0:
320,192,112567,1,4,0:0:0:0:
64,192,112918,1,0,0:0:0:0:
448,192,113035,1,0,0:0:0:0:
320,192,113270,1,0,0:0:0:0:
320,192,113504,128,2,113738:0:0:0:0:
64,192,113504,1,0,0:0:0:0:
448,192,113738,1,8,0:0:0:0:
64,192,113738,128,2,113973:0:0:0:0:
192,192,113973,1,8,0:0:0:0:
448,192,113973,128,2,114207:0:0:0:0:
192,192,114207,128,2,114442:0:0:0:0:
320,192,114442,1,8,0:0:0:0:
448,192,114793,1,0,0:0:0:0:
64,192,114910,1,0,0:0:0:0:
192,192,115145,1,0,0:0:0:0:
448,192,115379,1,0,0:0:0:0:
192,192,115379,128,2,115613:0:0:0:0:
64,192,115613,1,8,0:0:0:0:
448,192,115613,1,0,0:0:0:0:
320,192,115731,1,0,0:0:0:0:
64,192,115848,128,2,116082:0:0:0:0:
192,192,115848,1,8,0:0:0:0:
320,192,116082,128,2,116317:0:0:0:0:
192,192,116317,1,2,0:0:0:0:
191,192,116473,1,2,0:0:0:0:
192,192,116629,1,2,0:0:0:0:
191,192,116785,1,2,0:0:0:0:
192,192,116942,1,2,0:0:0:0:
191,192,117098,1,2,0:0:0:0:
192,192,117254,128,2,118192:0:0:0:0:
320,192,117723,128,2,118192:0:0:0:0:
448,192,118192,128,2,118660:0:0:0:0:
320,192,118660,128,0,118895:0:0:0:0:
192,192,118895,128,0,119129:0:0:0:0:
64,192,119129,128,2,119598:0:0:0:0:
448,192,119598,1,4,0:0:0:0:
