osu file format v9

[General]
AudioFilename: Sporty-O - Let Me Hit It (Audiostalkers Original Mix)[4music.lt].mp3
AudioLeadIn: 3000
PreviewTime: 103378
Countdown: 0
SampleSet: Normal
StackLeniency: 0.5
Mode: 0
LetterboxInBreaks: 0

[Editor]
DistanceSpacing: 0.7
BeatDivisor: 4
GridSize: 4

[Metadata]
Title:Let Me Hit It (Audiostalkers Original Mix)
Artist:Sporty-O
Creator:Kiiwa
Version:Insane
Source:
Tags:Lissette

[Difficulty]
HPDrainRate:7
CircleSize:5
OverallDifficulty:8
ApproachRate:9
SliderMultiplier:1.8
SliderTickRate:2

[Events]
//Background and Video events
0,0,"bg.png"
//Break Periods
2,45922,46528
2,47797,48403
2,49672,50278
2,51547,52153
2,60453,67153
2,134984,149653
2,165453,180356
//Storyboard Layer 0 (Background)
//Storyboard Layer 1 (Fail)
//Storyboard Layer 2 (Pass)
//Storyboard Layer 3 (Foreground)
//Storyboard Sound Samples
//Background Colour Transformations
3,100,163,162,255

[TimingPoints]
253.5,468.75,4,1,0,50,1,0
30253,-100,4,1,0,60,0,1
30722,-100,4,1,0,60,0,0
75253,-100,4,1,0,60,0,1
75722,-100,4,1,0,60,0,0
89316,-200,4,1,0,60,0,0
90253,-100,4,1,0,60,0,1
90722,-100,4,1,0,60,0,0
105253,-100,4,1,0,50,0,1
117441,-133.333333333333,4,1,0,60,0,0
118378,-200,4,1,0,50,0,0
120253,-100,4,1,0,50,0,1
120722,-100,4,1,0,50,0,0
180956,-100,4,2,0,80,0,0
191386,-100,4,1,0,60,0,0
194316,-200,4,1,0,60,0,0
195253,-100,4,1,0,50,0,1
195722,-100,4,1,0,50,0,0
209316,-200,4,1,0,60,0,0
210253,-100,4,1,0,50,0,1
210722,-100,4,1,0,50,0,0
224784,-200,4,1,0,60,0,0
225253,-100,4,1,0,50,0,1

[Colours]
Combo1 : 123,149,191
Combo2 : 226,84,84
Combo3 : 142,202,117

[HitObjects]
256,188,15253,6,0,B|256:140,2,45
256,268,15722,1,0
240,304,15839,1,0
204,324,15956,1,0
124,328,16191,1,0
124,328,16425,2,0,B|28:328,2,90
84,256,17128,1,0
84,224,17245,1,0
84,188,17362,1,0
40,120,17597,6,0,B|88:92|152:128,1,90
256,192,18066,2,0,B|264:228|264:228|248:228|248:228|260:184,1,90
385,116,18534,2,0,B|424:92|472:120,1,90
424,188,19003,5,0
436,228,19120,1,0
472,248,19237,1,0
412,304,19472,2,0,B|364:332|312:300,1,90
316,228,19941,2,0,B|316:176|252:152|200:176|196:232,1,180
186,307,20644,2,0,B|148:332|100:304,2,90
256,352,21347,5,0
256,312,21464,1,0
256,272,21581,1,0
256,192,21816,1,0
256,112,22050,1,0
256,112,22284,2,0,B|256:24,2,90
328,72,22987,5,0
368,84,23105,1,0
392,116,23222,1,0
412,196,23456,1,0
412,276,23691,1,0
480,192,23925,5,0
344,276,24159,1,0
208,192,24394,1,0
276,232,24628,5,0
208,276,24862,1,0
140,232,25097,1,0
140,152,25331,1,0
208,108,25566,1,0
280,144,25800,1,0
276,232,26034,1,0
208,276,26269,5,0
208,276,26503,1,0
256,340,26737,1,0
328,300,26972,2,0,B|436:300,2,90
328,300,27675,1,0
328,300,27909,1,0
256,260,28144,1,0
328,228,28378,5,0
364,228,28495,1,0
400,228,28612,1,0
364,156,28846,1,0
436,156,29080,1,0
400,84,29315,1,0
436,84,29432,1,0
472,84,29549,1,0
472,84,29784,5,0
40,84,30253,5,0
84,164,30487,1,0
84,192,30605,1,0
84,220,30722,1,0
40,300,30956,1,0
80,380,31191,2,0,B|172:380,1,90
216,300,31659,1,0
248,320,31776,1,0
256,356,31894,1,0
256,356,32128,6,0,B|272:312|328:292,1,90
317,296,32597,2,0,B|364:279|380:236,1,90,0|0
380,144,33066,1,0
380,100,33183,1,0
380,56,33300,1,0
456,100,33534,1,0
380,144,33769,5,0
256,100,34003,1,0
132,144,34237,1,0
176,220,34472,1,0
132,220,34589,1,0
88,220,34706,1,0
136,296,34941,2,0,B|48:296,2,90
228,296,35644,5,0
284,120,35878,1,0
256,204,36112,5,0
340,168,36347,1,0
424,204,36581,1,0
408,292,36816,2,0,B|408:340|344:356|276:340|284:288,1,180
256,204,37519,5,0
320,148,37753,1,0
320,148,37870,1,0
320,148,37987,1,0
384,204,38222,1,0
384,204,38339,1,0
384,204,38456,1,0
396,116,38691,1,0
316,72,38925,1,0
236,116,39159,1,0
92,204,39628,5,0
92,248,39745,1,0
92,292,39862,1,0
184,292,40097,2,0,B|184:248,2,45
276,292,40566,1,0
276,264,40683,1,0
276,292,40800,1,0
364,296,41034,1,0
388,228,41269,5,0
428,252,41386,1,0
436,296,41503,1,0
364,296,41737,2,0,B|272:296,1,90
188,324,42206,2,0,B|164:360,2,45
108,280,42675,1,0
80,244,42792,1,0
80,200,42909,1,0
80,200,43378,1,0
188,324,43613,5,0
188,296,43730,1,0
188,268,43848,1,0
188,240,43965,1,0
188,212,44081,2,0,B|188:164,4,45
232,172,44668,2,0,B|244:120,4,45
288,132,45253,5,0
288,132,45487,1,0
288,132,45722,1,0
288,132,47128,5,0
296,144,47362,1,0
304,156,47597,1,0
304,156,49003,5,0
320,188,49237,1,0
324,224,49472,1,0
324,224,50878,5,0
324,288,51112,1,0
288,340,51347,1,0
288,340,52753,5,0
208,296,52987,1,0
120,304,53222,1,0
404,160,53691,5,0
360,240,53925,1,0
368,328,54160,1,0
224,44,54628,5,0
304,88,54862,1,0
392,80,55097,1,0
108,224,55566,5,0
152,144,55800,1,0
144,56,56035,1,0
288,340,56503,5,0
200,340,56737,2,0,B|144:340,2,45
288,340,57206,1,0
380,340,57441,1,0
420,320,57558,1,0
428,276,57675,1,0
424,188,57909,1,0
224,44,58378,5,0
312,44,58612,2,0,B|368:44,2,45
224,44,59081,1,0
132,44,59316,1,0
92,64,59433,1,0
84,108,59550,1,0
88,196,59784,1,0
424,196,60253,1,0
184,208,67753,5,0
240,120,67987,1,0
328,176,68222,1,0
272,264,68456,1,0
184,208,68691,5,0
112,156,68925,1,0
328,176,69159,1,0
400,228,69393,1,0
240,120,69628,5,0
264,84,69745,1,0
292,48,69862,1,0
272,264,70096,1,0
248,300,70213,1,0
220,336,70330,1,0
188,252,70566,5,0
128,320,70800,1,0
40,344,71034,1,0
128,320,71269,1,0
220,336,71503,5,0
252,344,71620,1,0
280,356,71737,1,0
312,368,71855,1,0
340,356,71972,5,0
336,324,72089,1,0
336,292,72206,1,0
344,264,72323,1,0
360,236,72441,1,0
380,212,72558,1,0
404,192,72675,1,0
432,180,72792,1,0
452,156,72909,5,0
432,132,73026,1,0
412,108,73144,1,0
392,84,73261,1,0
392,52,73378,6,0,B|348:80,8,45
392,52,75253,5,0
416,140,75487,1,0
352,204,75722,1,0
280,152,75956,1,0
300,64,76191,5,0
168,44,76425,1,0
104,160,76659,1,0
172,276,76894,1,0
300,236,77128,5,0
344,224,77245,1,0
388,208,77362,1,0
316,152,77597,5,0
336,136,77714,1,0
352,120,77831,1,0
264,100,78066,5,0
268,88,78183,1,0
272,76,78300,1,0
192,116,78534,5,0
192,116,78651,1,0
192,116,78769,1,0
300,236,79003,6,0,B|300:348,1,90
231,268,79472,2,0,B|232:160,1,90
163,236,79941,2,0,B|163:348,1,90
96,268,80409,2,0,B|95:160,1,90
244,32,80878,5,0
228,60,80995,1,0
200,76,81112,1,0
168,84,81230,1,0
140,96,81347,1,0
116,116,81464,1,0
100,144,81581,1,0
88,172,81698,1,0
96,204,81816,6,0,B|92:264,3,45
144,244,82284,2,0,B|148:184,3,45
212,184,82753,5,0
256,264,82987,1,0
300,184,83222,1,0
256,104,83456,1,0
212,184,83691,5,0
256,312,83925,1,0
300,184,84159,1,0
256,56,84394,1,0
364,364,84628,5,0
328,336,84745,1,0
292,308,84862,1,0
216,356,85097,5,0
196,340,85214,1,0
172,324,85331,1,0
90,341,85566,5,0
80,332,85683,1,0
69,322,85800,1,0
0,352,86034,5,0
0,352,86151,1,0
0,352,86269,1,0
36,244,86503,6,0,B|88:124,1,90
124,236,86972,2,0,B|146:181|141:137,1,90
212,204,87441,2,0,B|234:154|194:84,1,90
292,140,87909,2,0,B|307:85|247:50,1,90
368,40,88378,5,0
396,52,88495,1,0
420,72,88612,1,0
436,100,88730,1,0
436,132,88847,1,0
436,164,88963,1,0
420,192,89081,1,0
396,212,89198,1,0
368,224,89315,5,0
368,224,90253,5,0
436,284,90487,1,0
400,368,90722,1,0
312,368,90956,1,0
280,284,91191,5,0
184,192,91425,1,0
280,284,91659,1,0
184,192,91894,1,0
316,208,92128,5,0
340,172,92245,1,0
364,136,92362,1,0
272,140,92597,5,0
268,112,92714,1,0
268,84,92831,1,0
188,128,93066,5,0
172,124,93183,1,0
160,120,93300,1,0
112,196,93534,5,0
112,196,93651,1,0
112,196,93769,1,0
84,280,94003,5,0
148,344,94237,1,0
236,332,94472,1,0
312,284,94706,1,0
348,200,94941,5,0
296,124,95175,1,0
308,36,95409,1,0
396,24,95644,1,0
388,112,95878,5,0
364,96,95995,1,0
332,88,96112,1,0
300,84,96230,1,0
268,84,96347,1,0
236,92,96464,1,0
208,104,96581,1,0
184,124,96698,1,0
168,152,96816,6,0,B|140:224,3,45
128,172,97284,2,0,B|100:244,3,45
68,228,97753,5,0
120,300,97987,1,0
212,340,98222,1,0
212,340,98339,1,0
212,340,98456,1,0
212,340,98573,1,0
212,340,98691,2,0,B|308:340,3,90
328,236,99628,6,0,B|372:144,1,90
264,184,100097,2,0,B|276:136|316:100,1,90
200,132,100566,2,0,B|204:76|260:52,1,90
136,80,101034,2,0,B|136:24|208:8,1,90
72,36,101503,5,0
76,124,101737,1,0
132,196,101972,1,0
220,216,102206,1,0
308,196,102441,5,0
132,196,102675,1,0
308,196,102909,1,0
132,196,103144,1,0
256,244,103378,6,0,B|216:304,1,60
220,192,103847,2,0,B|165:238,1,60
199,132,104316,2,0,B|133:161,1,60
196,68,104784,2,0,B|124:78,1,60
204,8,105253,5,0
348,68,105722,2,0,B|332:24|256:28|256:28|236:16,1,120
204,8,106191,2,0,B|184:64|112:80|64:68|44:44,2,180
68,168,107597,6,0,B|88:280,1,90
36,312,108066,2,0,B|20:252|120:224|148:244|180:304,2,180
229,342,109472,2,0,B|184:324|152:344|152:344|120:320,1,120
152,284,109941,6,0,B|200:264|260:296,1,90
260,228,110409,2,0,B|332:208|332:208|336:148,1,120
340,120,110878,6,0,B|348:40,1,60
392,160,111347,2,0,B|421:85,1,60
430,212,111816,2,0,B|479:148,1,60
454,272,112284,2,0,B|518:224,1,60
468,336,112753,5,0
312,288,113222,1,0
268,332,113456,2,0,B|208:344|156:296,1,90
152,260,113925,2,0,B|144:320|84:344,2,90
88,268,114628,6,0,B|64:224|72:172|100:116|140:104,1,180
164,56,115331,1,0
192,112,115566,2,0,B|224:112|224:112|244:72|288:60,1,90
300,124,116034,2,0,B|316:104|316:104|328:76|376:80,1,90
380,140,116503,6,0,B|392:196,1,45
472,192,116737,2,0,B|416:204,1,45,0|0
412,280,116972,2,0,B|400:224,1,45
320,228,117206,2,0,B|376:216,1,45,0|0
380,140,117441,6,0,B|424:128|452:68|428:20,2,135
380,140,120253,5,0
340,220,120487,1,0
252,248,120722,1,0
172,208,120956,1,0
144,120,121191,5,0
252,248,121425,1,0
280,164,121659,5,0
252,248,121894,1,0
224,332,122128,2,0,B|212:376,2,45
148,232,122597,5,0
116,264,122714,1,0
72,268,122831,1,0
72,176,123066,1,0
72,176,123300,2,0,B|72:84,2,90
128,40,124003,5,0
164,68,124120,1,0
208,76,124237,1,0
300,76,124472,2,0,B|308:56|308:56|400:56,1,90
376,148,124941,2,0,B|348:120|348:120|428:120,1,90
398,120,125409,1,0
388,280,125878,6,0,B|400:232,2,45
124,280,126347,2,0,B|112:232,2,45
319,224,126816,2,0,B|320:176|256:144|192:176|192:220,1,180
256,280,127519,1,0
256,100,127753,6,0,B|256:8,1,90
336,52,128222,2,0,B|400:52,2,45
176,52,128691,1,0
152,52,128808,1,0
131,52,128925,1,0
132,140,129159,2,0,B|140:212|64:208,1,90
89,206,129628,5,0
422,206,130097,1,0
212,204,130566,5,0
300,204,130800,1,0
184,136,131034,1,0
328,136,131269,1,0
408,64,131503,5,0
320,84,131737,1,0
300,172,131972,1,0
320,260,132206,1,0
408,280,132441,5,0
300,172,132675,1,0
192,280,132909,1,0
192,172,133144,5,0
192,84,133378,2,0,B|192:24,2,60
256,68,133847,2,0,B|281:13,2,60
320,84,134316,2,0,B|365:45,2,60
256,68,134784,5,0
256,68,150253,5,0
328,120,150487,1,0
304,208,150722,1,0
208,208,150956,1,0
184,120,151191,5,0
145,174,151425,1,0
79,156,151660,1,0
79,84,151894,1,0
144,60,152128,5,0
144,60,152362,1,0
20,120,152597,1,0
20,120,152831,1,0
144,172,153066,1,0
84,240,153300,5,0
144,172,153534,1,0
232,188,153769,1,0
112,320,154003,5,0
156,320,154120,1,0
200,320,154237,1,0
292,316,154472,5,0
368,368,154706,1,0
428,300,154940,1,0
392,216,155174,1,0
304,228,155409,5,0
237,235,155644,1,0
213,173,155879,1,0
267,131,156113,1,0
328,163,156347,5,0
328,163,156581,1,0
204,104,156816,1,0
204,104,157050,1,0
208,240,157284,1,0
208,240,157519,1,0
120,240,157753,5,0
120,284,157870,1,0
120,328,157987,1,0
32,240,158222,5,0
12,152,158456,1,0
80,96,158691,1,0
140,152,158925,1,0
120,240,159159,5,0
96,301,159394,1,0
152,339,159628,1,0
207,312,159862,1,0
187,250,160097,5,0
187,250,160331,1,0
288,160,160566,1,0
288,160,160800,1,0
344,284,161034,1,0
344,284,161269,1,0
444,192,161503,5,0
472,108,161737,1,0
400,52,161972,1,0
328,108,162206,1,0
356,192,162440,5,0
376,255,162675,1,0
322,297,162909,1,0
268,255,163144,1,0
289,191,163378,5,0
289,191,163612,1,0
152,192,163847,1,0
152,192,164081,1,0
72,300,164316,5,0
152,192,164550,1,0
72,84,164784,1,0
360,192,165253,5,0
256,108,180956,5,2
316,132,181191,1,0
332,192,181425,1,2
316,252,181659,1,0
256,276,181894,1,2
256,192,182127,5,0
196,168,182362,1,2
180,108,182595,1,0
196,48,182830,1,2
256,24,183065,1,0
332,108,183300,5,2
316,168,183534,1,0
256,192,183769,1,2
196,216,184003,1,0
180,276,184237,1,2
180,108,184472,5,0
196,168,184706,1,2
256,192,184941,1,2
316,216,185175,1,2
332,276,185409,1,2
256,192,185878,12,0,191503
156,180,191737,5,0
160,148,191855,1,0
172,120,191972,1,0
196,100,192089,1,0
224,88,192206,1,0
256,84,192323,1,0
288,88,192441,1,0
316,100,192558,1,0
340,120,192675,1,0
352,148,192792,1,0
356,180,192909,2,0,B|408:180,3,45
401,180,193378,6,0,B|460:180,1,45
420,208,193612,2,0,B|468:241,1,45,0|0
420,244,193847,2,0,B|440:299,1,45,0|0
399,273,194081,2,0,B|383:329,1,45,0|0
366,283,194316,6,0,B|320:320,1,45
146,283,194784,2,0,B|191:320,1,45
180,311,195253,5,0
268,332,195487,1,0
344,284,195722,1,0
365,196,195956,1,0
317,120,196191,5,0
372,48,196425,1,0
452,92,196659,1,0
444,180,196894,1,0
365,196,197128,5,0
320,204,197245,1,0
276,212,197362,1,0
260,124,197597,5,0
244,140,197714,1,0
228,156,197831,1,0
188,76,198066,5,0
184,88,198183,1,0
180,104,198300,1,0
124,36,198534,5,0
124,36,198651,1,0
124,36,198769,1,0
40,169,199003,6,0,B|28:80,1,90
104,216,199472,2,0,B|112:168|96:112,1,90
168,264,199941,2,0,B|188:216|168:160,1,90
232,312,200409,2,0,B|268:272|240:208,1,90
296,360,200878,5,0
328,364,200995,1,0
360,356,201112,1,0
380,332,201230,1,0
388,300,201347,1,0
380,268,201464,1,0
360,244,201582,1,0
328,236,201699,1,0
296,240,201816,6,0,B|248:252,3,45
260,192,202284,2,0,B|216:181,3,45
248,128,202753,5,0
143,110,202987,1,0
90,204,203222,1,0
157,290,203456,1,0
255,235,203690,5,0
276,322,203924,1,0
367,326,204158,1,0
402,244,204393,1,0
336,180,204628,6,0,B|264:108,1,90
260,204,205097,2,0,B|208:156|208:116,1,90
188,220,205566,2,0,B|144:188|152:136,1,90
116,236,206034,2,0,B|72:216|84:160,1,90
24,96,206503,5,0
96,44,206737,1,0
168,96,206972,1,0
136,180,207206,1,0
57,178,207441,5,0
100,302,207675,1,0
241,307,207909,1,0
280,174,208144,1,0
168,96,208378,5,0
188,72,208495,1,0
220,64,208612,1,0
252,64,208730,1,0
280,76,208847,1,0
300,100,208964,1,0
312,128,209081,1,0
312,160,209199,1,0
300,188,209316,5,0
300,188,210253,5,0
363,248,210487,1,0
447,212,210722,1,0
427,124,210956,1,0
340,104,211191,5,0
488,160,211425,1,0
340,104,211659,1,0
488,160,211894,1,0
340,104,212128,6,0,B|248:72,1,90
284,160,212597,2,0,B|228:144|188:108,1,90
224,216,213066,2,0,B|160:212|132:148,1,90
168,272,213534,2,0,B|104:272|96:188,1,90
112,328,214003,5,0
196,356,214237,1,0
256,288,214472,1,0
204,216,214706,1,0
116,236,214941,5,0
164,112,215175,1,0
300,112,215409,1,0
348,236,215643,1,0
232,304,215878,5,0
252,328,215995,1,0
284,332,216112,1,0
308,312,216230,1,0
312,280,216347,1,0
332,256,216463,1,0
364,252,216580,1,0
388,272,216698,1,0
392,304,216816,6,0,B|384:356,3,45
440,336,217284,2,0,B|448:392,3,45,0|0|0|0
496,360,217753,5,0
508,272,217987,1,0
444,208,218222,1,0
360,240,218456,1,0
336,328,218691,5,0
276,344,218925,1,0
224,312,219159,1,0
228,248,219394,1,0
284,216,219628,6,0,B|364:152,1,90
220,184,220097,2,0,B|252:148|296:128,1,90
156,152,220566,2,0,B|180:100|232:96,1,90
92,136,221034,2,0,B|100:76|160:72,1,90
28,136,221503,5,0
16,224,221737,1,0
96,268,221972,1,0
160,204,222206,1,0
124,120,222441,5,0
68,215,222675,1,0
140,304,222910,1,0
244,260,223144,1,0
236,144,223378,5,0
248,116,223495,1,0
272,96,223612,1,0
304,92,223730,1,0
336,96,223847,1,0
360,116,223964,1,0
372,144,224081,1,0
368,176,224198,5,0
368,176,224784,6,0,B|352:232,1,45
355,219,225253,1,0
