osu file format v6

[General]
AudioFilename: 02_Be_With_Me.mp3
AudioLeadIn: 1930
PreviewTime: 68464
Countdown: 0
SampleSet: Soft
StackLeniency: 0.7
Mode: 0
LetterboxInBreaks: 1

[Editor]
Bookmarks: 13472
DistanceSpacing: 0.800000011920929
BeatDivisor: 4
GridSize: 16

[Metadata]
Title:Be With Me
Artist:Spontania Feat. SEAMO
Creator:haisha_
Version:Normal
Source:
Tags:

[Difficulty]
HPDrainRate:4
CircleSize:3
OverallDifficulty:4
SliderMultiplier:2.4
SliderTickRate:2

[Events]
//Background and Video events
0,0,"animelove.png"
//Break Periods
//Storyboard Layer 0 (Background)
//Storyboard Layer 1 (Fail)
//Storyboard Layer 2 (Pass)
//Storyboard Layer 3 (Foreground)
//Storyboard Sound Samples
//Background Colour Transformations
3,100,239,239,239

[TimingPoints]
484,907.9,4,2,0,100,1,0
4115,840.8,4,2,0,100,1,0
7478,778.900000000001,4,2,0,100,1,0
13709,749.700000000001,4,2,0,100,1,0
16707,734.600000000002,4,2,0,100,1,0
19645,725.600000000001,4,2,0,100,1,0
25339,681.818181818182,4,2,0,100,1,0
25339,-100,4,1,0,100,0,0
47129,-200,4,1,0,100,0,0
47839,-200,4,2,0,100,0,0
52100,-100,4,1,0,100,0,0
58748,-100,4,2,0,100,0,0
62839,-100,4,1,0,100,0,0
68975,-100,4,1,0,100,0,1
89429,-100,4,2,0,100,0,0

[Colours]
Combo1 : 167,142,131
Combo2 : 172,172,172

[HitObjects]
32,160,484,2,0,B|112:112|176:176|176:176|160:160,1,120
128,224,1164,1,0
96,288,1391,2,0,B|240:288,1,120,2|0
336,288,2299,2,0,B|336:160,1,120
464,160,3207,2,0,B|480:96|464:32,1,120
400,64,3888,5,0
336,80,4115,2,0,B|336:208,1,120,2|0
272,288,4955,2,0,B|208:336|128:272,1,120
80,208,5796,2,0,B|80:48,1,120
144,112,6427,1,0
208,96,6637,2,0,B|352:96,1,120
368,144,7267,1,0
368,208,7478,6,0,B|304:240|208:192,1,120,2|0
128,208,8256,2,0,B|96:272|128:336,1,120
240,336,9035,2,0,B|320:304|400:352,1,120
400,224,9814,2,0,B|288:192,2,60
448,112,10593,6,0,B|400:64|288:80|288:80|288:80,1,120,2|0
272,96,11177,2,0,B|192:144,1,60
160,160,11567,1,0
144,224,11761,2,0,B|224:272|288:192,2,120
48,288,12930,1,0
160,336,13319,1,0
272,288,13709,5,2
400,288,14083,2,0,B|400:160,1,120
464,240,14833,2,0,B|464:112,1,120
400,192,15583,2,0,B|400:64,1,120
336,96,16145,1,0
272,128,16332,1,0
208,96,16520,1,0
144,128,16707,6,0,B|112:192|144:256,1,120,2|0
192,288,17257,1,0
248,248,17441,2,0,B|274:195|242:131,1,120
336,48,18176,1,0
416,128,18543,6,0,B|416:192,1,60
416,256,18910,2,0,B|416:320,2,60
416,188,19461,1,0
416,192,19645,6,0,B|384:196|288:196,1,120,2|0
176,192,20370,2,0,B|176:336,1,120
304,304,21096,2,0,B|384:256|416:192,1,120
400,112,21821,2,0,B|272:112,1,120
224,144,22366,1,0
176,192,22547,5,2
176,192,22910,2,0,B|288:288,1,120,0|0
267,270,23635,1,0
256,208,23998,12,0,25087
96,96,25339,6,0,B|256:96,1,120
176,208,26020,2,0,B|336:208,1,120,8|0
400,272,26702,2,0,B|400:112,1,120
304,80,27384,6,0,B|208:80,1,60,8|0
208,128,27725,2,0,B|208:240,1,60
208,304,28236,2,0,B|368:304,2,120
64,288,29259,2,0,B|160:96,1,180
256,160,30111,1,8
368,128,30452,6,0,B|384:304|208:304,1,240
248,302,31304,1,0
80,224,31816,2,0,B|80:80,1,120
208,128,32498,1,0
208,128,32668,2,0,B|208:256,1,120,0|0
256,208,33350,12,0,35907
64,128,36248,6,0,B|128:96|224:144,1,120
240,224,36929,1,8
304,320,37270,1,0
352,224,37611,1,0
432,144,37952,2,0,B|464:128|480:96,2,60
352,224,38634,5,8
288,112,38975,5,0
240,224,39316,1,0
288,112,39657,2,0,B|160:112,1,120,8|0
80,192,40338,2,0,B|96:272|80:272|96:288,2,60
48,80,41020,1,0
48,80,41361,5,8
176,80,41702,6,0,B|304:80|400:192,1,240
304,256,42725,1,0
192,240,43066,2,0,B|160:176|208:112,1,120
272,192,43748,1,8
336,128,44088,2,0,B|384:176|352:240,1,120
272,320,44770,6,0,B|192:336|112:304,2,120,0|8|0
224,224,45793,2,0,B|288:208|384:240,2,120,0|0|8
144,304,46816,1,0
48,224,47157,2,0,B|48:112,1,60
48,164,47838,5,2
112,80,48179,1,0
176,160,48520,1,0
272,112,48861,2,0,B|272:176,1,60,0|2
352,240,49543,1,0
256,208,49884,12,4,51929
64,112,52270,6,0,B|208:112,1,120
304,112,52952,1,0
304,112,53123,2,0,B|352:192|320:288,1,180
256,320,53804,1,0
192,288,53975,2,0,B|144:240|144:176,2,120,0|0|8
192,288,54998,1,0
256,208,55339,12,0,58066
80,112,58748,6,0,B|304:112,1,240,0|2
448,272,60111,2,0,B|192:272,1,240,0|2
96,208,61134,2,0,B|48:160|96:80,2,120
256,208,62157,12,8,62839
80,80,63179,6,0,B|160:64|192:128,3,120,0|0|0|8
256,192,64543,1,0
256,192,64884,5,0
256,192,65566,1,8
256,208,66248,12,8,68293
64,128,68975,6,0,B|128:96|192:128|208:128|176:128,1,120
224,176,69486,2,0,B|224:256,1,60,0|8
304,304,69998,1,0
304,304,70339,2,0,B|368:336|432:304|448:304|416:304,1,120
464,256,70850,2,0,B|464:192,1,60,0|8
400,96,71361,6,0,B|256:96,1,120,0|0
176,160,72043,1,0
176,160,72214,1,0
176,160,72384,2,0,B|176:352,2,180,8|0|0
304,160,73748,6,0,B|304:288,2,120,8|0|0
304,160,74770,1,0
176,160,75111,2,0,B|48:160,2,120,8|0|0
176,160,76134,1,0
304,160,76475,1,8
304,160,76816,5,0
256,208,77157,12,8,79202
448,256,79543,5,0
448,256,79884,2,0,B|384:288|320:256|304:256|336:256,1,120
288,208,80395,2,0,B|288:128,1,60,0|8
208,80,80907,1,0
208,80,81248,2,0,B|144:48|80:80|64:80|96:80,1,120
48,128,81759,2,0,B|48:192,1,60,0|8
112,288,82270,6,0,B|256:288,1,120
336,224,82952,1,0
336,224,83123,1,0
336,224,83293,2,0,B|336:32,2,180,8|0|0
336,224,84657,1,8
208,224,84998,5,0
336,224,85339,1,0
208,224,85679,1,0
336,224,86020,2,0,B|464:224,2,120,8|0|0
336,224,87043,1,0
208,224,87384,1,8
208,224,87725,1,0
256,208,88066,12,0,89089
208,160,89429,6,0,B|64:160,2,120,0|0|8
336,160,90452,1,0
256,208,90793,12,4,92839
