osu file format v7

[General]
AudioFilename: 10-spongebob_squarepants-goofy_goober_rock.mp3
AudioLeadIn: 0
PreviewTime: -1
Countdown: 1
SampleSet: Soft
StackLeniency: 0.7
Mode: 0
LetterboxInBreaks: 1

[Editor]
DistanceSpacing: 1.79999995231628
BeatDivisor: 8
GridSize: 8

[Metadata]
Title:Goofy Goober Rock
Artist:SpongeBob SquarePants
Creator:Chompey
Version:Goofy Goober
Source:Spongebob Squarepants
Tags:

[Difficulty]
HPDrainRate:5
CircleSize:4
OverallDifficulty:9
SliderMultiplier:2
SliderTickRate:1

[Events]
//Background and Video events
0,0,"Background.png"
//Break Periods
2,19538,23832
2,59161,64587
2,71896,81851
//Storyboard Layer 0 (Background)
//Storyboard Layer 1 (Fail)
//Storyboard Layer 2 (Pass)
//Storyboard Layer 3 (Foreground)
//Storyboard Sound Samples
//Background Colour Transformations
3,100,163,162,255

[TimingPoints]
1791.20015258966,566.037735849057,4,2,0,100,1,0
44102,-50,4,2,0,100,0,0
45659,-100,4,2,0,100,0,0
68512,-50,4,2,0,100,0,0
69715,-100,4,2,0,100,0,0

[HitObjects]
256,48,1791,1,0
256,248,2357,1,0
208,320,2640,1,0
256,336,2781,1,0
304,320,2923,1,0
256,128,3489,1,0
208,48,3772,1,0
256,32,3913,1,0
304,48,4055,1,0
160,184,4621,1,0
352,184,5187,1,0
256,8,5753,1,0
256,200,6319,1,0
64,192,6885,1,0
160,192,7168,1,0
160,144,7310,2,0,L|160:80,1,50
448,192,8017,1,0
352,192,8300,1,0
352,144,8442,2,0,L|352:80,1,50
160,64,9149,1,0
352,64,9715,1,0
256,232,10281,1,0
256,40,10847,1,0
64,40,11413,2,0,L|64:144,1,100
64,192,11838,1,0
64,240,11979,1,0
448,40,12545,2,0,L|448:144,1,100
448,192,12970,1,0
448,240,13111,1,0
256,208,13677,1,0
256,8,14244,1,0
256,208,14810,1,0
256,208,15376,1,0
64,208,15942,2,0,L|176:208,1,100
216,208,16366,2,0,L|272:208,1,50
448,208,17074,2,0,L|336:208,1,100
296,208,17498,2,0,L|240:208,1,50
160,352,18206,1,0
352,352,18772,1,0
256,184,19338,1,0
256,192,24432,5,0
256,312,24715,1,0
256,192,24998,1,0
256,72,25281,1,0
136,72,25564,1,0
136,136,25706,1,0
136,312,26130,2,0,L|336:312|336:104,1,400
256,192,28677,1,0
136,192,28961,1,0
136,312,29244,2,0,L|384:312,1,200
456,312,30093,1,0
456,192,30376,1,0
432,136,30517,1,0
384,104,30659,1,0
264,112,30942,1,0
288,168,31083,1,0
336,200,31225,1,0
384,232,31366,1,0
408,288,31508,1,0
288,288,31791,1,0
232,288,31932,1,0
232,288,32003,1,0
232,288,32074,1,0
232,48,32640,1,0
232,48,32711,1,0
232,48,32781,1,0
296,48,32923,1,0
296,104,33064,1,0
296,288,33489,1,0
56,288,34055,1,0
56,168,34338,1,0
176,168,34621,2,0,L|256:168,1,50
408,168,35187,2,0,L|400:176|416:184|400:192|416:200|400:208|416:216|400:224|416:232|400:240|408:248|408:288,1,200
264,168,36177,1,0
200,168,36319,1,0
200,288,36602,1,0
384,288,37027,1,0
200,288,37451,1,0
200,168,37734,1,0
320,168,38017,1,0
320,48,38300,1,0
440,48,38583,1,0
440,168,38866,1,0
400,280,39149,1,0
360,168,39432,1,0
320,280,39715,1,0
280,168,39998,1,0
280,104,40140,1,0
168,136,40423,1,0
168,256,40706,2,0,L|232:256|240:248|248:264|256:248|264:264|272:248|280:264|288:248|296:264|304:256|360:256,1,250
342,256,41696,1,0
344,136,41979,2,0,B|320:72|248:80,2,100
168,248,42970,1,0
168,248,43111,2,0,B|192:312|264:304,2,100
168,248,43961,1,0
40,40,44244,2,0,B|448:40,1,400
40,312,45376,1,0
256,192,47640,1,0
40,344,48206,1,0
40,184,48489,1,0
72,112,48630,1,0
112,184,48772,1,0
400,40,49338,1,0
400,200,49621,1,0
360,128,49762,1,0
328,200,49904,1,0
256,352,50470,1,0
256,32,51036,1,0
256,352,51602,1,0
256,352,52168,1,0
88,80,52734,1,0
88,240,53017,1,0
168,240,53159,1,0
128,312,53300,1,0
448,344,53866,1,0
448,184,54149,1,0
368,184,54291,1,0
408,112,54432,1,0
96,192,54998,1,0
416,192,55564,1,0
96,192,56130,1,0
96,192,56696,1,0
416,192,57262,1,0
256,192,57545,1,0
256,192,57687,1,0
256,192,57828,1,0
96,192,58394,1,0
256,192,58677,1,0
256,192,58819,1,0
256,192,58961,1,0
256,192,65187,5,0
256,192,65753,1,0
256,192,66319,2,0,L|264:200|248:208|264:216|248:224|264:232|248:240|264:248|248:256|264:264|256:280|256:312,2,200
304,184,67522,1,0
344,160,67593,1,0
368,120,67663,1,0
376,72,67734,1,0
368,24,67805,1,0
328,0,67876,1,0
288,16,67946,1,0
264,56,68017,1,0
176,88,68159,1,0
248,136,68300,1,0
168,168,68442,1,0
240,224,68583,2,0,B|224:320|152:336|104:336|72:312|48:256|40:160|48:72,2,400
304,160,69857,1,0
240,96,69998,1,0
176,160,70140,1,0
240,224,70281,1,0
240,224,70352,1,0
360,224,70847,1,0
120,224,71130,1,0
480,224,71413,1,0
24,224,71696,1,0
256,192,82451,5,0
