osu file format v5

[General]
AudioFilename: Red september.mp3
AudioLeadIn: 993
PreviewTime: -1
Countdown: 3
SampleSet: Soft

[Metadata]
Title:September
Artist:Spoken
Creator:xerious
Version:Normal

[Difficulty]
HPDrainRate:2
CircleSize:8
OverallDifficulty:1
SliderMultiplier:2
SliderTickRate:4

[Events]
//Background and Video events
//Break Periods
//Storyboard Layer 0 (Background)
//Storyboard Layer 1 (Failing)
//Storyboard Layer 2 (Passing)
//Storyboard Layer 3 (Foreground)
//Storyboard Sound Samples
//Background Colour Transformations
3,100,163,162,255

[TimingPoints]
31,705.799317727326,3,2,0,100

[HitObjects]
256,192,10853,1,0
256,192,13676,1,0
256,192,14970,1,0
192,192,16264,1,0
192,192,16382,1,0
192,224,16617,1,0
256,160,17793,1,0
256,160,17911,1,0
256,192,18264,1,0
256,160,18617,1,0
256,160,18852,1,0
256,192,19205,1,0
160,128,19558,1,0
160,160,19911,1,0
160,160,20028,1,0
192,192,20263,1,0
160,160,20616,1,0
160,160,20852,1,0
160,128,21322,1,0
160,128,21557,1,0
224,160,21910,1,0
128,192,23322,1,0
224,192,23557,1,0
128,128,24616,1,0
128,128,24851,1,0
192,160,25204,1,0
256,224,25557,1,0
192,224,25910,1,0
128,192,26263,1,0
128,192,26498,1,0
160,128,26851,1,0
160,128,27086,1,0
160,128,27321,1,0
224,128,27674,1,0
256,160,28027,1,0
192,192,28380,1,0
128,128,28851,5,0
160,128,29204,1,0
192,128,29792,1,0
224,128,30262,1,0
256,128,30733,1,0
288,128,31086,1,0
320,128,31439,1,0
352,128,31909,1,0
128,192,32615,1,0
160,192,33085,1,0
192,192,33438,1,0
224,192,33791,1,0
96,160,34615,5,0
128,160,35203,1,0
160,160,35791,1,0
192,160,36497,1,0
224,160,37203,1,0
256,160,37908,1,0
288,160,38497,1,0
320,160,39438,5,0
288,192,40379,1,0
256,224,40849,1,0
224,256,41555,1,0
192,288,41908,1,0
160,320,42261,1,0
96,192,43084,5,0
128,192,43555,1,0
160,192,43908,1,0
192,192,44261,1,0
96,128,45084,5,0
128,128,45437,1,0
160,128,45790,1,0
192,128,46143,1,0
256,128,46496,1,0
192,192,46966,1,0
224,192,47319,1,0
128,96,48731,5,0
128,128,49084,1,0
128,160,49436,1,0
128,192,49789,1,0
128,224,50260,1,0
192,96,51436,5,0
192,128,51671,1,0
192,160,51907,1,0
192,192,52613,1,0
192,224,52965,1,0
256,192,53671,1,0
160,128,54377,1,0
224,128,55083,1,0
96,192,55906,5,0
192,192,56612,1,0
256,192,57200,1,0
320,192,57906,1,0
384,192,58612,1,0
96,160,59906,5,0
160,160,60376,1,0
224,160,60847,1,0
320,160,61200,1,0
352,192,61670,1,0
128,160,62729,5,0
160,160,62964,1,0
192,160,63435,1,0
224,160,63788,1,0
256,160,64141,1,0
128,160,64846,5,0
160,160,65199,1,0
128,160,65552,1,0
160,160,65787,1,0
128,160,66258,1,0
160,160,66493,1,0
160,160,66611,1,0
160,160,66846,1,0
160,160,67081,1,0
160,224,67905,5,0
192,224,68493,1,0
224,224,68846,1,0
256,224,69316,1,0
288,224,69787,1,0
96,160,71081,5,0
128,160,71434,1,0
160,160,71787,1,0
192,160,72022,1,0
224,160,72375,1,0
256,160,72728,1,0
288,160,73081,1,0
128,160,74022,5,0
192,160,74375,1,0
224,160,74728,1,0
288,160,75080,1,0
352,160,75433,1,0
320,192,76022,1,0
288,224,76374,1,0
256,256,76727,1,0
256,288,77080,1,0
192,320,77433,1,0
160,288,77786,1,0
160,256,78139,1,0
96,160,80139,5,0
128,192,80256,1,0
160,224,80609,1,0
224,256,80727,1,0
224,96,81433,1,0
256,160,82491,5,0
288,192,82727,1,0
256,224,83080,1,0
224,256,83550,1,0
160,256,84021,1,0
96,160,85432,5,0
160,160,85903,1,0
160,192,86138,1,0
128,224,86491,1,0
160,256,86844,1,0
256,128,88255,5,0
256,192,88491,1,0
256,256,88844,1,0
256,288,89196,1,0
96,160,90255,1,0
128,160,90843,1,0
160,160,91196,1,0
192,160,91667,1,0
224,160,92020,1,0
256,160,92373,1,0
288,160,92843,1,0
128,96,93902,5,0
128,160,94372,1,0
128,224,95078,1,0
128,288,95666,1,0
160,128,96372,5,0
224,128,96607,1,0
256,128,96843,1,0
320,128,97078,1,0
192,192,97901,5,0
224,192,98254,1,0
288,192,98842,1,0
320,192,99431,1,0
352,192,100019,1,0
352,192,100136,1,0
352,192,100254,1,0
352,192,100489,1,0
352,192,100607,1,0
352,192,100725,1,0
352,192,100842,1,0
352,192,100960,1,0
128,128,101666,5,0
192,128,102371,1,0
256,128,103077,1,0
320,128,103783,1,0
128,192,105195,5,0
192,192,105547,1,0
256,192,105900,1,0
320,192,106253,1,0
352,192,106606,1,0
384,192,106959,1,0
128,192,107900,5,0
192,192,108606,1,0
256,192,108959,1,0
288,192,109312,1,0
256,256,109900,1,0
288,256,110253,1,0
256,256,110606,1,0
288,256,110959,1,0
256,256,111312,1,0
288,256,111664,1,0
288,256,111782,1,0
288,256,112017,1,0
288,256,112253,1,0
128,160,113076,5,0
192,160,113782,1,0
256,160,114017,1,0
320,192,114488,1,0
352,192,114841,1,0
128,192,116252,5,0
192,192,116605,1,0
224,192,116958,1,0
288,192,117193,1,0
320,192,117546,1,0
352,192,117899,1,0
384,192,118252,1,0
128,128,119311,5,0
128,160,119663,1,0
128,192,120252,1,0
128,224,120605,1,0
192,224,121075,1,0
224,224,121546,1,0
256,224,121899,1,0
288,224,122251,1,0
320,224,122604,1,0
352,224,122957,1,0
384,224,123310,1,0
416,224,123545,1,0
96,192,124486,5,0
128,192,124957,1,0
160,192,125310,1,0
192,192,125663,1,0
224,192,126133,1,0
288,192,126369,1,0
128,160,127192,1,0
160,160,127545,1,0
160,160,127898,1,0
192,160,128251,1,0
192,160,128604,1,0
224,160,128839,1,0
224,160,129074,1,0
256,160,129545,1,0
256,160,129898,1,0
288,160,130250,1,0
352,160,130839,5,0
352,160,131192,1,0
352,160,131544,1,0
352,160,131662,1,0
352,160,131780,1,0
352,160,132015,1,0
160,96,132486,5,0
160,160,132838,1,0
160,192,133191,1,0
160,224,133544,1,0
160,256,133897,1,0
160,288,134132,1,0
160,320,134368,1,0
160,320,134603,1,0
160,320,134721,1,0
192,128,135309,5,0
192,160,135662,1,0
192,192,136015,1,0
192,224,136367,1,0
192,256,136603,1,0
192,288,136956,1,0
192,320,137308,1,0
192,320,137544,1,0
192,320,137661,1,0
160,160,138132,5,0
256,192,138485,1,0
160,224,138838,1,0
192,224,139191,1,0
128,224,139779,1,0
128,160,140955,1,0
192,160,141308,1,0
160,160,141661,1,0
160,128,141896,1,0
160,192,142602,1,0
160,160,142955,1,0
160,128,143778,5,0
192,128,144131,1,0
224,160,144484,1,0
224,192,144719,1,0
224,256,145190,1,0
96,160,146484,5,0
160,160,146837,1,0
96,160,147190,1,0
160,160,147543,1,0
128,160,148131,1,0
96,160,148601,1,0
96,96,149307,5,0
160,96,149660,1,0
128,96,150013,1,0
128,128,150366,1,0
128,160,151072,1,0
128,192,151424,1,0
192,96,152130,5,0
160,128,152483,1,0
160,160,152836,1,0
160,160,153189,1,0
192,192,153777,1,0
224,160,154365,1,0
192,128,155071,5,0
160,160,155424,1,0
192,192,155777,1,0
224,160,156247,1,0
256,128,158012,5,0
256,192,158482,1,0
288,256,158835,1,0
224,256,159541,1,0
192,256,160012,1,0
192,256,160247,1,0
256,192,161070,12,0,165776
160,192,166129,1,0
224,192,166482,1,0
320,192,166717,1,0
288,192,167423,1,0
256,192,167775,1,0
256,192,168128,1,0
224,192,168481,1,0
192,192,168834,1,0
128,192,169187,1,0
160,192,169540,1,0
128,192,169893,1,0
160,192,170246,1,0
96,192,170481,1,0
128,192,170716,1,0
128,192,170834,1,0
128,192,170952,1,0
128,192,171187,1,0
128,192,171422,1,0
128,192,171540,1,0
128,192,171657,1,0
224,160,172010,1,0
224,192,172834,1,0
224,224,173657,1,0
160,160,174363,5,0
256,192,175892,1,0
192,192,176127,1,0
256,128,176598,1,0
320,160,176951,1,0
352,224,177186,1,0
352,256,177539,1,0
160,160,178480,5,0
256,160,178833,1,0
288,224,179304,1,0
320,224,179656,1,0
320,192,179892,1,0
128,128,181186,5,0
192,128,181539,1,0
160,192,181891,1,0
96,224,182244,1,0
160,256,182715,1,0
160,256,182950,1,0
160,256,183185,1,0
160,256,183421,1,0
224,160,183891,1,0
256,160,184362,1,0
224,160,184715,1,0
224,192,185303,5,0
96,96,186832,5,0
224,128,187067,1,0
160,160,187420,1,0
192,192,187773,1,0
256,192,188126,1,0
192,288,188479,1,0
288,256,188832,1,0
160,160,189891,5,0
224,160,190479,1,0
256,160,190832,1,0
320,160,191184,1,0
352,160,191773,1,0
352,160,192126,1,0
352,160,192478,1,0
352,160,192831,1,0
256,160,193184,1,0
288,160,193537,1,0
256,160,193772,1,0
288,160,194125,1,0
160,160,194831,5,0
160,160,195184,1,0
224,160,195537,1,0
160,160,196243,1,0
224,160,196596,1,0
256,160,196949,1,0
160,128,197772,5,0
224,128,198007,1,0
160,128,198360,1,0
224,128,198713,1,0
160,128,199066,1,0
224,128,199419,1,0
192,128,199654,1,0
128,192,200478,5,0
192,192,200830,1,0
96,128,201419,5,0
160,128,201771,1,0
224,128,202124,1,0
192,224,202477,1,0
224,224,202830,1,0
256,224,203183,1,0
288,224,203654,1,0
320,224,204124,1,0
352,224,204477,1,0
384,224,204830,1,0
384,224,204948,1,0
384,224,205065,1,0
384,224,205418,1,0
