osu file format v9

[General]
AudioFilename: 03-.mp3
AudioLeadIn: 0
PreviewTime: 126664
Countdown: 1
SampleSet: Soft
StackLeniency: 0.7
Mode: 0
LetterboxInBreaks: 1

[Editor]
DistanceSpacing: 0.6
BeatDivisor: 2
GridSize: 8

[Metadata]
Title:Match
Artist:Splin
Creator:DesuEagle
Version:Normal
Source:
Tags:football, soccer, OzzyOzrock

[Difficulty]
HPDrainRate:6
CircleSize:4
OverallDifficulty:6
ApproachRate:4
SliderMultiplier:1.6
SliderTickRate:1

[Events]
//Background and Video events
0,0,"583308.jpg"
//Break Periods
2,68807,74344
2,120235,125772
//Storyboard Layer 0 (Background)
//Storyboard Layer 1 (Fail)
//Storyboard Layer 2 (Pass)
//Storyboard Layer 3 (Foreground)
//Storyboard Sound Samples
//Background Colour Transformations
3,100,163,162,255

[TimingPoints]
13950,428.571428571429,4,2,0,85,1,0
127102,-100,4,2,0,85,0,1
143817,-100,4,2,0,85,0,0

[HitObjects]
56,248,13949,5,4
152,248,14378,2,0,B|312:248,1,160,8|0
408,248,15235,1,8
408,152,15664,1,0
408,56,16092,1,8
312,56,16521,2,0,B|120:56,1,160,0|8
72,104,17378,6,0,B|128:144|160:112|224:160,1,160,0|8
320,160,18235,1,0
416,160,18664,1,8
416,256,19092,2,0,B|360:216|328:248|264:200,1,160,0|8
168,200,19950,1,0
168,104,20378,1,8
72,96,20807,6,0,B|40:128|40:224|80:256,1,160,0|8
136,320,21664,1,0
232,320,22092,1,8
328,320,22521,2,0,B|373:320|441:252|435:201,1,160,0|8
432,120,23378,1,0
432,120,23807,1,8
336,120,24235,6,0,B|128:120,1,160,0|8
112,48,25092,2,0,B|56:128|112:200,2,160,0|8|0
208,48,26378,1,8
208,144,26807,1,0
208,240,27235,1,8
112,240,27664,6,0,B|112:296|152:344|216:344,2,160,0|8|0
208,240,28950,1,8
304,240,29378,1,0
304,336,29807,1,8
304,240,30235,1,0
304,144,30664,1,8
304,48,31092,5,0
400,48,31521,2,0,B|400:240,1,160,8|0
472,144,32378,1,8
472,240,32807,1,0
376,256,33235,2,0,B|296:296|200:256,1,160,8|0
128,264,34092,1,8
128,168,34521,6,0,B|193:74|248:152|248:152|328:96|448:104,1,320,4|0
408,200,35807,1,8
312,200,36235,1,0
312,296,36664,2,0,B|384:376|448:296,1,160,8|0
448,200,37521,1,8
352,200,37950,5,0
256,200,38378,1,8
256,296,38807,1,0
352,296,39235,1,8
448,288,39664,2,0,B|392:176|280:176|270:268|232:360|120:360|72:232,1,480,0|8
168,232,41378,5,4
168,136,41807,1,8
80,96,42235,2,0,B|128:8|152:8|168:120|232:120|264:8|288:8|336:104,1,320
408,40,43521,1,8
408,136,43950,1,0
408,232,44378,1,8
312,232,44807,6,0,B|96:232,1,160,0|8
88,160,45664,1,0
184,160,46092,1,8
280,160,46521,2,0,B|280:88|248:56|176:56,2,160,0|8|0
376,160,47807,1,8
472,160,48235,5,0
472,256,48664,1,8
376,248,49092,2,0,B|216:152,1,160,0|8
152,120,49950,1,0
248,96,50378,2,0,B|432:208,1,160,8|0
384,272,51235,1,8
288,272,51664,6,0,B|200:280|184:264|184:192,1,160,0|8
184,96,52521,1,0
280,96,52950,1,8
280,192,53378,1,0
280,288,53807,1,8
376,288,54235,1,0
280,288,54664,1,8
376,288,55092,5,4
376,192,55521,1,8
472,192,55950,1,0
472,96,56378,1,8
376,96,56807,5,0
280,96,57235,1,8
280,192,57664,1,0
184,192,58092,1,8
184,96,58521,5,0
184,192,58950,1,8
280,192,59378,1,0
184,192,59807,1,8
184,96,60235,5,0
280,96,60664,1,8
280,192,61092,1,0
184,192,61521,1,8
264,136,61950,6,0,B|264:296|264:296|104:296|104:296|104:128,1,480,0|4
184,192,63664,2,0,B|184:32|184:32|344:32|344:32|344:200,1,480,0|4
264,136,65378,2,0,B|264:296|264:296|424:296|424:296|424:128,1,480,0|4
256,192,67092,12,4,68378
256,96,75664,5,4
256,192,76092,1,8
160,192,76521,2,0,B|152:240|192:304|256:304,1,160,0|8
344,304,77378,5,0
440,304,77807,1,8
440,208,78235,2,0,B|448:160|408:96|344:96,1,160,0|8
256,96,79092,5,0
160,96,79521,1,8
160,192,79950,1,0
64,192,80378,1,8
64,96,80807,5,0
160,96,81235,1,8
256,96,81664,1,0
256,192,82092,1,8
160,192,82521,5,0
256,192,82950,2,0,B|256:264|296:304|344:304,1,160
416,240,83807,1,8
416,144,84235,5,0
416,48,84664,1,8
328,80,85092,2,0,B|328:304,1,160,0|8
232,240,85950,5,0
136,240,86378,1,8
136,144,86807,1,0
192,224,87235,1,8
192,128,87664,5,0
248,208,88092,1,8
248,112,88521,1,0
304,192,88950,1,8
296,96,89378,5,4
392,96,89807,2,0,B|392:312,1,160,8|0
488,256,90664,1,8
488,160,91092,5,0
488,64,91521,2,0,B|264:64,1,160,8|0
232,64,92378,1,8
136,64,92807,5,0
64,128,93235,2,0,B|136:208|200:128,1,160,8|0
256,208,94092,1,8
256,208,94521,5,0
328,144,94950,2,0,B|400:224|464:144,1,160,8|0
400,80,95807,1,8
304,80,96235,5,0
208,80,96664,2,0,B|-16:80,1,160,8|0
48,176,97521,1,8
144,176,97950,5,0
240,176,98378,2,0,B|400:176,1,160,8|0
408,272,99235,1,8
312,272,99664,5,0
240,208,100092,1,8
168,272,100521,1,0
264,272,100950,1,8
336,208,101378,1,0
408,272,101807,1,8
312,272,102235,1,0
240,208,102664,1,8
200,120,103092,6,0,B|336:208|336:208|176:208|176:208|312:344,1,480,4|0
384,328,104807,5,0
456,264,105235,1,8
456,168,105664,1,0
376,120,106092,1,8
368,216,106521,5,0
304,144,106950,2,0,B|304:360,1,160,8|0
400,304,107807,1,8
400,208,108235,5,0
304,200,108664,1,8
304,296,109092,1,0
208,296,109521,1,8
208,200,109950,5,0
112,200,110378,2,0,B|112:136|200:144|200:72,1,160,8|0
296,80,111235,1,8
256,168,111664,5,0
352,176,112092,2,0,B|352:112|440:120|440:48,2,160,8|0|8
256,192,113378,12,0,115950
256,192,116378,5,8
256,192,116807,12,0,119378
256,192,119807,5,8
256,304,127092,6,0,B|128:216|256:176|384:144|224:24,1,320,4|0
160,48,128378,1,8
160,144,128807,5,0
160,240,129235,1,8
160,144,129664,1,0
160,48,130092,1,8
256,48,130521,5,0
256,144,130950,2,0,B|280:104|280:104|352:104|352:104|376:64,1,160,8|0
472,72,131807,1,8
472,168,132235,5,0
376,168,132664,1,8
376,72,133092,1,0
280,72,133521,1,8
184,72,133950,5,0
88,80,134378,2,0,B|120:264|256:192|256:192|384:112|432:296,1,480,8|0
328,272,136092,1,8
232,272,136521,1,0
136,272,136950,1,8
72,200,137378,5,0
168,192,137807,2,0,B|64:72,1,160,8|0
160,56,138664,1,8
256,56,139092,5,0
352,56,139521,2,0,B|240:176,1,160,8|0
336,192,140378,1,8
432,192,140807,5,0
432,288,141235,2,0,B|272:288,1,160
176,288,142092,1,8
80,288,142521,5,0
80,192,142950,2,0,B|240:192,1,160,8|0
248,96,143807,1,8
176,40,144235,6,0,B|104:24|48:64|40:96,1,160,4|8
40,192,145092,1,0
40,288,145521,1,8
136,288,145950,6,0,B|208:304|264:264|272:232,1,160,0|8
272,136,146807,1,0
272,40,147235,1,8
368,40,147664,6,0,B|424:96|424:96|368:176,1,160,0|8
424,248,148521,1,0
328,248,148950,1,8
232,248,149378,6,0,B|72:248,1,160,0|8
40,336,150235,1,0
136,336,150664,1,8
136,240,151092,6,8,B|136:80,1,160
232,80,151950,1,0
328,80,152378,1,8
328,176,152807,6,0,B|408:120|464:176|464:200,1,160,0|8
464,296,153664,1,0
368,296,154092,1,8
272,296,154521,5,0
176,296,154950,1,8
80,296,155378,1,0
80,200,155807,1,8
176,200,156235,5,0
176,296,156664,1,8
272,296,157092,1,0
272,200,157521,1,8
176,216,157950,6,0,B|176:152|176:152|240:152|240:152|240:232|240:232|304:232|304:232|304:152|304:152|368:152|368:152|368:216,1,480,0|8
376,312,159664,5,0
280,312,160092,1,8
280,216,160521,1,0
280,216,160950,1,0
376,216,161378,6,0,B|376:152|376:152|312:152|312:152|312:232|312:232|248:232|248:232|248:152|248:152|184:152|184:152|184:216,1,480,0|8
280,216,163092,5,0
200,160,163521,2,0,B|280:128|360:160,1,160,0|4
