osu file format v9

[General]
AudioFilename: 03-.mp3
AudioLeadIn: 0
PreviewTime: 126664
Countdown: 1
SampleSet: Soft
StackLeniency: 0.7
Mode: 0
LetterboxInBreaks: 1

[Editor]
DistanceSpacing: 0.8
BeatDivisor: 6
GridSize: 8

[Metadata]
Title:Match
Artist:Splin
Creator:DesuEagle
Version:Hard
Source:
Tags:football, soccer, OzzyOzrock

[Difficulty]
HPDrainRate:7
CircleSize:5
OverallDifficulty:7
ApproachRate:7
SliderMultiplier:1.8
SliderTickRate:1

[Events]
//Background and Video events
0,0,"583308.jpg"
//Break Periods
2,68807,74614
2,120235,126042
//Storyboard Layer 0 (Background)
//Storyboard Layer 1 (Fail)
//Storyboard Layer 2 (Pass)
//Storyboard Layer 3 (Foreground)
//Storyboard Sound Samples
//Background Colour Transformations
3,100,163,162,255

[TimingPoints]
13950,428.571428571429,4,2,0,85,1,0
127102,-100,4,2,0,85,0,1
143817,-100,4,2,0,85,0,0

[HitObjects]
256,192,13949,2,0,B|160:192|160:192|160:104,1,180,0|8
160,108,14664,1,0
160,108,14807,1,0
256,112,15092,2,0,B|328:112,1,72
416,112,15521,1,0
416,160,15664,2,0,B|416:240|272:240,1,180
184,240,16378,1,0
136,240,16521,1,0
232,240,16807,1,0
280,240,16949,2,0,B|360:240|360:240|352:248|352:248|368:256|368:256|352:264|352:264|368:272|368:272|352:280|352:280|368:288|368:288|352:296|352:296,1,180,8|0
368,192,17664,5,0
368,144,17807,1,8
368,48,18092,2,0,B|304:48,1,60
312,144,18521,1,0
312,192,18664,1,8
320,288,18950,2,0,B|368:288|368:248,1,60
360,112,19521,2,0,B|312:146|312:146|296:160|288:168|287:186|287:186|288:264,1,180,8|0
384,264,20235,1,0
336,264,20378,1,8
240,264,20664,5,0
192,264,20807,2,0,B|144:168|192:80,1,180,0|8
280,96,21521,1,0
328,96,21664,1,0
184,96,22092,1,8
280,96,22378,1,0
328,96,22521,2,0,B|376:192|328:280,1,180,0|8
240,272,23235,1,0
192,272,23378,1,0
96,272,23664,2,0,B|48:272|48:224,1,60
128,184,24092,1,0
176,184,24235,2,0,B|184:176|184:176|192:192|192:192|200:176|200:176|208:192|208:192|216:176|216:176|224:192|224:192|232:176|232:176|240:192|240:192|248:176|248:176|256:192|256:192|264:176|264:176,1,180,0|8
352,192,24950,5,0
400,192,25092,1,0
400,288,25378,2,0,B|400:360,1,60
304,344,25807,1,0
256,344,25950,1,0
160,344,26235,2,0,B|88:344,1,60
160,272,26664,1,0
192,232,26807,1,0
96,232,27092,2,0,B|96:160,1,60
192,168,27521,5,0
240,168,27664,1,0
200,80,27950,2,0,B|160:32,1,60
256,32,28378,1,0
304,32,28521,1,8
352,120,28807,2,0,B|288:120,1,60
192,120,29235,1,0
144,120,29378,2,0,B|136:112|136:112|128:128|128:128|120:112|120:112|112:128|112:128|104:112|104:112|96:128|96:128|88:112|88:112|80:128|80:128|72:112|72:112|64:128|64:128|56:112|56:112|48:128|48:128,1,180,0|8
56,216,30092,5,0
56,264,30235,1,0
152,264,30521,2,0,B|216:264,1,60
312,264,30950,1,0
360,264,31092,1,0
360,168,31378,1,0
360,120,31521,2,0,B|344:72|296:56|296:56|248:72|240:120,1,180,8|0
240,216,32235,1,0
192,216,32378,1,8
152,128,32664,5,0
128,88,32807,1,0
224,88,33092,1,0
272,88,33235,2,0,B|192:248,1,180,8|0
288,248,33950,1,0
336,248,34092,1,8
304,160,34378,5,0
352,160,34521,1,0
432,112,34807,1,0
384,112,34950,1,8
464,56,35235,1,0
416,56,35378,1,0
320,56,35664,1,0
368,56,35807,1,8
264,80,36235,6,0,B|208:168,1,90
288,152,36664,2,0,B|344:232,1,90,8|0
272,232,37092,2,0,B|200:312,1,90
192,232,37521,2,0,B|128:144,1,90,8|0
208,152,37950,6,0,B|208:48,1,90
208,152,38378,2,0,B|312:152,1,90
208,152,38807,2,0,B|208:264,1,90
208,152,39235,2,0,B|112:152,1,90
256,192,39664,12,4,40521
256,272,40807,6,0,B|256:208,1,60
352,184,41235,1,0
400,192,41378,2,0,B|256:16|96:192,1,360
192,208,42521,1,0
240,208,42664,1,8
336,208,42950,5,0
384,208,43092,2,0,B|392:200|392:200|376:192|376:192|392:184|392:184|376:176|376:176|392:168|392:168|376:160|376:160|392:152|392:152|376:144|376:144|392:136|392:136|376:128|376:128|392:120|392:120|376:112,1,180,0|8
336,72,43735,1,0
264,72,43950,2,0,B|256:64|256:64|248:80|248:80|240:64|240:64|232:80|232:80|224:64|224:64|216:80|216:80|208:64|208:64|200:80|200:80|192:64|192:64|184:80|184:80|176:64|176:64|168:80,1,180,0|8
144,160,44664,1,0
128,208,44807,1,0
224,208,45092,2,0,B|288:208,1,60
384,208,45521,1,0
432,208,45664,1,0
432,112,45950,2,0,B|368:112,1,60
272,112,46378,5,0
224,112,46521,2,0,B|224:312,1,180,0|8
128,296,47235,1,0
136,344,47378,2,0,B|72:344|72:272,2,90,0|0|8
232,344,48092,5,0
280,344,48235,1,0
280,248,48521,2,0,B|280:176,1,60
376,184,48950,1,0
424,184,49092,1,0
432,280,49378,2,0,B|368:280,1,60
272,280,49807,6,0,B|232:280|232:240,1,60
232,176,50164,2,0,B|232:120|176:120,1,90
104,120,50592,2,0,B|48:120|48:176,1,90
48,272,51092,1,0
48,320,51235,1,8
144,320,51521,2,0,B|208:320,1,60
304,320,51950,1,0
352,320,52092,2,0,B|344:312|344:312|360:304|360:304|344:296|344:296|360:288|360:288|344:280|344:280|360:272|360:272|344:264|344:264|360:256|360:256|344:248|344:248|360:240|360:240|344:232|344:232,1,180,8|0
352,144,52807,1,0
352,96,52950,1,8
256,96,53235,5,0
208,96,53378,1,0
136,96,53592,2,0,B|136:200,1,90,0|8
232,184,54092,1,0
280,184,54235,1,0
232,184,54378,2,0,B|232:256,2,60
136,184,54950,1,0
88,184,55092,2,0,B|88:96|88:96|152:136|176:88|176:88,1,180,0|8
264,96,55807,1,0
312,96,55950,2,8,B|368:96|368:176|360:184|360:184|376:192|376:192|360:200|360:200|376:208|376:208|360:216|360:216|376:224|376:224,1,180,0|8
464,216,56664,5,0
464,264,56807,2,0,B|456:272|456:272|472:280|472:280|456:288|456:288|472:296|472:296|456:304|456:304|472:312|472:312|456:320|456:320|472:328|472:328|456:336|456:336|472:344|472:344|456:352|456:352|472:360|472:360,1,180,0|8
392,344,57450,1,0
392,272,57664,1,0
304,304,57950,1,0
256,304,58092,1,0
160,304,58378,1,0
112,304,58521,2,0,B|112:168|360:192|360:72,1,360
264,72,59664,1,0
216,72,59807,1,8
216,168,60092,5,0
216,216,60235,1,0
120,216,60521,1,0
72,216,60664,2,0,B|72:328|184:328,1,180,8|0
232,328,61235,1,0
280,328,61378,1,0
328,328,61521,1,8
368,192,61950,6,0,B|368:96,1,90
296,96,62378,2,0,B|208:96,1,90,8|0
208,168,62807,2,0,B|208:256,1,90
280,256,63235,2,0,B|376:256,1,90,8|0
256,192,63664,12,4,64950
256,72,65235,1,0
288,104,65378,1,0
344,184,65664,1,0
304,184,65807,1,8
208,184,66092,1,0
160,184,66235,1,0
224,256,66521,1,0
256,288,66664,1,8
256,192,67092,12,4,68378
48,192,75664,6,0,B|64:72|168:88,1,180,0|8
160,136,76235,1,0
152,184,76378,1,0
144,232,76521,2,0,B|328:232,1,180
376,232,77092,1,0
424,232,77235,1,0
472,232,77378,2,0,B|487:333|367:349,1,180,0|8
272,344,78092,1,0
224,344,78235,2,0,B|216:336|216:336|208:352|208:352|200:336|200:336|192:352|192:352|184:336|184:336|176:352|176:352|168:336|168:336|160:352|160:352|152:336|152:336|144:352|144:352|136:336|136:336|128:352,1,180,0|8
144,200,79092,5,0
144,56,79521,1,8
216,56,79735,1,0
288,56,79950,2,0,B|288:160,2,72,0|0|8
288,56,80664,1,0
240,56,80807,1,0
144,56,81092,1,0
96,56,81235,1,8
96,152,81521,1,0
96,200,81664,2,0,B|144:256|184:160|232:248|264:200,1,180,0|8
360,192,82378,5,0
408,192,82521,1,0
312,192,82807,1,0
264,192,82950,1,8
296,104,83235,1,0
320,64,83378,1,0
416,64,83664,1,0
464,64,83807,1,8
464,208,84235,2,0,B|280:208,1,180,0|8
184,208,84950,1,0
136,208,85092,1,0
136,112,85378,1,0
136,64,85521,1,8
232,64,85807,5,0
280,64,85950,1,0
280,160,86235,1,0
280,208,86378,1,8
376,208,86664,1,0
424,208,86807,1,0
424,112,87092,1,0
424,64,87235,1,8
280,56,87664,2,0,B|96:56,1,180,0|8
96,152,88378,1,0
96,200,88521,2,0,B|280:200,1,180,0|8
376,200,89235,6,0,B|416:200|432:160|416:128|368:128,1,120
328,120,89664,1,0
280,120,89807,2,0,B|96:120,1,180,8|0
56,120,90378,1,0
56,168,90521,1,0
104,168,90664,1,8
104,216,90807,1,0
152,216,90950,1,0
200,216,91092,2,0,B|384:216,1,180,0|8
376,264,91664,2,0,B|312:264,1,60
264,264,91950,1,0
216,264,92092,1,0
168,264,92235,1,0
120,264,92378,1,8
128,168,92664,5,0
176,168,92807,2,0,B|176:56|328:56,1,180,0|8
344,56,93378,1,0
392,56,93521,1,0
440,56,93664,2,0,B|440:168|288:168,1,180,0|8
272,168,94235,1,0
224,168,94378,1,0
176,168,94521,2,0,B|168:160|168:160|160:176|160:176|152:160|152:160|144:176|144:176|136:160|136:160|128:176|128:176|120:160|120:160|112:176|112:176|104:160|104:160|96:176|96:176|88:160|88:160|80:176,1,180,0|8
88,264,95235,1,0
136,264,95378,1,0
280,264,95807,5,8
328,264,95950,2,0,B|392:264,1,60
440,264,96235,1,0
440,168,96521,2,0,B|440:104,2,60,0|8|0
344,168,97092,2,0,B|200:168,1,120
176,168,97521,1,8
176,88,97950,2,0,B|240:96|256:128|272:168|272:200|240:232|224:264|192:264|168:256|112:256|96:224|72:200|88:152|104:128|120:96|168:88,1,480
176,168,99235,1,0
320,168,99664,6,0,B|328:160|328:160|336:176|336:176|344:160|344:160|352:176|352:176|360:160|360:160|368:176|368:176|376:160|376:160|384:176|384:176|392:160|392:160|400:176|400:176|408:160|408:160|416:176,1,180,0|8
400,72,100378,1,0
352,72,100521,1,0
256,72,100807,1,0
208,72,100950,2,0,B|208:256,1,180,8|0
320,256,101664,1,0
368,256,101807,1,8
272,256,102092,1,0
224,256,102235,1,0
176,256,102378,1,0
128,256,102521,1,0
80,256,102664,1,8
128,168,102950,5,0
128,120,103092,2,0,B|120:112|120:112|136:104|136:104|120:96|120:96|136:88|136:88|120:80|120:80|136:72|136:72|120:64|120:64|136:56|136:56|120:48|120:48|136:40|136:40|120:32|120:32|136:24,1,180,0|8
272,32,103950,1,0
272,80,104092,1,0
224,80,104235,1,0
224,128,104378,1,8
272,128,104521,1,0
320,128,104664,1,0
360,104,104807,2,0,B|456:24,1,120
464,72,105235,1,8
464,168,105521,1,0
464,216,105664,2,0,B|360:288,1,120
320,288,106092,1,8
272,288,106235,1,0
224,288,106378,5,0
176,288,106521,2,0,B|176:96,1,180,0|8
128,104,107092,1,0
80,104,107235,1,0
80,152,107378,1,0
80,200,107521,1,0
80,248,107664,1,0
80,296,107807,1,8
176,296,108092,1,0
224,296,108235,2,0,B|232:288|232:288|240:304|240:304|248:288|248:288|256:304|256:304|264:288|264:288|272:304|272:304|280:288|280:288|288:304|288:304|296:288|296:288|304:304|304:304|312:288|312:288|320:304,1,180,0|8
352,296,108807,2,0,B|440:296|440:152,1,180
440,112,109378,1,0
440,64,109521,1,8
392,64,109664,1,0
344,64,109807,1,0
296,64,109950,6,0,B|224:112|224:152|296:200,1,180,0|8
344,200,110521,2,0,B|416:248|416:288|344:336,1,180,0|0
296,336,111092,1,0
248,336,111235,1,8
200,336,111378,1,0
200,288,111521,1,0
200,240,111664,2,0,B|112:240|88:216|88:136,1,180,0|8
184,136,112378,1,0
232,136,112521,2,0,B|352:136,1,120
400,136,112950,1,8
256,192,113378,12,4,114664
256,72,114950,1,0
224,104,115093,1,0
160,184,115379,1,0
208,184,115522,1,8
304,184,115807,1,0
352,184,115950,1,0
288,256,116236,1,0
256,288,116378,1,8
256,192,116807,12,4,118092
256,312,118378,1,0
224,280,118521,1,0
160,200,118807,1,0
208,200,118950,1,8
304,200,119235,1,0
352,200,119378,1,0
288,128,119664,1,0
256,96,119806,1,8
248,144,127092,6,0,B|176:88|176:88|96:144|96:144,1,180
103,138,127735,1,0
104,208,127950,6,0,B|176:264|176:264|256:208|256:208,1,180
248,213,128592,1,0
320,216,128807,2,0,B|416:216,1,90
408,144,129235,1,8
408,72,129450,1,0
336,72,129664,2,0,B|152:72,1,180,0|8
80,72,130307,1,0
120,128,130521,6,0,B|240:272,1,180
280,328,131164,1,0
352,328,131378,1,0
352,256,131592,1,0
352,184,131807,1,8
352,112,132021,1,0
424,96,132235,2,0,B|400:48|352:32|304:48|280:96,1,180
280,168,132878,1,0
280,240,133092,1,0
208,240,133307,1,0
208,168,133521,1,8
64,168,133950,6,0,B|64:264,3,90,0|0|8|0
136,256,134807,2,0,B|224:256,1,90
224,184,135235,1,8
224,112,135450,1,0
296,112,135664,2,0,B|296:304,1,180,0|8
368,296,136307,1,0
368,224,136521,1,0
368,152,136735,1,0
368,296,137164,5,0
312,256,137378,1,0
312,328,137592,1,0
248,288,137807,2,0,B|152:288,1,90,8|0
200,224,138235,2,0,B|96:224,1,90
40,224,138664,1,8
40,152,138878,1,0
48,80,139092,2,0,B|144:80|144:80|144:176,1,180,0|8
216,160,139735,1,0
216,96,139950,2,0,B|288:96|288:96|288:208,1,180,0|8
424,264,140807,6,4,B|424:176|424:176|352:176|352:176|352:264|352:264|224:264|224:264|224:176|224:176|144:176,1,540
152,32,142521,2,4,B|152:120|152:120|224:120|224:120|224:32|224:32|352:32|352:32|352:120|352:120|432:120,1,540
424,216,144092,5,0
424,264,144235,1,0
424,168,144521,1,0
376,168,144664,1,8
280,168,144950,1,0
280,216,145092,1,0
280,312,145378,1,0
232,312,145521,1,8
104,240,145950,6,0,B|200:240,1,90
264,240,146378,2,0,B|352:240,1,90,8|0
352,168,146807,2,0,B|352:72,1,90
280,72,147235,2,0,B|184:72,1,90,8|0
224,136,147664,2,0,B|128:136,1,90
64,136,148092,2,0,B|64:40,1,90,8|0
128,88,148521,2,0,B|216:88,1,90
280,48,148950,2,0,B|280:136,1,90,8|0
280,208,149378,5,0
192,176,149664,1,0
144,160,149807,1,8
144,256,150092,1,0
192,240,150235,1,0
104,216,150521,1,0
48,216,150664,1,8
256,192,151092,12,4,154092
256,192,154521,5,0
256,96,154807,1,0
208,96,154950,2,0,B|112:96,1,90,8|0
120,168,155378,1,0
192,168,155664,1,0
264,168,155807,2,0,B|264:256,1,90,8|0
336,264,156235,1,0
336,168,156521,1,0
384,168,156664,1,8
384,96,156950,1,0
312,96,157092,2,0,B|216:96,1,90
152,96,157521,1,8
256,192,157950,12,4,160950
368,192,161235,1,0
320,192,161378,2,0,B|192:192,1,120
152,192,161807,1,0
152,96,162092,1,0
200,96,162235,2,0,B|328:96,1,120,0|0
368,96,162664,1,0
368,192,162950,1,0
256,192,163092,12,4,163950
