osu file format v9

[General]
AudioFilename: 03-.mp3
AudioLeadIn: 0
PreviewTime: 126664
Countdown: 1
SampleSet: Soft
StackLeniency: 0.7
Mode: 0
LetterboxInBreaks: 1

[Editor]
DistanceSpacing: 0.6
BeatDivisor: 1
GridSize: 8

[Metadata]
Title:Match
Artist:Splin
Creator:DesuEagle
Version:Easy
Source:
Tags:football, soccer, OzzyOzrock

[Difficulty]
HPDrainRate:3
CircleSize:3
OverallDifficulty:2
ApproachRate:2
SliderMultiplier:1.2
SliderTickRate:1

[Events]
//Background and Video events
0,0,"583308.jpg"
//Break Periods
2,69006,74104
2,120007,125457
//Storyboard Layer 0 (Background)
//Storyboard Layer 1 (Fail)
//Storyboard Layer 2 (Pass)
//Storyboard Layer 3 (Foreground)
//Storyboard Sound Samples
//Background Colour Transformations
3,100,163,162,255

[TimingPoints]
13950,428.571428571429,4,2,0,85,1,0
127102,-100,4,2,0,85,0,1
143817,-100,4,2,0,85,0,0

[HitObjects]
96,320,13949,1,4
240,320,14807,1,0
384,320,15664,2,0,B|424:184|376:72,2,240,0|0|0
240,320,18235,5,0
96,320,19092,1,0
184,200,19950,2,0,B|296:264|424:200|424:200,1,240,0|0
312,104,21664,2,0,B|200:40|72:104|72:104,1,240,0|0
112,240,23378,5,0
184,112,24235,1,0
256,240,25092,1,0
328,112,25950,1,0
384,240,26807,1,0
256,184,27664,6,0,B|120:184,2,120,0|8|0
296,120,28950,1,8
328,184,29378,2,0,B|448:184,2,120,0|8|0
296,248,30664,1,8
256,184,31092,1,0
336,64,31950,5,0
192,64,32807,1,0
256,192,33664,1,0
112,200,34521,6,0,B|112:120|112:120|112:88|128:72|144:72|144:72|240:72,1,240,4|0
256,144,35807,1,8
256,216,36235,1,0
400,200,37092,6,0,B|400:120|400:120|400:88|384:72|368:72|368:72|272:72,1,240,0|0
256,144,38378,1,8
256,216,38807,1,0
352,320,39664,2,0,B|240:352|240:256|120:280,1,240
144,136,41378,5,4
256,40,42235,1,0
360,136,43092,1,0
328,264,43950,1,0
256,136,44807,1,0
184,264,45664,1,0
312,208,46521,6,0,B|280:128|216:128|200:200|128:200|96:176,1,240,0|0
72,40,48235,2,0,B|112:120|168:120|184:48|256:48|280:64,1,240,0|0
416,120,49950,2,0,B|464:168|440:376|392:336|352:376|280:200|240:216|200:200|136:376|88:336|40:376|24:168|80:120,1,720,0|0
216,176,53378,5,0
256,40,54235,1,0
296,176,55092,1,4
256,312,55950,1,0
216,176,56807,1,0
160,312,57664,1,0
304,312,58521,1,0
448,312,59378,1,0
456,168,60235,6,0,B|340:104|224:168,1,240,0|0
136,56,61950,2,0,B|72:172|136:288,1,240,0|0
208,160,63664,2,0,B|328:160,2,120,0|8|0
328,80,65378,6,0,B|384:80|416:136|408:184,3,120,0|8|0|8
344,192,67092,1,0
272,192,67521,2,0,B|144:192,3,120,8|0|8|0
192,48,75664,5,4
336,48,76521,2,8,B|386:156|437:265,2,240,0|0|0
256,168,79092,1,0
160,64,79950,2,8,B|109:172|58:281,2,240,0|0|0
40,152,82521,6,0,B|96:32,1,120,0|8
160,40,83378,2,0,B|280:40,1,120,0|8
352,40,84235,2,0,B|408:144,1,120,0|8
360,200,85092,2,0,B|232:200,1,120,0|8
240,128,85950,5,0
240,272,86807,1,0
96,264,87664,1,0
216,184,88521,1,0
72,176,89378,6,0,B|64:144|120:80|168:112,1,120,4|8
144,176,90235,2,0,B|136:208|192:272|240:240,1,120,0|8
216,176,91092,2,0,B|208:144|264:80|312:112,1,120,0|8
288,176,91950,2,0,B|280:208|336:272|384:240,1,120,0|8
392,176,92807,5,0
248,176,93664,1,0
104,176,94521,1,0
176,51,95378,1,0
320,51,96235,5,0
392,176,97092,1,0
248,176,97950,1,0
104,176,98807,1,0
176,301,99664,5,0
320,301,100521,1,0
392,176,101378,2,0,B|152:176,1,240,0|0
80,56,103092,6,0,B|80:304,1,240,4|0
160,176,104807,2,0,B|400:176,1,240,0|0
480,56,106521,2,0,B|480:296,1,240,0|0
400,176,108235,6,0,B|304:176|304:176|240:144|240:144|168:144|168:144,1,240,0|0
304,88,109950,1,0
184,168,110807,2,0,B|312:168|312:168|376:136|376:136|416:136,1,240,0|0
320,248,112521,1,0
184,192,113378,5,4
184,120,113807,1,8
184,48,114235,1,0
112,48,114664,1,8
40,48,115092,1,0
40,120,115521,1,8
40,192,115950,1,0
112,192,116378,1,8
184,192,116807,5,0
256,192,117235,1,8
328,192,117664,1,0
328,120,118092,1,8
328,48,118521,1,0
256,48,118950,1,8
184,48,119378,1,0
184,120,119807,1,8
64,64,127092,5,4
208,64,127950,2,0,B|208:192|8:192,1,240,0|0
64,336,129664,1,0
208,336,130521,6,0,B|208:208|8:208,1,240,0|0
176,160,132235,1,0
320,160,133092,1,0
432,64,133950,6,4,B|152:64|152:64,1,240,4|0
136,192,135664,1,0
192,328,136521,2,0,B|472:328|472:328,1,240,0|0
392,192,138235,5,0
248,192,139092,1,0
392,192,139950,1,0
264,256,140807,6,0,B|192:152|279:152|392:152|264:48,3,240,0|0|0|0
360,192,144235,5,4
288,192,144664,1,8
216,192,145092,1,0
144,192,145521,1,8
208,152,145950,2,0,B|160:88|64:88|8:200|64:296|176:296|216:224,1,360,0|8
144,192,147664,5,0
216,192,148092,1,8
288,192,148521,1,0
360,192,148950,1,8
296,152,149378,2,0,B|344:88|440:88|496:200|440:296|328:296|288:224,1,360,0|8
360,192,151092,5,0
256,288,151950,1,0
152,192,152807,1,0
256,96,153664,1,0
272,240,154521,6,0,B|32:240|32:240,1,240,0|0
152,168,156235,2,0,B|392:168,1,240,0|0
472,288,157950,6,0,B|472:72|472:72|56:72|56:72|56:288|56:288,2,840,4|0|4
