osu file format v5

[General]
AudioFilename: collegedrived.ogg
AudioLeadIn: 0
PreviewTime: -25
Countdown: 0
SampleSet: Normal
StackLeniency: 0.2
Mode: 0
LetterboxInBreaks: 0

[Editor]
DistanceSpacing: 1
BeatDivisor: 4
GridSize: 8

[Metadata]
Title:College Drive (Gives Me Blisters)
Artist:Splendora
Creator:Ash
Version:Insane
Source:Daria
Tags:

[Difficulty]
HPDrainRate:8
CircleSize:5
OverallDifficulty:8
SliderMultiplier:2.2
SliderTickRate:4

[Events]
//Background and Video events
Video,0,"ashvid-cropped-5.avi"
//Break Periods
2,28454,30168
//Storyboard Layer 0 (Background)
//Storyboard Layer 1 (Fail)
//Storyboard Layer 2 (Pass)
//Storyboard Layer 3 (Foreground)
//Storyboard Sound Samples
//Background Colour Transformations
3,100,0,0,0

[TimingPoints]
800,363.636363636364,4,1,0,40,1,0
58981,-50,4,2,0,40,0,0
67709,-100,4,1,0,40,0,0
68254,-100,4,2,0,40,0,0

[Colours]
Combo1 : 192,192,192
Combo2 : 0,128,0
Combo3 : 192,192,192
Combo4 : 128,0,0

[HitObjects]
80,64,436,1,0
80,64,527,1,0
80,64,618,1,0
80,64,709,1,0
80,64,800,5,4
188,80,981,1,0
218,185,1163,1,0
66,251,1436,1,0
66,251,1527,1,0
131,339,1709,1,0
217,271,1890,1,0
282,359,2072,1,0
369,292,2254,5,4
472,255,2436,1,0
468,144,2618,1,0
303,143,2890,1,0
303,143,2981,1,0
218,72,3163,1,0
143,152,3345,1,0
63,75,3527,1,0
3,167,3709,5,4
34,271,3890,1,0
142,287,4072,1,0
177,125,4345,1,0
177,125,4436,1,0
251,43,4618,1,0
323,125,4800,1,0
392,40,4981,1,0
256,192,5072,12,4,6072
398,301,7345,5,0
455,206,7527,2,0,B|316:150|254:284,1,220
233,367,8072,1,0
32,274,8436,1,0
180,346,8709,1,0
231,366,8800,1,0
334,330,8981,1,0
129,247,9345,1,0
234,214,9527,5,0
333,260,9709,1,0
150,382,10072,2,0,B|350:308|256:83,1,330
224,16,10800,1,0
117,42,10981,5,4
126,188,11224,1,4
145,333,11466,2,0,B|308:343|360:184,1,256.666666666667,4|0
385,106,12072,1,0
349,1,12254,1,0
454,33,12436,1,0
490,250,12800,1,0
422,336,12981,5,0
439,227,13163,1,0
250,340,13527,1,0
264,230,13709,2,0,B|404:252|428:107,1,220
359,32,14254,1,0
274,173,14527,1,0
286,119,14618,1,0
180,148,14799,1,0
211,42,14981,1,0
132,119,15163,1,0
162,13,15345,1,0
84,91,15527,5,0
99,310,15890,2,0,B|288:376|318:312,1,220
417,131,16618,1,0
376,28,16800,1,4
240,83,17042,1,4
104,138,17284,1,4
510,250,18254,6,0,B|396:18|102:50,1,440,4|0
59,108,19163,1,0
4,330,19527,6,0,B|338:355|489:72,1,550,4|0
509,0,20618,1,0
512,235,20981,5,0
459,331,21163,2,0,B|179:219,1,220
50,331,21890,2,0,B|330:219,1,220
256,24,22618,6,0,B|256:144,1,110
256,240,22981,1,0
407,306,23254,1,0
437,260,23345,1,0
344,192,23527,1,0
128,192,23890,1,0
2,250,24072,6,0,B|116:18|410:50,1,440,4|0
392,216,24981,1,0
508,330,25345,6,0,B|174:355|23:72,1,550,4|0
256,64,26618,1,0
392,232,26981,2,0,B|516:328|380:423|248:248,1,330,4|0
255,144,27709,2,0,B|131:-21|-5:74|119:170,1,330,4|4
398,50,30618,5,0
294,13,30799,1,0
162,189,31163,2,0,B|407:316,3,220
59,145,32800,1,0
91,287,33042,1,0
237,276,33284,2,0,B|484:177,2,220
368,341,34254,1,4
236,276,34496,1,4
296,141,34739,2,0,B|88:-11,2,220,4|0|0
150,161,35709,5,0
39,351,36072,1,0
123,209,36345,1,0
150,161,36436,1,0
205,66,36618,1,0
512,16,36981,2,0,B|410:358|5:367,1,660
344,360,38618,5,0
456,360,38800,1,0
472,32,39345,2,0,B|114:32,1,330
32,32,40072,2,0,B|32:376,2,330,4|0|4
144,32,41345,1,0
144,144,41527,1,4
360,144,41890,5,0
508,215,42163,1,0
508,270,42254,1,0
510,380,42436,1,0
424,312,42618,1,0
424,208,42800,1,4
336,6,43163,1,0
228,28,43345,5,0
224,192,43618,1,0
280,192,43709,1,0
280,304,43890,1,0
280,192,44072,1,0
280,80,44254,1,0
168,80,44436,2,0,B|508:80,1,330
416,0,45163,2,0,B|416:336,1,330
306,337,45890,2,0,B|212:348|142:247,1,165
163,217,46254,2,0,B|269:214|317:115,1,165
464,171,46800,2,0,B|432:82|283:94,1,165
275,94,47163,1,0
225,117,47254,1,0
268,150,47345,5,4
472,72,47709,1,0
472,232,47981,1,0
472,288,48072,1,0
376,232,48254,1,0
376,344,48436,1,0
322,247,48618,1,4
376,344,48800,1,0
282,286,48981,1,0
376,344,49163,1,0
208,344,49436,1,0
152,344,49527,1,0
56,288,49709,1,0
56,176,49890,1,0
56,288,50072,1,0
56,176,50254,2,0,B|163:-28|408:72,1,385,4|0
429,33,50981,2,0,B|244:133|334:353,1,330,4|0
416,364,51709,5,0
256,216,52072,1,0
120,312,52345,1,0
72,344,52436,1,0
72,232,52618,1,0
72,120,52800,1,0
74,10,52981,1,0
184,8,53163,6,0,B|312:8,1,110,4|0
400,8,53527,6,0,B|400:200,1,165
400,224,53890,6,0,B|248:224,1,110
208,144,54254,6,0,B|97:206,1,110,0|4
90,306,54618,6,0,B|199:239,1,110
274,185,54981,6,0,B|433:91,1,165,0|0
464,72,55345,6,0,B|464:200,1,110
464,288,55709,6,0,B|352:288,1,110
256,240,56072,6,0,B|256:104,2,110,4|0|0
256,352,56618,6,0,B|368:352,2,110,4|0|0
144,352,57163,6,0,B|32:352,2,110,4|0|0
144,240,57709,6,0,B|144:120,2,110,4|0|0
256,240,58254,6,4,B|368:240,3,110
335,21,58981,6,0,B|115:82,1,220,4|0
22,277,59345,1,4
233,338,59527,1,0
331,289,59618,1,0
425,232,59709,1,0
251,98,59890,1,4
471,89,60072,1,0
255,42,60254,1,4
472,48,60436,2,4,B|96:80,1,330,4|0
32,90,60800,1,4
66,307,60982,1,0
162,253,61073,1,0
262,207,61164,1,0
463,121,61345,1,4
243,104,61527,1,0
459,66,61709,1,4
240,50,61890,6,0,B|1:138,1,220,4|0
70,344,62254,1,4
289,330,62436,1,0
186,288,62527,1,0
89,234,62618,1,0
307,231,62799,1,4
106,140,62981,1,0
322,179,63163,1,4
135,61,63345,2,0,B|88:260|293:347,1,330,4|0
371,361,63709,1,4
473,165,63891,1,0
371,122,63982,1,0
269,78,64073,1,0
410,244,64254,1,4
208,160,64436,1,0
382,291,64618,1,4
208,160,64800,6,0,B|374:372,1,220,4|0
438,133,65164,1,4
224,80,65346,1,0
196,186,65437,1,0
173,293,65528,1,0
391,312,65709,1,4
173,349,65891,1,0
374,259,66073,1,4
155,240,66254,2,0,B|342:246|488:130,1,330,4|0
403,54,66618,1,4
188,3,66800,1,0
218,108,66891,1,0
259,210,66982,1,0
47,151,67163,1,4
63,370,67345,1,0
256,272,67527,1,4
256,384,67709,5,4
256,0,68254,1,6
