osu file format v13

[General]
AudioFilename: alwayswithme.mp3
AudioLeadIn: 0
PreviewTime: -1
Countdown: 1
SampleSet: None
StackLeniency: 0.7
Mode: 0
LetterboxInBreaks: 1
WidescreenStoryboard: 0

[Editor]
DistanceSpacing: 1.2
BeatDivisor: 4
GridSize: 4
TimelineZoom: 1

[Metadata]
Title:Always with me
TitleUnicode:Always with me
Artist:Spirited Away
ArtistUnicode:Spirited Away
Creator:ebugers
Version:Never
Source:
Tags:
BeatmapID:512626
BeatmapSetID:218727

[Difficulty]
HPDrainRate:6
CircleSize:5
OverallDifficulty:7
ApproachRate:8
SliderMultiplier:1.6
SliderTickRate:1

[Events]
//Background and Video events
0,0,"spirited away.jpg",0,0
//Break Periods
//Storyboard Layer 0 (Background)
//Storyboard Layer 1 (Fail)
//Storyboard Layer 2 (Pass)
//Storyboard Layer 3 (Foreground)
//Storyboard Sound Samples
//Background Colour Transformations
3,100,163,162,255

[TimingPoints]
12403,800,3,2,0,30,1,0
12403,-100,3,2,1,60,0,0
12803,-100,3,2,2,60,0,0
13203,-100,3,2,3,60,0,0
13603,-100,3,2,1,60,0,0
14003,-100,3,2,4,60,0,0
15203,-100,3,2,3,60,0,0
15603,-100,3,2,2,60,0,0
16403,-100,3,2,4,60,0,0
17203,-100,3,2,2,60,0,0
18003,-100,3,2,1,60,0,0
18403,-100,3,2,5,60,0,0
18803,-100,3,2,3,60,0,0
20003,-100,3,2,1,60,0,0
20403,-100,3,2,6,60,0,0
21203,-100,3,2,2,5,0,0
22003,-100,3,2,1,60,0,0
22403,-100,3,2,6,60,0,0
22803,-100,3,2,5,60,0,0
23603,-100,3,2,6,60,0,0
24403,-100,3,2,1,60,0,0
24803,-100,3,2,2,60,0,0
25203,-100,3,2,7,60,0,0
26003,-100,3,2,1,60,0,0
26803,-100,3,2,2,60,0,0
27203,-100,3,2,3,60,0,0
27603,-100,3,2,8,60,0,0
28403,-100,3,2,8,60,0,0
28803,-100,3,2,3,60,0,0
29203,-100,3,2,2,60,0,0
29603,-100,3,2,1,60,0,0
30003,-100,3,2,2,60,0,0
31603,-100,3,2,1,60,0,0
32003,-100,3,2,2,60,0,0
32403,-100,3,2,3,60,0,0
32803,-100,3,2,1,60,0,0
33203,-100,3,2,4,60,0,0
34403,-100,3,2,3,60,0,0
34803,-100,3,2,2,60,0,0
35603,-100,3,2,4,60,0,0
36403,-100,3,2,2,60,0,0
37203,-100,3,2,1,60,0,0
37603,-100,3,2,5,60,0,0
38003,-100,3,2,5,60,0,0
38803,-100,3,2,6,60,0,0
39203,-100,3,2,1,60,0,0
39603,-100,3,2,7,60,0,0
40403,-100,3,2,7,60,0,0
41203,-100,3,2,7,60,0,0
42003,-100,3,2,5,60,0,0
42803,-100,3,2,6,60,0,0
43603,-100,3,2,1,60,0,0
44003,-100,3,2,2,60,0,0
44403,-100,3,2,7,60,0,0
45203,-100,3,2,1,60,0,0
46003,-100,3,2,6,60,0,0
46403,-100,3,2,6,60,0,0
46803,-100,3,2,5,60,0,0
47603,-100,3,2,5,60,0,0
48003,-100,3,2,6,60,0,0
48403,-100,3,2,1,60,0,0
48803,-100,3,2,2,60,0,0
49203,-100,3,2,7,60,0,0
50003,-100,3,2,1,60,0,0
50803,-100,3,2,6,60,0,0
51603,-100,3,2,5,60,0,0
52403,-100,3,2,5,60,0,0
52803,-100,3,2,6,60,0,0
53203,-100,3,2,1,60,0,0
53603,-100,3,2,2,60,0,0
54003,-100,3,2,7,60,0,0
54803,-100,3,2,1,60,0,0
55603,-100,3,2,2,60,0,0
56003,-100,3,2,3,60,0,0
56403,-100,3,2,8,60,0,0
57203,-100,3,2,8,60,0,0
57603,-100,3,2,3,60,0,0
58003,-100,3,2,2,60,0,0
58536,-100,3,2,1,60,0,0
59003,-100,3,2,1,60,0,0
59403,-100,3,2,2,30,0,0
59803,-100,3,2,3,60,0,0
60203,-100,3,2,4,60,0,0
60603,-100,3,2,5,60,0,0
61003,-100,3,2,6,60,0,0
61503,-100,3,2,7,60,0,0

[HitObjects]
40,128,12403,5,2,0:0:0:0:
48,208,12803,1,2,0:0:0:0:
56,288,13203,2,0,L|160:292,1,80,2|2,0:0|0:0,0:0:0:0:
184,228,14003,2,0,L|348:232,1,160,2|0,0:0|0:0,0:0:0:0:
376,304,15203,5,2,0:0:0:0:
420,236,15603,2,0,L|440:128,1,80,2|0,0:0|0:0,0:0:0:0:
488,96,16403,2,0,P|416:76|356:136,1,160,2|2,0:0|0:0,0:0:0:0:
212,192,18003,6,0,L|104:176,1,80,2|2,0:0|0:0,0:0:0:0:
188,268,18803,2,0,L|16:244,1,160,2|0,0:0|0:0,0:0:0:0:
48,324,20003,5,2,0:0:0:0:
24,172,20403,2,0,P|24:128|40:80,1,80,2|0,0:0|0:0,0:0:0:0:
76,24,21203,2,0,B|104:44|112:72|112:72|152:96|244:80,1,160,8|2,0:0|0:0,0:0:0:0:
284,56,22403,5,2,0:0:0:0:
360,28,22803,2,0,B|380:104|316:132|316:132|368:192,1,160,2|2,0:0|0:0,0:0:0:0:
256,296,24403,5,2,0:0:0:0:
184,264,24803,1,2,0:0:0:0:
320,248,25203,2,0,P|408:260|496:236,1,160,2|2,0:0|0:0,0:0:0:0:
476,84,26803,6,0,P|440:96|352:92,1,80,2|2,0:0|0:0,0:0:0:0:
320,92,27603,2,0,P|244:104|172:184,1,160,2|2,0:0|0:0,0:0:0:0:
152,232,28803,1,2,0:0:0:0:
104,168,29203,6,0,L|0:176,1,80,2|2,0:0|0:0,0:0:0:0:
84,300,30003,2,0,P|160:328|240:264,1,160,2|0,0:0|0:0,0:0:0:0:
352,192,31603,6,0,L|464:184,1,80,2|2,0:0|0:0,0:0:0:0:
436,108,32403,2,0,L|324:116,1,80,2|2,0:0|0:0,0:0:0:0:
276,116,33203,2,0,P|200:128|136:56,1,160,2|0,0:0|0:0,0:0:0:0:
228,32,34403,5,2,0:0:0:0:
276,116,34803,2,0,L|284:212,1,80,2|0,0:0|0:0,0:0:0:0:
348,240,35603,2,0,P|284:280|208:212,1,160,2|2,0:0|0:0,0:0:0:0:
57,116,37203,6,0,L|64:196,1,80,2|2,0:0|0:0,0:0:0:0:
68,276,38003,2,0,B|108:272|128:244|128:244|184:232|256:280,1,160,2|2,0:0|0:0,0:0:0:0:
276,312,39203,5,2,0:0:0:0:
356,320,39603,2,0,P|400:320|464:304,1,80,2|0,0:0|0:0,0:0:0:0:
492,256,40403,2,0,B|452:232|412:240|412:240|352:260|312:204,1,160,0|2,0:0|0:0,0:0:0:0:
154,104,42003,6,0,P|89:147|76:224,1,160,2|2,0:0|0:0,0:0:0:0:
208,216,43603,5,2,0:0:0:0:
272,168,44003,1,2,0:0:0:0:
352,168,44403,2,0,P|396:176|484:164,1,80,2|0,0:0|0:0,0:0:0:0:
408,80,45203,2,0,P|364:72|224:92,1,160,2|0,0:0|0:0,0:0:0:0:
176,108,46403,5,2,0:0:0:0:
104,144,46803,2,0,P|64:152|8:148,1,80,2|0,0:0|0:0,0:0:0:0:
56,64,47603,1,2,0:0:0:0:
104,144,48003,1,2,0:0:0:0:
104,232,48403,5,2,0:0:0:0:
64,312,48803,1,2,0:0:0:0:
152,308,49203,2,0,B|232:292|232:292|268:316|324:300,1,160,2|2,0:0|0:0,0:0:0:0:
444,192,50803,5,2,0:0:0:0:
444,192,51603,2,0,B|364:204|364:204|280:144,1,160,2|2,0:0|0:0,0:0:0:0:
248,84,52803,1,2,0:0:0:0:
164,56,53203,5,2,0:0:0:0:
80,84,53603,1,2,0:0:0:0:
48,164,54003,2,0,L|56:256,1,80,2|0,0:0|0:0,0:0:0:0:
144,236,54803,2,0,L|152:328,1,80,2|0,0:0|0:0,0:0:0:0:
320,336,55603,5,2,0:0:0:0:
404,312,56003,1,2,0:0:0:0:
468,252,56403,1,2,0:0:0:0:
468,252,57203,1,2,0:0:0:0:
384,228,57603,1,2,0:0:0:0:
340,152,58003,6,0,P|292:120|220:112,1,106.666666666667,2|2,0:0|0:0,0:0:0:0:
148,144,59003,2,0,P|112:156|40:152,1,80,2|4,0:0|0:0,0:0:0:0:
92,72,59803,2,0,P|128:60|200:64,1,80,4|4,0:0|0:0,0:0:0:0:
256,80,60603,1,4,0:0:0:0:
320,140,61003,1,4,0:0:0:0:
344,220,61503,2,0,L|344:236,2,13.3333333333333,2|4|4,0:0|0:0|0:0,0:0:0:0:
