osu file format v5

[General]
AudioFilename: Cavern Catastrophe.mp3
AudioLeadIn: 0
PreviewTime: -1
Countdown: 1
SampleSet: Normal
StackLeniency: 0.7
Mode: 0
LetterboxInBreaks: 1

[Metadata]
Title:Cavern Catastrophe
Artist:Spiralmouth
Creator:KaitosZero
Version:Normal
Source:
Tags:

[Difficulty]
HPDrainRate:5
CircleSize:5
OverallDifficulty:5
SliderMultiplier:1.4
SliderTickRate:1

[Events]
//Background and Video events
//Break Periods
//Storyboard Layer 0 (Background)
//Storyboard Layer 1 (Failing)
//Storyboard Layer 2 (Passing)
//Storyboard Layer 3 (Foreground)
//Storyboard Sound Samples
//Background Colour Transformations
3,100,163,162,255

[TimingPoints]
0,1000,4,1,0,100,1

[HitObjects]
288,128,4000,1,0
384,256,5000,1,0
448,96,6000,1,0
64,128,7000,1,0
448,288,8000,1,0
448,64,9000,1,0
256,320,10000,1,0
128,192,12000,2,0,B|384:64|352:224|480:160,2,280
448,224,20000,1,0
288,64,21000,1,0
256,128,23000,1,0
160,320,24000,1,0
352,288,25000,1,0
320,256,26000,5,0
288,128,27000,1,0
416,128,28000,1,0
192,256,29000,1,0
352,224,30000,1,0
288,160,31000,1,0
224,128,32000,1,0
160,64,33000,1,0
288,160,35000,1,0
160,288,34000,2,0,B|448:160,1,280
224,192,36000,1,0
160,96,37000,1,0
320,96,38000,1,0
128,256,39000,1,0
192,288,40000,1,0
192,160,41000,1,0
352,288,42000,1,0
224,256,43000,1,0
320,160,44000,1,0
192,256,45000,1,0
288,128,47000,1,0
256,128,49000,1,0
128,288,50000,1,0
288,256,52000,1,0
128,96,53000,1,0
160,192,54000,1,0
256,224,55000,1,0
352,288,56000,1,0
352,288,57000,1,0
64,256,59000,2,0,B,2,420
448,64,64000,2,0,B|288:352,1,280
220,155,69000,1,0
398,94,70000,1,0
172,110,71000,1,0
466,175,72000,1,0
155,181,73000,1,0
431,211,74000,1,0
17,260,75000,1,0
254,340,76000,1,0
168,94,77000,1,0
446,201,78000,1,0
248,142,79000,1,0
474,116,80000,1,0
156,170,81000,1,0
262,140,82000,1,0
276,282,83000,1,0
249,179,86000,1,0
134,152,88000,1,0
456,95,89000,1,0
266,96,91000,1,0
231,244,93000,1,0
100,244,94000,2,0,B|121:137|300:84|348:265|339:240,6,280
135,108,108000,1,0
426,186,109000,1,0
256,192,111000,12,0,117000
271,324,119000,5,0
359,49,120000,1,0
344,357,121000,1,0
325,126,122000,1,0
388,268,123000,1,0
475,155,124000,1,0
154,120,126000,1,0
384,368,128000,1,0
424,241,129000,1,0
324,232,130000,1,0
360,126,131000,1,0
253,249,132000,1,0
253,249,133000,1,0
253,249,134000,1,0
300,202,135000,1,0
421,188,136000,1,0
198,117,137000,1,0
256,192,138000,12,0,146000
382,158,148000,5,0
209,277,149000,1,0
322,77,150000,1,0
147,152,151000,1,0
408,171,152000,1,0
