osu file format v6

[General]
AudioFilename: Dicks Are For My Friends.mp3
AudioLeadIn: 1004
PreviewTime: 1386
Countdown: 1
SampleSet: Normal
StackLeniency: 0.7
Mode: 0
LetterboxInBreaks: 1

[Editor]
Bookmarks: 1386,12481,20803,29125,40220
DistanceSpacing: 0.899999976158142
BeatDivisor: 1
GridSize: 8

[Metadata]
Title:Dicks Are For My Friends
Artist:Spinsmith
Creator:Xgor
Version:Agent Spin Here!
Source:
Tags:Agent Spin Here Mindless Self Indulgence songsmith cover

[Difficulty]
HPDrainRate:8
CircleSize:4
OverallDifficulty:8
SliderMultiplier:2.6
SliderTickRate:1

[Events]
//Background and Video events
0,0,"MSIlarge.png"
//Break Periods
//Storyboard Layer 0 (Background)
//Storyboard Layer 1 (Fail)
//Storyboard Layer 2 (Pass)
//Storyboard Layer 3 (Foreground)
//Storyboard Sound Samples
//Background Colour Transformations
3,100,163,162,255

[TimingPoints]
1410,346.820809248555,4,1,0,50,1,0

[HitObjects]
48,72,1411,6,0,B|344:72,1,260,4|8
408,136,1929,2,2,B|144:136,1,260
48,200,2450,1,8
128,280,2623,1,0
216,200,2797,2,2,B|312:184|304:304,1,130,0|2
128,120,3317,1,12
472,40,4184,5,0
368,96,4357,1,8
456,168,4531,1,0
344,208,4704,1,8
40,40,5225,5,8
40,40,5398,1,0
40,40,5571,1,0
144,96,5745,1,8
56,168,5918,1,0
168,208,6092,1,12
320,344,6438,6,8,B|168:344,2,130,8|8|0
344,232,6959,2,0,B|408:112|256:40|104:112|176:240,1,390,0|4
488,360,7999,5,0
488,248,8173,1,8
488,136,8346,1,0
488,24,8520,1,4
32,368,8865,1,4
472,40,9732,5,0
368,96,9906,1,8
456,168,10079,1,0
344,208,10253,1,8
40,40,10774,5,8
40,40,10946,1,0
40,40,11120,1,0
144,96,11293,1,8
56,168,11467,1,0
168,208,11640,1,12
256,344,12507,5,12
152,288,12680,1,0
88,192,12854,1,8
152,96,13027,1,0
256,40,13201,1,12
360,96,13374,1,0
424,192,13548,1,8
360,288,13721,1,0
256,344,13894,5,12
152,288,14068,1,0
88,192,14241,1,8
152,96,14415,1,0
256,40,14588,1,12
360,96,14761,1,0
424,192,14935,1,8
360,288,15108,1,0
256,344,15282,1,12
256,344,15975,5,12
360,288,16149,1,0
424,192,16322,1,8
360,96,16495,1,0
256,40,16669,1,12
152,96,16842,1,0
88,192,17017,1,8
152,288,17189,1,0
256,344,17364,1,12
256,192,18056,5,12
256,344,18750,5,12
88,192,19097,1,8
256,40,19443,1,12
424,192,19790,1,8
256,344,20137,1,12
88,192,20484,1,8
256,40,20831,1,4
256,192,20875,12,4,23606
72,56,23779,5,8
192,56,23953,1,0
128,152,24126,2,2,B|120:328|480:312,1,390
440,56,24993,5,4
440,56,25167,1,8
320,56,25340,1,0
384,152,25514,2,2,B|392:328|32:312,1,390
96,80,26381,6,0,B|200:168|256:80|256:80|296:0|456:96,1,390,4|0
440,200,27074,2,0,B|352:152|248:224|256:328,1,260,4|0
144,360,27594,1,0
56,280,27767,1,0
144,200,27941,1,8
224,112,28115,1,0
144,24,28288,1,0
56,104,28461,1,4
480,360,29155,6,0,B|336:288|344:120,1,260,4|0
168,154,29675,2,8,B|176:288|32:360,1,260,12|8
34,358,30196,1,0
256,360,30542,5,0
256,248,30716,1,8
256,136,30889,1,0
256,24,31063,1,4
40,344,31930,5,0
144,288,32103,1,8
56,216,32277,1,0
168,176,32450,1,8
472,344,32969,5,8
472,344,33144,1,0
472,344,33317,1,0
368,288,33490,1,8
456,216,33664,1,0
344,176,33837,1,12
256,16,34183,5,8
256,16,34270,1,0
256,16,34356,1,8
224,344,34703,6,0,B|80:344|80:240|232:240,1,260,4|8
290,343,35225,2,0,B|432:344|432:240|286:240,1,260,4|8
256,296,35744,2,4,B|256:24,1,260,4|0
256,36,36264,1,8
448,168,36611,1,4
40,344,37478,5,0
144,288,37651,1,8
56,216,37825,1,0
168,176,37998,1,8
472,344,38518,5,8
472,344,38692,1,0
472,344,38865,1,0
368,288,39039,1,8
456,216,39212,1,0
344,176,39386,1,12
256,40,40253,5,12
152,96,40426,1,0
88,192,40599,1,8
152,288,40773,1,0
256,344,40946,1,12
360,288,41120,1,0
424,192,41293,1,8
360,96,41467,1,0
256,40,41640,5,12
152,96,41813,1,0
88,192,41987,1,8
152,288,42160,1,0
256,344,42334,1,12
360,288,42507,1,0
424,192,42681,1,8
360,96,42854,1,0
256,40,43028,1,12
256,40,43722,5,12
360,96,43894,1,0
424,192,44068,1,8
360,288,44241,1,0
256,344,44415,1,12
152,288,44588,1,0
88,192,44762,1,8
152,96,44935,1,0
256,40,45108,1,12
256,192,45802,5,12
256,40,46496,5,12
88,192,46843,1,8
256,344,47189,1,12
424,192,47536,1,8
256,40,47883,1,12
88,192,48230,1,8
256,344,48577,1,4
256,192,48620,12,14,51351
