osu file format v12

[General]
AudioFilename: Spice Girls - Yo Ill Tell You What I Want What I Really.mp3
AudioLeadIn: 0
PreviewTime: 43540
Countdown: 0
SampleSet: Normal
StackLeniency: 0.7
Mode: 0
LetterboxInBreaks: 1
WidescreenStoryboard: 0

[Editor]
Bookmarks: 4190,12913,15094,43990,45625,49987
DistanceSpacing: 1
BeatDivisor: 8
GridSize: 4

[Metadata]
Title:Wannabe
TitleUnicode:Wannabe
Artist:Spice Girls
ArtistUnicode:Spice Girls
Creator:YOURS
Version:Normal
Source:
Tags:chicken little when tails get bored vahn 10 aldwych melanie brown scary melanie chisholm sporty emma bunton baby geri halliwell ginger victoria beckham née adams posh
BeatmapID:265147
BeatmapSetID:99778

[Difficulty]
HPDrainRate:4
CircleSize:4
OverallDifficulty:4
ApproachRate:4
SliderMultiplier:1.6
SliderTickRate:1

[Events]
//Background and Video events
0,0,"newer wannabe.jpg",0,0
//Break Periods
2,17883,25087
2,61500,68388
2,87670,88331
2,105116,112004
2,120382,121043
//Storyboard Layer 0 (Background)
//Storyboard Layer 1 (Fail)
//Storyboard Layer 2 (Pass)
//Storyboard Layer 3 (Foreground)
//Storyboard Sound Samples
//Background Colour Transformations
3,100,163,162,255

[TimingPoints]
237,545.206724216265,4,1,0,60,1,0
43853,-100,4,1,0,60,0,1
61300,-100,4,1,0,60,0,0
89651,-100,4,1,0,60,0,1
104917,-100,4,1,0,60,0,0
122363,-100,4,1,0,60,0,1
157256,-100,4,1,0,60,0,0

[HitObjects]
336,48,4599,1,0,0:0:0:0:
256,48,4871,1,0,0:0:0:0:
176,48,5144,1,8,0:0:0:0:
68,168,5689,2,0,P|192:244|230:240,1,160,0|8,0:0|0:0,0:0:0:0:
328,340,6779,5,0,0:0:0:0:
388,288,7051,1,0,0:0:0:0:
444,228,7324,1,8,0:0:0:0:
488,72,7870,2,0,P|342:86|333:91,1,160,0|8,0:0|0:0,0:0:0:0:
232,216,8960,5,0,0:0:0:0:
168,264,9232,1,0,0:0:0:0:
104,216,9505,1,8,0:0:0:0:
84,56,10051,2,0,L|256:56,1,160,0|8,0:0|0:0,0:0:0:0:
400,88,11141,5,0,0:0:0:0:
448,152,11413,1,0,0:0:0:0:
400,216,11685,1,8,0:0:0:0:
268,308,12231,2,0,P|181:308|115:256,1,160,0|8,0:0|0:0,0:0:0:0:
176,116,13322,6,0,L|349:116,3,160,8|8|8|8,0:0|0:0|0:0|0:0,0:0:0:0:
356,276,15503,6,8,P|469:244|470:224,2,160,0|8|0,0:0|0:0|0:0,0:0:0:0:
200,316,17138,2,0,P|136:292|84:208,1,160,8|4,0:0|0:0,0:0:0:0:
58,71,26407,6,0,P|169:82|177:54,1,160,0|8,0:0|0:0,0:0:0:0:
256,64,27225,1,2,0:0:0:0:
336,60,27497,2,0,P|439:109|454:163,1,160,0|8,0:0|0:0,0:0:0:0:
356,272,28588,6,0,P|292:318|195:317,1,160,0|8,0:0|0:0,0:0:0:0:
152,272,29405,1,2,0:0:0:0:
224,240,29678,2,0,P|308:186|325:122,1,160,0|8,0:0|0:0,0:0:0:0:
256,192,30768,12,4,33767,0:0:0:0:
66,61,35130,5,0,0:0:0:0:
120,119,35402,1,0,0:0:0:0:
180,66,35675,1,8,0:0:0:0:
339,63,36220,2,0,P|465:67|470:53,1,160,0|8,0:0|0:0,0:0:0:0:
435,223,37311,5,0,0:0:0:0:
396,292,37584,1,0,0:0:0:0:
324,324,37856,1,8,0:0:0:0:
164,332,38401,2,0,P|68:260|58:204,1,160,0|8,0:0|0:0,0:0:0:0:
172,112,39492,6,0,L|345:112,3,160,8|8|8|8,0:0|0:0|0:0|0:0,0:0:0:0:
356,272,41673,6,8,P|469:240|470:220,2,160,0|8|0,0:0|0:0|0:0,0:0:0:0:
200,312,43308,2,0,P|133:300|113:218,1,160,8|4,0:0|0:0,0:0:0:0:
210,120,44399,5,8,0:0:0:0:
316,239,44944,2,2,P|423:259|450:223,1,160,2|10,0:0|0:0,0:0:0:0:
458,71,46034,6,0,P|335:122|328:111,1,160,0|8,0:0|0:0,0:0:0:0:
274,105,46852,1,2,0:0:0:0:
196,83,47125,2,8,P|89:163|96:174,2,160,0|8|4,0:0|0:0|0:0,0:0:0:0:
152,236,48760,5,8,0:0:0:0:
312,248,49305,2,2,P|416:214|422:169,1,160,2|10,0:0|0:0,0:0:0:0:
328,48,50396,6,0,P|252:35|159:64,1,160,0|8,0:0|0:0,0:0:0:0:
156,136,51214,1,2,0:0:0:0:
236,140,51486,2,0,P|352:142|398:171,1,160,0|12,0:0|0:0,0:0:0:0:
336,316,52577,6,0,L|171:316,3,160,4|8|0|8,0:0|0:0|0:0|0:0,0:0:0:0:
172,156,54758,2,0,L|331:156,3,160,0|8|0|8,0:0|0:0|0:0|0:0,0:0:0:0:
256,192,56938,12,4,61300,0:0:0:0:
246,62,70023,6,2,L|401:63,2,120
242,142,71114,2,0,L|97:142,2,120
239,222,72204,6,2,L|394:223,2,120
235,302,73295,2,0,L|90:302,2,120
256,192,74385,12,4,77656,0:0:0:0:
63,63,78747,5,0,0:0:0:0:
63,62,79019,1,0,0:0:0:0:
63,61,79292,1,8,0:0:0:0:
61,220,79837,2,0,P|141:301|186:318,1,160,0|8,0:0|0:0,0:0:0:0:
341,302,80927,5,0,0:0:0:0:
342,305,81200,1,0,0:0:0:0:
342,305,81472,1,8,0:0:0:0:
458,194,82018,2,0,P|458:84|414:44,1,160,0|8,0:0|0:0,0:0:0:0:
339,185,83109,6,0,L|166:185,3,160,8|8|8|8,0:0|0:0|0:0|0:0,0:0:0:0:
311,94,85290,6,8,P|424:126|425:146,2,160,0|8|0,0:0|0:0|0:0,0:0:0:0:
150,95,86925,2,0,P|78:130|76:214,1,160,8|4,0:0|0:0,0:0:0:0:
49,58,89651,6,8,P|180:81|184:68,1,160,4|8,0:0|0:0,0:0:0:0:
243,76,90469,1,2,0:0:0:0:
320,94,90741,2,8,P|424:175|417:187,2,160,0|8|4,0:0|0:0|0:0,0:0:0:0:
364,248,92377,5,8,0:0:0:0:
212,300,92922,2,2,P|108:266|102:221,1,160,2|10,0:0|0:0,0:0:0:0:
176,88,94013,6,0,P|252:75|345:104,1,160,0|8,0:0|0:0,0:0:0:0:
348,172,94830,1,2,0:0:0:0:
268,164,95103,2,0,P|144:179|104:203,1,160,0|12,0:0|0:0,0:0:0:0:
224,312,96193,5,4,0:0:0:0:
224,312,96738,1,8,0:0:0:0:
384,308,97283,2,2,P|469:239|459:195,1,160,2|10,0:0|0:0,0:0:0:0:
412,52,98374,5,0,0:0:0:0:
412,52,98919,1,8,0:0:0:0:
252,52,99464,2,2,P|143:63|104:94,1,160,2|10,0:0|0:0,0:0:0:0:
184,232,100555,6,0,P|240:204|340:248,2,160,0|8|4,0:0|0:0|0:0,0:0:0:0:
216,304,101918,1,2,0:0:0:0:
296,304,102191,1,8,0:0:0:0:
376,300,102463,6,10,P|421:142|232:48,1,400,2|8,0:0|0:0,0:0:0:0:
156,180,104371,2,0,P|244:244|304:216,1,160,8|4,0:0|0:0,0:0:0:0:
18,243,113640,6,0,L|19:352,2,80,0|0|8,0:0|0:0|0:0,0:0:0:0:
177,244,114730,2,0,L|178:353,2,80,0|0|8,0:0|0:0|0:0,0:0:0:0:
337,244,115821,2,0,L|338:353,2,80,0|0|8,0:0|0:0|0:0,0:0:0:0:
496,246,116911,2,0,L|497:355,2,80,0|0|8,0:0|0:0|0:0,0:0:0:0:
256,192,118001,12,4,120182,0:0:0:0:
229,311,122363,5,4,0:0:0:0:
229,311,122908,1,8,0:0:0:0:
388,303,123453,2,2,P|473:234|463:190,1,160,2|10,0:0|0:0,0:0:0:0:
445,38,124544,6,8,P|314:61|310:48,1,160,0|8,0:0|0:0,0:0:0:0:
248,72,125361,1,2,0:0:0:0:
168,64,125634,2,8,P|63:145|70:157,2,160,0|8|4,0:0|0:0|0:0,0:0:0:0:
133,220,127270,5,8,0:0:0:0:
257,321,127815,2,2,P|361:287|367:242,1,160,2|10,0:0|0:0,0:0:0:0:
280,116,128906,6,0,P|204:103|111:132,1,160,0|8,0:0|0:0,0:0:0:0:
96,200,129723,1,2,0:0:0:0:
176,200,129996,2,0,P|304:216|352:256,1,160,0|12,0:0|0:0,0:0:0:0:
332,72,131086,6,0,L|160:72,3,160,4|8|0|8,0:0|0:0|0:0|0:0,0:0:0:0:
172,232,133267,2,0,L|344:232,3,160,4|8|0|8,0:0|0:0|0:0|0:0,0:0:0:0:
480,176,135448,5,0,0:0:0:0:
360,68,135993,1,8,0:0:0:0:
200,68,136538,2,2,P|136:72|70:142,1,160,2|10,0:0|0:0,0:0:0:0:
188,248,137629,6,8,P|328:248|335:258,3,160,0|8|0|8,0:0|0:0|0:0|0:0,0:0:0:0:
464,328,139810,5,4,0:0:0:0:
464,328,140355,1,8,0:0:0:0:
464,168,140900,2,2,P|395:83|351:93,1,160,2|10,0:0|0:0,0:0:0:0:
200,84,141991,6,0,P|82:63|211:216,1,480,0|8,0:0|0:0,0:0:0:0:
312,340,144171,5,0,0:0:0:0:
444,248,144716,1,8,0:0:0:0:
444,88,145261,2,2,P|343:45|309:74,1,160,2|10,0:0|0:0,0:0:0:0:
336,228,146352,6,0,L|164:228,3,160,0|8|0|8,0:0|0:0|0:0|0:0,0:0:0:0:
180,68,148533,2,0,L|352:68,3,160,0|8|0|8,0:0|0:0|0:0|0:0,0:0:0:0:
256,192,150714,12,4,156166,0:0:0:0:
101,65,157256,6,2,P|71:199|92:237,1,160,2|10,0:0|0:0,0:0:0:0:
132,272,158074,5,0,0:0:0:0:
208,296,158347,2,2,P|361:291|376:277,1,160,0|8,0:0|0:0,0:0:0:0:
412,236,159165,5,0,0:0:0:0:
432,160,159437,2,2,P|382:66|327:61,1,160,2|10,0:0|0:0,0:0:0:0:
256,56,160255,5,2,0:0:0:0:
256,56,160528,1,2,0:0:0:0:
196,160,160937,1,2,0:0:0:0:
316,160,161345,1,2,0:0:0:0:
396,168,161618,6,2,P|401:270|335:316,1,160,2|10,0:0|0:0,0:0:0:0:
284,312,162436,1,0,0:0:0:0:
204,312,162708,6,2,P|119:244|111:197,1,160,2|10,0:0|0:0,0:0:0:0:
140,124,163526,1,0,0:0:0:0:
208,84,163799,6,2,P|347:95|359:122,1,160,2|10,0:0|0:0,0:0:0:0:
380,168,164617,1,2,0:0:0:0:
380,248,164889,5,2,0:0:0:0:
260,252,165298,1,2,0:0:0:0:
140,252,165707,1,2,0:0:0:0:
256,192,165980,12,4,167615,0:0:0:0:
