osu file format v12

[General]
AudioFilename: Spice Girls - Yo Ill Tell You What I Want What I Really.mp3
AudioLeadIn: 0
PreviewTime: 43540
Countdown: 0
SampleSet: Normal
StackLeniency: 0.7
Mode: 0
LetterboxInBreaks: 1
WidescreenStoryboard: 0

[Editor]
Bookmarks: 4190,12913,15094,43990,45625,49987,61300,61436
DistanceSpacing: 1.4
BeatDivisor: 8
GridSize: 4

[Metadata]
Title:Wannabe
TitleUnicode:Wannabe
Artist:Spice Girls
ArtistUnicode:Spice Girls
Creator:YOURS
Version:Insane
Source:
Tags:chicken little when tails get bored vahn 10 aldwych melanie brown scary melanie chisholm sporty emma bunton baby geri halliwell ginger victoria beckham née adams posh
BeatmapID:265146
BeatmapSetID:99778

[Difficulty]
HPDrainRate:7
CircleSize:5
OverallDifficulty:7
ApproachRate:8
SliderMultiplier:2
SliderTickRate:1

[Events]
//Background and Video events
0,0,"newer wannabe.jpg",0,0
//Break Periods
2,17883,25657
2,61500,68388
2,105117,112004
//Storyboard Layer 0 (Background)
//Storyboard Layer 1 (Fail)
//Storyboard Layer 2 (Pass)
//Storyboard Layer 3 (Foreground)
//Storyboard Sound Samples
//Background Colour Transformations
3,100,163,162,255

[TimingPoints]
237,545.206724216265,4,1,0,60,1,0
43853,-100,4,1,0,60,0,1
61300,-100,4,1,0,60,0,0
89651,-100,4,1,0,60,0,1
104917,-100,4,1,0,60,0,0
122363,-100,4,1,0,60,0,1
157256,-100,4,1,0,60,0,0

[HitObjects]
63,56,4599,2,0,P|56:124|96:165,1,100
204,77,5144,1,8,0:0:0:0:
345,124,5416,1,0,0:0:0:0:
467,211,5689,6,0,P|385:299|379:299,1,100
269,266,6234,1,8,0:0:0:0:
140,324,6507,1,0,0:0:0:0:
66,193,6779,6,0,P|86:125|130:105,1,100
251,66,7325,1,8,0:0:0:0:
389,122,7597,1,0,0:0:0:0:
467,250,7870,6,0,P|425:318|391:328,1,100
289,234,8415,1,8,0:0:0:0:
206,108,8688,1,0,0:0:0:0:
85,196,8960,6,0,P|124:273|170:290,2,100,0|0|8,0:0|0:0|0:0,0:0:0:0:
108,47,9778,1,0,0:0:0:0:
258,50,10051,1,0,0:0:0:0:
407,59,10323,6,0,P|434:137|423:174,1,100,0|8,0:0|0:0,0:0:0:0:
428,301,10868,1,0,0:0:0:0:
278,315,11141,6,0,P|217:337|163:322,2,100,0|0|8,0:0|0:0|0:0,0:0:0:0:
325,172,11959,1,0,0:0:0:0:
178,200,12231,1,0,0:0:0:0:
66,98,12504,6,0,P|169:95|182:108,1,100,0|8,0:0|0:0,0:0:0:0:
309,92,13049,1,0,0:0:0:0:
449,145,13322,5,12,0:0:0:0:
405,288,13594,1,0,0:0:0:0:
264,340,13867,1,8,0:0:0:0:
116,309,14140,1,0,0:0:0:0:
49,175,14412,1,12,0:0:0:0:
128,47,14685,1,0,0:0:0:0:
277,38,14957,1,8,0:0:0:0:
419,85,15230,1,0,0:0:0:0:
256,192,15503,12,4,17683,0:0:0:0:
256,44,26407,6,0,P|336:92|380:152,2,150
120,104,27497,2,2,L|120:216,1,100
240,292,28042,2,0,L|368:292,1,100,8|0,0:0|0:0,0:0:0:0:
436,176,28588,6,0,P|400:60|348:40,2,150
288,188,29678,2,0,L|160:188,3,100,0|0|8|0,0:0|0:0|0:0|0:0,0:0:0:0:
256,192,30768,12,4,34040,0:0:0:0:
462,51,34994,5,2,0:0:0:0:
460,125,35130,2,0,P|426:203|386:239,1,100
284,141,35675,1,8,0:0:0:0:
141,92,35948,1,0,0:0:0:0:
16,174,36220,6,0,P|34:235|73:276,1,100
203,294,36766,1,8,0:0:0:0:
339,232,37038,1,0,0:0:0:0:
471,133,37311,6,0,P|470:223|448:267,2,100,0|0|8,0:0|0:0|0:0,0:0:0:0:
328,86,38129,1,0,0:0:0:0:
178,83,38401,2,0,P|180:163|201:205,2,100,0|0|8,0:0|0:0|0:0,0:0:0:0:
40,142,39219,1,0,0:0:0:0:
58,291,39492,6,0,P|124:344|170:344,1,100,12|0,0:0|0:0,0:0:0:0:
268,340,40037,2,0,P|333:327|353:287,1,100,8|0,0:0|0:0,0:0:0:0:
448,216,40582,2,0,P|436:113|418:105,1,100,12|0,0:0|0:0,0:0:0:0:
336,60,41127,2,0,P|253:60|225:73,1,100,8|0,0:0|0:0,0:0:0:0:
256,192,41673,12,4,43308,0:0:0:0:
62,56,43853,6,0,L|175:56,2,100,0|0|8,0:0|0:0|0:0,0:0:0:0:
55,206,44671,1,2,0:0:0:0:
165,307,44944,1,2,0:0:0:0:
274,204,45216,2,0,L|403:204,1,100,0|8,0:0|0:0,0:0:0:0:
465,83,45762,1,0,0:0:0:0:
315,83,46034,6,0,L|213:83,1,100
65,83,46579,2,0,L|66:196,1,100,8|0,0:0|0:0,0:0:0:0:
102,329,47125,5,4,0:0:0:0:
148,272,47261,1,0,0:0:0:0:
196,328,47397,1,0,0:0:0:0:
343,325,47670,1,8,0:0:0:0:
477,258,47942,1,0,0:0:0:0:
468,33,48215,6,0,L|360:33,2,100,0|0|8,0:0|0:0|0:0,0:0:0:0:
394,163,49033,1,2,0:0:0:0:
259,228,49305,1,2,0:0:0:0:
253,77,49578,2,0,L|151:77,1,100,0|8,0:0|0:0,0:0:0:0:
2,77,50123,6,0,P|24:142|63:172,1,100
41,312,50668,1,0,0:0:0:0:
146,205,50941,1,8,0:0:0:0:
253,309,51214,1,0,0:0:0:0:
383,236,51486,2,2,P|485:239|506:313,2,150,0|0|0,0:0|0:0|0:0,0:0:0:0:
372,85,52577,6,0,P|423:137|438:187,2,100,0|0|8,0:0|0:0|0:0,0:0:0:0:
235,147,53395,1,2,0:0:0:0:
235,147,53667,1,2,0:0:0:0:
104,72,53940,2,0,P|47:131|44:153,1,100,0|8,0:0|0:0,0:0:0:0:
116,277,54485,1,0,0:0:0:0:
262,311,54758,6,0,L|387:311,1,100
453,191,55303,2,0,L|307:191,1,100,8|0,0:0|0:0,0:0:0:0:
202,196,55848,2,0,P|82:204|-21:153,1,200,0|8,0:0|0:0,0:0:0:0:
59,33,56666,1,0,0:0:0:0:
207,50,56938,6,0,L|354:50,2,100,0|0|8,0:0|0:0|0:0,0:0:0:0:
173,196,57756,2,2,L|273:278,1,100
397,287,58301,1,0,0:0:0:0:
466,137,58574,1,8,0:0:0:0:
330,73,58847,6,0,L|191:73,1,100
84,111,59392,2,0,L|31:225,1,100,0|8,0:0|0:0,0:0:0:0:
161,291,59937,1,0,0:0:0:0:
305,332,60210,2,2,P|417:345|465:308,2,150
402,218,61300,1,4,0:0:0:0:
256,48,70023,6,0,P|180:88|156:176,2,150
380,132,71114,1,0,0:0:0:0:
480,244,71386,1,0,0:0:0:0:
364,340,71659,1,8,0:0:0:0:
256,236,71932,1,0,0:0:0:0:
108,244,72204,6,0,P|196:336|244:360,2,150
100,92,73295,1,0,0:0:0:0:
204,200,73567,1,0,0:0:0:0:
316,100,73840,1,8,0:0:0:0:
424,204,74112,1,0,0:0:0:0:
256,192,74385,12,4,77384,0:0:0:0:
255,33,78201,5,4,0:0:0:0:
78,172,78610,5,2,0:0:0:0:
69,246,78747,2,0,P|129:332|145:337,1,100
269,339,79292,1,8,0:0:0:0:
269,339,79564,1,0,0:0:0:0:
413,329,79837,2,0,P|462:282|466:240,2,100,0|0|8,0:0|0:0|0:0,0:0:0:0:
378,182,80655,6,0,P|343:103|328:93,3,100,0|0|0|8,0:0|0:0|0:0|0:0,0:0:0:0:
185,78,81745,1,0,0:0:0:0:
34,74,82018,2,0,P|53:147|134:194,2,150
172,64,83108,6,0,L|283:66,1,100,4|8,0:0|0:0,0:0:0:0:
404,116,83653,1,8,0:0:0:0:
420,256,83926,2,0,L|304:298,1,100,0|12,0:0|0:0,0:0:0:0:
192,328,84471,1,0,0:0:0:0:
92,232,84744,2,0,P|97:157|115:143,1,100,8|0,0:0|0:0,0:0:0:0:
256,192,85289,12,4,86925,0:0:0:0:
256,192,87470,12,4,89106,0:0:0:0:
65,290,89514,5,0,0:0:0:0:
70,214,89651,2,0,L|202:214,1,100
319,227,90196,1,8,0:0:0:0:
459,280,90469,1,0,0:0:0:0:
456,130,90741,5,4,0:0:0:0:
410,70,90877,1,0,0:0:0:0:
359,126,91014,1,0,0:0:0:0:
218,73,91286,2,0,L|117:73,1,100,8|0,0:0|0:0,0:0:0:0:
76,217,91832,6,0,P|131:266|174:255,1,100
300,288,92377,1,8,0:0:0:0:
300,288,92649,1,2,0:0:0:0:
414,202,92922,2,0,P|453:149|446:103,1,100,2|0,0:0|0:0,0:0:0:0:
321,42,93467,1,8,0:0:0:0:
170,46,93740,6,0,P|73:124|72:128,1,100
107,209,94285,1,0,0:0:0:0:
107,209,94558,1,8,0:0:0:0:
107,209,94830,1,0,0:0:0:0:
256,218,95103,2,2,P|316:241|410:211,2,150
383,138,96193,6,0,L|382:33,1,100
231,40,96738,2,0,L|236:148,1,100,8|2,0:0|0:0,0:0:0:0:
210,288,97284,1,2,0:0:0:0:
359,291,97556,1,0,0:0:0:0:
360,140,97829,1,8,0:0:0:0:
210,143,98101,1,0,0:0:0:0:
210,293,98374,6,0,L|78:293,1,100
45,157,98919,2,0,L|44:51,1,100,8|2,0:0|0:0,0:0:0:0:
194,58,99464,1,2,0:0:0:0:
339,93,99737,1,0,0:0:0:0:
420,219,100010,1,8,0:0:0:0:
339,345,100282,1,0,0:0:0:0:
175,330,100555,6,0,P|88:290|68:270,1,100
76,138,101100,1,8,0:0:0:0:
192,43,101373,2,0,L|313:43,3,100,2|2|0|8,0:0|0:0|0:0|0:0,0:0:0:0:
256,192,102463,12,4,104917,0:0:0:0:
220,28,113640,6,0,P|292:68|332:104,1,100
432,164,114185,2,0,P|484:244|484:272,1,100,8|0,0:0|0:0,0:0:0:0:
344,296,114730,2,0,P|224:336|216:332,1,100
112,352,115275,2,0,P|32:328|8:304,2,100,8|0|0,0:0|0:0|0:0,0:0:0:0:
68,208,116093,5,0,0:0:0:0:
216,224,116366,2,0,P|304:224|320:256,1,100,8|0,0:0|0:0,0:0:0:0:
300,76,116911,2,2,P|228:60|200:80,2,100,2|2|10,0:0|0:0|0:0,0:0:0:0:
252,216,117729,1,0,0:0:0:0:
356,324,118001,5,4,0:0:0:0:
208,292,118274,1,0,0:0:0:0:
296,168,118547,1,8,0:0:0:0:
172,84,118819,1,0,0:0:0:0:
320,100,119092,5,4,0:0:0:0:
200,192,119365,1,0,0:0:0:0:
260,328,119637,1,8,0:0:0:0:
256,176,119910,1,0,0:0:0:0:
256,192,120182,12,4,121818,0:0:0:0:
212,68,122363,6,0,P|293:59|321:74,2,100,0|0|8,0:0|0:0|0:0,0:0:0:0:
65,101,123181,1,2,0:0:0:0:
157,219,123454,1,2,0:0:0:0:
264,323,123726,1,0,0:0:0:0:
373,220,123999,1,8,0:0:0:0:
466,103,124271,1,0,0:0:0:0:
338,67,124544,6,0,L|218:67,1,100
238,217,125089,2,0,L|357:217,1,100,8|0,0:0|0:0,0:0:0:0:
443,324,125634,5,4,0:0:0:0:
443,324,125771,1,0,0:0:0:0:
443,324,125907,1,0,0:0:0:0:
292,324,126180,2,0,L|166:324,1,100,8|0,0:0|0:0,0:0:0:0:
41,324,126725,6,0,L|113:240,1,100
51,108,127270,1,8,0:0:0:0:
174,66,127543,2,0,L|289:66,2,100,2|2|0,0:0|0:0|0:0,0:0:0:0:
198,213,128360,1,8,0:0:0:0:
296,99,128633,6,0,P|378:119|412:146,1,100
441,268,129178,1,0,0:0:0:0:
441,268,129451,1,8,0:0:0:0:
441,268,129723,1,0,0:0:0:0:
291,277,129996,2,2,P|217:288|141:254,2,150
388,162,131086,6,0,P|416:89|387:40,1,100
260,62,131632,1,8,0:0:0:0:
111,76,131904,1,2,0:0:0:0:
88,224,132177,1,2,0:0:0:0:
209,312,132449,2,0,P|300:307|304:297,2,100,0|8|0,0:0|0:0|0:0,0:0:0:0:
87,223,133267,6,0,P|90:151|116:123,1,100
241,67,133812,1,8,0:0:0:0:
386,104,134085,1,2,0:0:0:0:
434,219,134358,1,2,0:0:0:0:
309,314,134630,2,0,P|217:316|206:294,2,100,0|8|0,0:0|0:0|0:0,0:0:0:0:
189,222,135448,6,0,L|51:204,1,100
54,62,135993,1,8,0:0:0:0:
54,62,136266,1,2,0:0:0:0:
204,62,136539,2,0,L|310:64,1,100,2|0,0:0|0:0,0:0:0:0:
449,100,137084,1,8,0:0:0:0:
307,148,137356,6,0,L|180:148,1,100
211,298,137902,2,0,L|344:298,1,100,0|8,0:0|0:0,0:0:0:0:
420,194,138447,1,0,0:0:0:0:
424,343,138719,5,2,0:0:0:0:
253,195,139128,1,2,0:0:0:0:
82,342,139537,1,2,0:0:0:0:
71,211,139810,6,0,P|112:135|126:128,1,100
257,69,140355,1,8,0:0:0:0:
383,79,140628,2,2,P|442:133|458:170,1,100
451,300,141173,1,0,0:0:0:0:
451,300,141445,1,8,0:0:0:0:
447,224,141582,5,0,0:0:0:0:
447,224,141718,1,4,0:0:0:0:
447,224,141854,1,0,0:0:0:0:
337,121,142127,1,0,0:0:0:0:
337,121,142263,1,4,0:0:0:0:
337,121,142399,1,0,0:0:0:0:
186,120,142672,1,0,0:0:0:0:
186,120,142808,1,4,0:0:0:0:
186,120,142945,1,0,0:0:0:0:
69,214,143217,1,0,0:0:0:0:
69,214,143354,1,4,0:0:0:0:
69,214,143490,1,0,0:0:0:0:
178,317,143763,5,0,0:0:0:0:
178,319,143899,1,4,0:0:0:0:
178,319,144035,1,0,0:0:0:0:
179,322,144171,1,0,0:0:0:0:
141,176,144444,5,0,0:0:0:0:
286,213,144717,1,8,0:0:0:0:
408,299,144989,2,0,P|496:318|515:297,2,100,2|2|0,0:0|0:0|0:0,0:0:0:0:
469,161,145807,2,0,P|411:158|388:122,1,100,8|0,0:0|0:0,0:0:0:0:
254,59,146352,5,4,0:0:0:0:
148,166,146625,1,0,0:0:0:0:
292,204,146897,1,8,0:0:0:0:
213,332,147170,1,0,0:0:0:0:
226,182,147443,5,4,0:0:0:0:
351,100,147715,1,0,0:0:0:0:
362,249,147988,1,8,0:0:0:0:
438,120,148260,1,0,0:0:0:0:
300,180,148533,5,4,0:0:0:0:
164,244,148806,1,0,0:0:0:0:
283,333,149078,1,8,0:0:0:0:
370,211,149351,1,0,0:0:0:0:
255,114,149623,5,4,0:0:0:0:
177,242,149896,1,0,0:0:0:0:
327,246,150169,1,8,0:0:0:0:
253,115,150441,1,0,0:0:0:0:
256,192,150714,12,4,156711,0:0:0:0:
60,96,157256,6,0,P|128:32|168:32,1,100
280,48,157802,1,8,0:0:0:0:
416,108,158074,1,0,0:0:0:0:
468,248,158347,6,0,P|460:320|412:348,1,100
292,316,158892,1,8,0:0:0:0:
144,300,159165,1,0,0:0:0:0:
260,208,159437,6,0,P|340:216|352:248,1,100
416,92,159982,1,8,0:0:0:0:
264,96,160255,1,0,0:0:0:0:
112,96,160528,6,2,P|46:206|66:248,2,150
180,228,161618,6,0,P|236:316|264:328,2,100,0|0|8,0:0|0:0|0:0,0:0:0:0:
360,192,162436,2,0,P|412:168|432:92,1,100
300,60,162981,1,0,0:0:0:0:
148,64,163254,1,8,0:0:0:0:
52,176,163526,6,0,P|92:252|112:264,1,100
240,312,164071,1,0,0:0:0:0:
368,236,164344,1,8,0:0:0:0:
400,60,164617,5,0,0:0:0:0:
240,56,164889,2,2,P|96:68|80:88,2,150
256,192,165980,12,4,167615,0:0:0:0:
