osu file format v12

[General]
AudioFilename: Spice Girls - Yo Ill Tell You What I Want What I Really.mp3
AudioLeadIn: 0
PreviewTime: 43540
Countdown: 0
SampleSet: Normal
StackLeniency: 0.7
Mode: 0
LetterboxInBreaks: 1
WidescreenStoryboard: 0

[Editor]
Bookmarks: 4190,12913,15094,43990,45625,49987
DistanceSpacing: 1
BeatDivisor: 4
GridSize: 32

[Metadata]
Title:Wannabe
TitleUnicode:Wannabe
Artist:Spice Girls
ArtistUnicode:Spice Girls
Creator:YOURS
Version:Hard
Source:
Tags:chicken little when tails get bored vahn 10 aldwych melanie brown scary melanie chisholm sporty emma bunton baby geri halliwell ginger victoria beckham née adams posh
BeatmapID:265145
BeatmapSetID:99778

[Difficulty]
HPDrainRate:5
CircleSize:5
OverallDifficulty:6
ApproachRate:6
SliderMultiplier:1.6
SliderTickRate:1

[Events]
//Background and Video events
0,0,"newer wannabe.jpg",0,0
//Break Periods
2,17883,25357
2,61500,68388
2,105117,112045
//Storyboard Layer 0 (Background)
//Storyboard Layer 1 (Fail)
//Storyboard Layer 2 (Pass)
//Storyboard Layer 3 (Foreground)
//Storyboard Sound Samples
//Background Colour Transformations
3,100,163,162,255

[TimingPoints]
237,545.206724216265,4,1,0,60,1,0
43853,-100,4,1,0,60,0,1
61300,-100,4,1,0,60,0,0
89651,-100,4,1,0,60,0,1
104917,-100,4,1,0,60,0,0
122363,-100,4,1,0,60,0,1
157256,-100,4,1,0,60,0,0

[HitObjects]
256,190,4599,1,0,0:0:0:0:
316,242,4871,1,0,0:0:0:0:
376,189,5144,1,8,0:0:0:0:
436,240,5416,1,0,0:0:0:0:
498,189,5689,2,2,P|448:87|403:53,1,160,2|10,0:0|0:0,0:0:0:0:
333,60,6507,1,0,0:0:0:0:
280,120,6779,5,0,0:0:0:0:
219,67,7051,1,0,0:0:0:0:
162,123,7324,1,8,0:0:0:0:
103,68,7596,1,0,0:0:0:0:
43,122,7869,2,2,P|93:224|138:258,1,160,2|10,0:0|0:0,0:0:0:0:
224,322,8824,5,0,0:0:0:0:
224,322,8960,1,0,0:0:0:0:
291,278,9233,1,0,0:0:0:0:
358,236,9505,1,8,0:0:0:0:
424,190,9778,1,0,0:0:0:0:
479,132,10051,2,2,P|391:56|328:54,1,160,2|10,0:0|0:0,0:0:0:0:
294,107,10868,1,0,0:0:0:0:
229,59,11141,5,0,0:0:0:0:
164,105,11413,1,0,0:0:0:0:
224,157,11686,1,8,0:0:0:0:
164,210,11958,1,0,0:0:0:0:
227,258,12231,2,2,P|336:291|392:282,1,160,2|10,0:0|0:0,0:0:0:0:
373,205,13049,6,0,L|480:205,1,80,0|8,0:0|0:0,0:0:0:0:
457,125,13594,1,0,0:0:0:0:
412,58,13867,1,8,0:0:0:0:
331,56,14140,2,0,L|219:56,1,80,0|8,0:0|0:0,0:0:0:0:
172,73,14685,1,0,0:0:0:0:
108,121,14958,1,8,0:0:0:0:
63,187,15230,5,0,0:0:0:0:
106,254,15503,2,0,B|163:159|240:370|303:253,1,240
368,299,16593,1,0,0:0:0:0:
434,254,16866,1,0,0:0:0:0:
450,175,17138,2,8,P|327:157|296:174,1,160,8|4,0:0|0:0,0:0:0:0:
251,61,26407,6,2,P|360:97|395:148,2,160
171,71,27770,1,0,0:0:0:0:
126,137,28042,1,8,0:0:0:0:
160,209,28315,1,0,0:0:0:0:
174,287,28588,6,2,P|324:269|332:252,2,160
201,211,29951,1,0,0:0:0:0:
280,211,30223,1,8,0:0:0:0:
256,192,30768,12,4,34040,0:0:0:0:
261,58,34994,5,0,0:0:0:0:
261,58,35130,1,0,0:0:0:0:
204,114,35403,1,0,0:0:0:0:
151,174,35675,1,8,0:0:0:0:
153,254,35948,1,0,0:0:0:0:
233,256,36221,2,2,P|321:332|384:334,1,160,2|10,0:0|0:0,0:0:0:0:
440,336,37038,1,0,0:0:0:0:
479,266,37311,5,0,0:0:0:0:
430,202,37583,1,0,0:0:0:0:
370,148,37856,1,8,0:0:0:0:
307,197,38128,1,0,0:0:0:0:
246,144,38401,2,2,P|192:244|190:301,1,160,2|10,0:0|0:0,0:0:0:0:
109,298,39219,6,0,L|2:298,1,80,0|8,0:0|0:0,0:0:0:0:
26,217,39764,1,0,0:0:0:0:
106,216,40037,1,8,0:0:0:0:
97,136,40310,2,0,L|-10:136,1,80,0|8,0:0|0:0,0:0:0:0:
23,56,40855,1,0,0:0:0:0:
103,58,41128,1,8,0:0:0:0:
176,88,41400,5,0,0:0:0:0:
255,76,41673,2,0,B|288:-34|376:204|459:30,1,240
498,113,42763,1,0,0:0:0:0:
463,185,43036,1,0,0:0:0:0:
415,249,43308,2,8,P|290:264|268:239,1,160,8|4,0:0|0:0,0:0:0:0:
239,321,44126,5,0,0:0:0:0:
159,325,44399,1,8,0:0:0:0:
79,324,44671,2,0,P|106:253|120:247,1,80
183,241,45216,2,2,L|284:240,1,80,2|10,0:0|0:0,0:0:0:0:
376,278,45898,5,0,0:0:0:0:
376,278,46034,1,0,0:0:0:0:
440,229,46307,1,0,0:0:0:0:
466,153,46579,1,8,0:0:0:0:
438,77,46852,2,2,P|368:34|356:39,1,80,2|6,0:0|0:0,0:0:0:0:
316,80,47397,1,0,0:0:0:0:
267,143,47670,1,8,0:0:0:0:
187,141,47942,1,0,0:0:0:0:
125,89,48215,6,0,P|62:85|45:97,2,80,0|0|8,0:0|0:0|0:0,0:0:0:0:
90,161,49033,1,0,0:0:0:0:
89,240,49305,1,0,0:0:0:0:
91,320,49578,2,2,L|199:320,1,80,2|14,0:0|0:0,0:0:0:0:
251,319,50123,6,8,L|338:296,1,80,0|0,0:0|0:0,0:0:0:0:
403,271,50668,2,2,L|470:208,1,80,0|14,0:0|0:0,0:0:0:0:
454,136,51214,2,0,L|423:47,1,80,0|0,0:0|0:0,0:0:0:0:
350,39,51759,2,2,L|260:39,1,80,0|14,0:0|0:0,0:0:0:0:
189,39,52304,1,0,0:0:0:0:
108,42,52577,5,4,0:0:0:0:
70,112,52849,1,0,0:0:0:0:
107,182,53122,1,8,0:0:0:0:
159,242,53394,2,8,P|186:313|200:319,1,80,0|0,0:0|0:0,0:0:0:0:
264,315,53939,2,2,L|265:214,1,80,2|14,0:0|0:0,0:0:0:0:
414,292,54758,6,2,L|385:215,1,80,2|10,0:0|0:0,0:0:0:0:
344,148,55303,2,8,L|282:80,1,80,12|0,0:0|0:0,0:0:0:0:
214,62,55848,2,0,P|95:101|74:145,1,160,0|12,0:0|0:0,0:0:0:0:
224,196,56938,6,0,P|286:192|303:204,2,80,0|0|8,0:0|0:0|0:0,0:0:0:0:
219,275,57756,1,0,0:0:0:0:
299,277,58029,1,0,0:0:0:0:
378,277,58301,2,2,L|378:195,1,80,2|14,0:0|0:0,0:0:0:0:
430,136,58847,5,0,0:0:0:0:
350,125,59119,1,0,0:0:0:0:
270,115,59392,2,2,P|219:176|217:206,1,80,2|14,0:0|0:0,0:0:0:0:
167,234,59937,1,2,0:0:0:0:
168,314,60210,2,8,L|-10:314,2,160,0|8|4,0:0|0:0|0:0,0:0:0:0:
53,120,70023,6,2,P|199:58|287:58,1,240
358,64,71114,1,0,0:0:0:0:
424,108,71386,1,0,0:0:0:0:
442,186,71659,1,8,0:0:0:0:
442,266,71932,1,0,0:0:0:0:
401,334,72204,6,2,P|212:314|178:278,1,240
149,213,73295,1,0,0:0:0:0:
254,92,73840,1,8,0:0:0:0:
256,192,74385,12,4,77384,0:0:0:0:
254,325,78201,5,4,0:0:0:0:
156,197,78747,5,0,0:0:0:0:
194,127,79019,1,0,0:0:0:0:
258,79,79292,1,8,0:0:0:0:
337,79,79564,1,0,0:0:0:0:
415,94,79837,2,2,P|365:196|320:230,1,160,2|10,0:0|0:0,0:0:0:0:
332,303,80655,1,0,0:0:0:0:
266,347,80927,5,0,0:0:0:0:
193,313,81199,1,0,0:0:0:0:
118,341,81472,1,8,0:0:0:0:
44,310,81744,1,0,0:0:0:0:
31,230,82017,2,2,P|3:119|16:64,1,160,2|10,0:0|0:0,0:0:0:0:
91,70,82836,6,0,L|198:70,1,80,0|8,0:0|0:0,0:0:0:0:
250,74,83381,1,0,0:0:0:0:
308,128,83654,1,8,0:0:0:0:
366,182,83927,2,0,L|426:283,1,80,0|8,0:0|0:0,0:0:0:0:
434,325,84472,1,0,0:0:0:0:
353,327,84745,1,8,0:0:0:0:
273,327,85016,1,0,0:0:0:0:
272,246,85289,6,0,B|230:180|119:333|49:251,1,240
48,174,86380,1,0,0:0:0:0:
48,174,86652,1,2,0:0:0:0:
48,174,86925,1,8,0:0:0:0:
256,192,87470,12,4,89106,0:0:0:0:
256,329,89650,1,0,0:0:0:0:
257,248,89923,1,0,0:0:0:0:
256,168,90195,1,8,0:0:0:0:
258,87,90468,2,2,P|188:44|176:49,1,80,2|2,0:0|0:0,0:0:0:0:
128,78,91013,1,0,0:0:0:0:
61,122,91286,1,8,0:0:0:0:
36,197,91558,1,0,0:0:0:0:
102,241,91832,6,0,P|165:237|182:249,2,80,0|0|8,0:0|0:0|0:0,0:0:0:0:
100,320,92649,1,0,0:0:0:0:
180,320,92922,1,0,0:0:0:0:
260,320,93195,2,2,L|368:320,1,80,2|14,0:0|0:0,0:0:0:0:
397,264,93740,6,8,L|397:155,1,80,0|0,0:0|0:0,0:0:0:0:
325,148,94285,2,2,L|323:230,1,80,0|14,0:0|0:0,0:0:0:0:
248,257,94831,2,8,L|248:177,1,80,0|0,0:0|0:0,0:0:0:0:
172,149,95376,2,2,L|172:248,1,80,0|14,0:0|0:0,0:0:0:0:
104,272,95921,1,0,0:0:0:0:
171,314,96193,5,0,0:0:0:0:
250,317,96465,1,0,0:0:0:0:
330,315,96738,1,8,0:0:0:0:
412,312,97011,2,0,P|408:248|376:228,1,80
320,232,97556,2,2,L|240:232,1,80,2|12,0:0|0:0,0:0:0:0:
172,83,98374,6,2,L|97:116,1,80,2|2,0:0|0:0,0:0:0:0:
31,158,98919,2,8,L|67:262,1,80,12|0,0:0|0:0,0:0:0:0:
114,289,99464,2,8,P|233:327|276:304,1,160,0|12,0:0|0:0,0:0:0:0:
256,192,100555,12,4,104917,0:0:0:0:
247,33,113095,6,2,P|354:81|371:106,1,120
416,182,113912,1,0,0:0:0:0:
416,182,114185,2,0,P|376:277|350:294,2,120
336,189,115275,1,8,0:0:0:0:
261,217,115548,1,0,0:0:0:0:
187,248,115821,6,2,P|222:321|258:330,2,120
192,168,116911,1,0,0:0:0:0:
257,121,117184,1,0,0:0:0:0:
319,170,117456,1,8,0:0:0:0:
256,192,118001,12,4,121818,0:0:0:0:
217,58,122363,6,8,P|272:50|300:67,3,80,0|0|8|0,0:0|0:0|0:0|0:0,0:0:0:0:
292,140,123454,2,0,P|206:141|187:158,2,80,0|0|8,0:0|0:0|0:0,0:0:0:0:
256,254,124408,5,0,0:0:0:0:
256,254,124544,1,0,0:0:0:0:
336,254,124817,1,0,0:0:0:0:
392,197,125089,1,8,0:0:0:0:
416,120,125362,2,2,P|346:77|334:82,1,80,2|2,0:0|0:0,0:0:0:0:
286,66,125907,1,0,0:0:0:0:
205,66,126180,1,8,0:0:0:0:
147,121,126452,1,0,0:0:0:0:
203,177,126725,6,0,L|314:177,2,80,0|0|8,0:0|0:0|0:0,0:0:0:0:
200,257,127543,2,0,L|308:257,1,80
359,263,128088,1,0,0:0:0:0:
430,226,128361,1,8,0:0:0:0:
457,150,128633,6,0,L|415:79,1,80,0|0,0:0|0:0,0:0:0:0:
336,76,129178,2,2,L|230:75,1,80,0|14,0:0|0:0,0:0:0:0:
176,88,129724,2,0,L|85:143,1,80,0|0,0:0|0:0,0:0:0:0:
119,208,130269,2,2,L|196:278,1,80,0|14,0:0|0:0,0:0:0:0:
249,297,130814,1,0,0:0:0:0:
328,300,131086,5,4,0:0:0:0:
406,285,131359,1,0,0:0:0:0:
460,226,131632,2,0,P|471:136|458:119,1,80,8|0,0:0|0:0,0:0:0:0:
423,92,132177,1,4,0:0:0:0:
348,63,132449,1,0,0:0:0:0:
268,57,132722,2,0,P|195:68|178:87,1,80,8|0,0:0|0:0,0:0:0:0:
115,90,133267,5,0,0:0:0:0:
73,158,133540,1,0,0:0:0:0:
74,237,133812,2,0,P|131:287|149:289,1,80,8|0,0:0|0:0,0:0:0:0:
205,320,134358,1,4,0:0:0:0:
283,334,134630,1,0,0:0:0:0:
363,334,134903,2,0,P|419:311|423:285,1,80,8|0,0:0|0:0,0:0:0:0:
359,248,135448,5,0,0:0:0:0:
285,216,135721,1,0,0:0:0:0:
214,178,135993,1,8,0:0:0:0:
145,136,136266,1,0,0:0:0:0:
75,95,136539,1,0,0:0:0:0:
139,47,136811,2,2,P|205:44|217:60,1,80,2|14,0:0|0:0,0:0:0:0:
191,127,137356,6,0,P|356:237|303:123,1,560,0|12,0:0|0:0,0:0:0:0:
433,212,139810,6,0,P|474:175|479:143,3,80,0|0|8|0,0:0|0:0|0:0|0:0,0:0:0:0:
440,82,140900,1,0,0:0:0:0:
359,78,141173,1,0,0:0:0:0:
279,78,141445,1,12,0:0:0:0:
199,73,141718,6,0,L|109:118,1,80,4|0,0:0|0:0,0:0:0:0:
53,139,142263,2,2,L|53:238,1,80,6|10,0:0|0:0,0:0:0:0:
77,295,142808,2,0,L|184:336,1,80,4|0,0:0|0:0,0:0:0:0:
231,323,143353,2,2,L|331:323,1,80,6|10,0:0|0:0,0:0:0:0:
391,319,143899,1,0,0:0:0:0:
391,319,144171,1,4,0:0:0:0:
422,245,144444,5,0,0:0:0:0:
390,171,144717,1,8,0:0:0:0:
319,133,144989,2,2,P|246:130|218:146,2,80,2|2|2,0:0|0:0|0:0,0:0:0:0:
279,202,145807,1,12,0:0:0:0:
224,260,146080,1,0,0:0:0:0:
161,309,146352,6,0,L|98:244,1,80,4|0,0:0|0:0,0:0:0:0:
67,180,146897,1,8,0:0:0:0:
95,105,147170,1,2,0:0:0:0:
171,80,147443,2,2,L|263:63,2,80,2|2|10,0:0|0:0|0:0,0:0:0:0:
167,159,148260,1,0,0:0:0:0:
159,238,148533,6,0,L|224:301,1,80,4|0,0:0|0:0,0:0:0:0:
295,306,149078,1,8,0:0:0:0:
373,288,149351,1,2,0:0:0:0:
388,209,149624,2,2,L|405:117,2,80,2|2|10,0:0|0:0|0:0,0:0:0:0:
310,228,150441,1,4,0:0:0:0:
256,192,150714,12,4,156711,0:0:0:0:
70,182,157256,6,0,P|112:121|143:107,1,80
194,101,157802,1,8,0:0:0:0:
279,94,158074,6,0,P|351:143|364:161,1,80
408,185,158619,1,0,0:0:0:0:
408,185,158892,1,8,0:0:0:0:
467,238,159165,6,0,P|449:284|416:310,3,80,0|0|0|8,0:0|0:0|0:0|0:0,0:0:0:0:
347,311,160255,1,2,0:0:0:0:
347,311,160528,1,2,0:0:0:0:
258,230,160937,1,2,0:0:0:0:
165,305,161345,1,2,0:0:0:0:
99,259,161618,6,0,P|71:193|71:161,1,80
87,107,162163,1,8,0:0:0:0:
161,78,162436,6,0,P|232:83|238:90,1,80
309,109,162981,1,0,0:0:0:0:
309,109,163254,1,8,0:0:0:0:
385,149,163526,6,0,L|384:241,3,80,0|0|0|8,0:0|0:0|0:0|0:0,0:0:0:0:
380,309,164617,1,2,0:0:0:0:
377,308,164889,1,2,0:0:0:0:
270,253,165298,1,2,0:0:0:0:
162,305,165707,1,2,0:0:0:0:
256,192,165980,12,4,167615,0:0:0:0:
