osu file format v9

[General]
AudioFilename: 12 .mp3
AudioLeadIn: 0
PreviewTime: -1
Countdown: 0
SampleSet: Soft
StackLeniency: 0.7
Mode: 0
LetterboxInBreaks: 1

[Editor]
DistanceSpacing: 1.2
BeatDivisor: 4
GridSize: 8

[Metadata]
Title:climax whistle
Artist:Sphere
Creator:Kuttari
Version:Insane
Source:
Tags:toyosaki aki takagaki ayahi tomatsu haruka kotobuki minako

[Difficulty]
HPDrainRate:8
CircleSize:5
OverallDifficulty:7
ApproachRate:8
SliderMultiplier:1.4
SliderTickRate:2

[Events]
//Background and Video events
0,0,"tumblr_l2t0tfARob1qa2kt3o1_1280[1].jpg"
//Break Periods
2,8698,15884
2,77851,85036
2,147003,168426
//Storyboard Layer 0 (Background)
//Storyboard Layer 1 (Fail)
//Storyboard Layer 2 (Pass)
//Storyboard Layer 3 (Foreground)
//Storyboard Sound Samples
//Background Colour Transformations
3,100,163,162,255

[TimingPoints]
4431,508.474576271186,4,2,0,70,1,0
7481,-66.6666666666667,4,2,0,70,0,0

[HitObjects]
256,312,4431,1,0
256,144,4940,1,0
104,208,5448,1,0
256,144,5956,1,0
256,312,6465,1,0
120,208,6973,1,0
120,120,7228,1,0
248,120,7482,1,0
376,120,7736,2,0,B|488:120|488:120,1,104.999996870756,0|8
480,248,8244,1,8
480,120,8498,1,8
64,80,16634,5,0
192,80,16889,1,0
320,80,17143,1,0
448,80,17397,2,0,B|448:16,2,52.4999984353781
448,208,17906,1,0
448,336,18160,1,0
448,208,18414,1,0
336,264,18668,5,0
288,264,18795,1,0
240,264,18923,1,0
192,264,19050,1,0
144,264,19177,1,0
88,152,19430,2,0,B|88:96,2,52.4999984353781
192,80,19939,1,0
320,88,20194,5,0
320,136,20321,1,0
320,184,20448,1,0
408,88,20702,1,8
408,88,20956,1,8
320,304,21210,5,0
320,256,21338,1,0
320,208,21465,1,0
320,80,21719,1,0
192,80,21973,2,8,B|152:24|88:88|88:88,1,104.999996870756
96,208,22482,5,0
96,336,22736,1,0
224,336,22990,1,0
224,208,23245,1,0
96,208,23499,1,0
440,56,24261,1,4
408,304,24770,5,0
408,256,24897,1,0
408,208,25024,1,0
408,80,25278,1,0
360,80,25406,1,0
312,80,25533,1,0
264,80,25660,1,0
216,80,25786,1,0
88,80,26041,6,0,B|24:80,2,52.4999984353781
88,208,26550,1,0
176,296,26804,2,0,B|240:296,2,52.4999984353781
248,192,27312,1,0
312,80,27567,1,0
312,80,27821,1,0
312,80,28075,2,0,B|424:256|424:256,1,209.999993741512
256,192,29092,12,0,32397
96,64,32906,5,0
416,64,33160,1,0
416,320,33414,1,0
96,320,33668,1,0
96,64,33923,1,0
416,64,34177,1,0
416,320,34431,1,0
128,288,34685,5,0
128,96,34939,1,0
384,96,35194,1,0
384,288,35448,1,0
128,288,35702,1,0
128,96,35956,1,0
384,96,36211,1,0
384,288,36465,1,0
160,256,36719,5,0
160,128,36973,1,0
352,128,37228,1,0
352,256,37482,1,0
160,256,37736,1,0
160,128,37990,1,0
352,128,38245,1,0
352,256,38499,1,0
256,192,38753,5,0
336,96,39007,1,0
288,96,39134,1,0
96,96,39516,1,0
48,96,39643,1,0
160,248,40024,1,0
160,248,40151,1,0
160,248,40278,2,0,B|176:296|224:328|272:328|272:328|272:328|272:328,1,104.999996870756,0|0
384,120,41041,5,0
336,120,41168,1,0
288,120,41295,1,0
160,120,41550,1,8
160,120,41804,1,8
160,248,42058,5,0
208,248,42185,1,0
256,248,42312,1,0
384,248,42567,1,8
384,248,42821,1,8
280,320,43075,5,0
232,320,43202,1,0
184,320,43329,1,0
56,320,43584,1,8
56,320,43838,1,8
56,192,44092,5,0
56,64,44346,1,8
56,64,44473,1,8
248,48,44855,1,0
272,88,44982,1,0
296,128,45109,1,0
64,272,45617,5,0
64,96,45872,1,0
256,320,46126,1,0
256,48,46380,1,0
448,272,46634,1,0
448,96,46889,1,0
256,192,47143,1,0
256,192,49177,5,4
424,40,50194,1,2
128,40,50702,1,2
400,144,51211,1,2
400,144,51465,1,2
304,64,51719,1,2
224,160,51973,1,2
144,256,52227,1,2
392,200,52736,5,2
392,152,52863,1,2
392,104,52990,1,2
272,64,53245,1,2
224,64,53372,1,2
176,64,53498,1,2
128,184,53753,1,2
128,232,53880,1,2
128,280,54007,1,2
256,304,54262,1,2
256,304,54388,1,2
256,304,54515,2,2,B|368:208|368:208,1,104.999996870756,2|8
120,104,55278,5,0
168,104,55406,1,0
216,104,55533,1,0
264,104,55660,1,0
312,104,55787,1,0
416,176,56041,1,8
296,224,56295,5,0
248,224,56423,1,0
200,224,56550,1,0
152,224,56677,1,0
104,224,56804,1,0
224,184,57058,1,8
136,272,57312,6,0,B|184:208|136:176|72:128|136:112|136:48|136:48,1,209.999993741512,0|8
88,336,58329,1,8
168,176,58584,1,8
256,296,58838,1,8
344,176,59092,1,8
424,304,59346,1,8
304,224,59601,5,0
400,112,59855,1,0
400,112,59982,1,0
400,112,60109,1,0
272,184,60363,1,8
344,56,60617,1,8
200,56,60872,5,0
152,56,60999,1,0
104,56,61126,1,0
48,192,61380,1,8
192,152,61634,1,0
192,200,61762,1,0
192,248,61889,1,8
336,208,62143,1,8
336,160,62270,1,0
336,112,62397,1,8
48,64,62906,5,2
192,64,63160,1,2
336,64,63414,1,2
192,64,63668,1,2
48,64,63923,1,2
48,64,64177,1,2
192,64,64431,1,2
336,64,64685,1,2
416,184,64939,1,2
328,304,65194,1,2
328,304,65320,1,2
328,304,65447,2,2,B|272:208|192:224|136:384|144:224|144:224,1,209.999993741512
224,160,66465,5,2
288,160,66719,1,2
288,224,66973,1,2
224,224,67228,1,2
224,160,67482,1,2
288,160,67736,1,2
288,224,67990,1,2
176,272,68245,5,2
176,112,68499,1,2
336,112,68753,1,2
336,272,69007,1,2
176,272,69262,1,2
176,112,69516,1,2
336,112,69770,1,2
336,272,70024,1,2
128,320,70278,5,2
128,64,70533,1,2
384,64,70787,1,2
384,320,71041,1,2
128,320,71295,1,2
128,64,71550,1,2
384,64,71804,1,2
384,320,72058,1,2
256,192,72312,5,8
256,192,72567,1,8
64,64,73584,6,8,B|64:176|64:176,1,104.999996870756
256,176,74092,2,8,B|256:48|256:48,1,104.999996870756
448,64,74601,2,8,B|448:192|448:192,1,104.999996870756
256,176,75109,1,8
120,48,75363,1,8
112,240,75617,2,8,B|112:112,1,104.999996870756
304,136,76126,2,8,B|304:264|304:264,1,104.999996870756
128,304,76634,2,8,B|128:176|128:176,1,104.999996870756
304,128,77143,1,8
144,32,77397,1,8
144,224,77651,1,8
176,80,85786,6,0,B|144:48|112:48|72:88,2,104.999996870756
256,176,86549,1,0
344,80,86803,2,0,B|376:48|408:48|456:104,2,104.999996870756
256,176,87566,1,0
144,224,87820,2,0,B|112:264|80:256|40:208,2,104.999996870756
256,176,88583,1,0
256,176,88710,1,4
448,272,89346,5,0
448,224,89473,1,0
448,176,89600,1,0
408,56,89854,2,0,B|352:56,2,52.4999984353781
280,56,90363,1,0
280,104,90490,1,0
280,152,90617,1,0
280,200,90744,1,0
280,248,90871,2,0,B|280:304,3,52.4999984353781
256,56,91888,5,8
120,192,92142,1,8
256,320,92397,1,8
392,192,92651,1,8
256,192,93414,1,4
336,112,93922,2,0,B|336:64|368:40|432:56,2,104.999996870756
208,112,94685,1,0
208,112,94812,1,0
208,304,95193,1,0
208,304,95447,2,0,B|208:352|240:376|304:360,2,104.999996870756
208,176,96210,1,0
208,176,96464,2,0,B|208:128|176:104|112:120,2,104.999996870756
320,112,97227,1,0
320,112,97354,1,0
256,192,97990,12,0,101549
48,192,102058,5,0
136,344,102312,1,0
224,192,102566,1,0
312,344,102820,1,0
392,192,103075,1,0
480,344,103329,1,0
392,192,103583,5,0
312,344,103837,1,0
224,192,104092,1,0
136,344,104346,1,0
48,192,104600,1,0
136,40,104854,1,0
224,192,105108,1,0
312,40,105362,1,0
392,192,105617,1,0
480,40,105871,1,0
392,192,106125,5,0
312,40,106379,1,0
224,192,106634,1,0
136,40,106888,1,0
48,192,107142,1,0
136,344,107397,1,0
224,192,107651,1,0
312,344,107905,1,0
384,192,108159,2,0,B|440:136|384:72,2,104.999996870756
256,192,108922,1,0
128,192,109176,2,0,B|72:136|128:72,2,104.999996870756
368,264,110193,6,0,B|312:320|248:264,2,104.999996870756
272,280,110956,1,0
376,200,111210,2,0,B|432:256|376:320,2,104.999996870756
392,296,111973,1,0
376,168,112227,2,0,B|320:112|376:48,2,104.999996870756
360,72,112990,1,0
232,72,113244,2,0,B|200:72|168:72|168:72,4,52.4999984353781
256,192,114261,5,0
256,192,114769,1,0
456,40,115278,2,4,B|416:88|376:136|376:136|376:136,1,104.999996870756
264,144,115786,2,4,B|224:192|184:240|184:240|184:240,1,104.999996870756
72,216,116295,1,4
256,192,118329,5,4
256,192,118837,1,8
256,192,119346,1,8
256,48,119854,1,8
256,48,120363,1,8
256,344,120871,1,8
368,248,121125,1,8
360,104,121380,1,8
88,208,121888,2,8,B|88:280|168:304|168:304,1,104.999996870756
168,144,122397,2,8,B|168:216|248:240|248:240,1,104.999996870756
248,80,122905,2,8,B|248:152|328:176|328:176,1,104.999996870756
376,160,123286,1,8
376,160,123414,2,8,B|336:200|224:192|272:280|320:312|320:312,1,209.999993741512
72,144,124430,6,8,B|160:72|160:72,1,104.999996870756
296,56,124939,2,8,B|336:112|416:96|416:96,1,104.999996870756
432,240,125447,2,8,B|360:320|360:320,1,104.999996870756
216,288,125956,2,8,B|280:336|336:272|336:272,1,104.999996870756
384,160,126464,2,8,B|376:104|344:48|208:72|208:72,1,209.999993741512
256,344,127736,1,8
360,240,127990,1,8
408,104,128244,1,8
272,40,128498,2,8,B|256:112|176:104|176:104,1,104.999996870756
48,112,129007,1,8
168,192,129261,1,8
200,336,129515,1,8
296,56,130024,6,8,B|384:128|384:128,1,104.999996870756
456,248,130533,2,8,B|456:320|376:344|376:344,1,104.999996870756
256,304,131041,2,8,B|192:352|136:288|136:288,1,104.999996870756
144,160,131550,2,8,B|72:80|72:80,1,104.999996870756
208,144,132058,2,8,B|216:88|248:32|384:56|384:56,1,209.999993741512
136,232,133075,1,8
424,200,133583,2,8,B|424:128|344:104|344:104,1,104.999996870756
304,248,134092,2,8,B|304:176|224:152|224:152,1,104.999996870756
176,296,134600,2,8,B|176:224|96:200|96:200,1,104.999996870756
72,160,134981,1,8
72,160,135108,2,8,B|128:112|176:160|176:160,1,104.999996870756
256,192,135617,5,2
256,192,135871,1,2
256,192,136125,1,2
464,192,136634,1,2
464,192,136888,1,2
464,192,137142,1,2
256,336,137651,1,2
256,336,137905,1,2
256,336,138159,1,2
128,264,138414,1,2
56,136,138668,2,2,B|80:216|200:128|208:264,2,209.999993741512,6|0|6
304,304,140193,6,0,B|376:288|384:240|384:240,1,104.999996870756
304,120,140702,1,2
192,208,140956,1,2
304,304,141210,1,2
416,208,141464,1,2
304,120,141719,1,2
448,320,142736,6,8,B|448:208|448:208,1,104.999996870756
256,208,143244,2,8,B|256:336|256:336,1,104.999996870756
64,320,143753,2,8,B|64:192|64:192,1,104.999996870756
256,208,144261,1,8
392,336,144515,1,8
400,144,144769,2,8,B|400:272,1,104.999996870756
208,248,145278,2,8,B|208:120|208:120,1,104.999996870756
384,80,145786,2,8,B|384:208|384:208,1,104.999996870756
208,256,146295,1,8
368,352,146549,1,8
368,160,146803,1,8
256,192,169176,12,0,173244
128,64,174769,6,8,B|56:72|64:160|64:160,1,104.999996870756
104,280,175278,2,8,B|136:344|208:336,1,104.999996870756
328,296,175786,1,8
328,296,175914,1,8
328,296,176041,1,8
432,200,176295,1,8
432,200,176422,2,8,B|512:136|440:40|440:40,1,157.499995306134
304,56,177058,1,8
160,64,177312,2,8,B|120:168|120:168,1,104.999996870756
40,280,177820,2,8,B|144:336|144:336,1,104.999996870756
224,216,178329,2,8,B|328:272|328:272,1,104.999996870756
432,176,178837,2,8,B|328:120|328:120,1,104.999996870756
192,120,179346,1,8
192,120,179473,1,8
192,120,179600,2,8,B|144:96|88:64|88:64,1,104.999996870756,8|8
80,216,180108,5,8
192,312,180363,1,8
304,216,180617,1,8
192,120,180871,1,8
304,32,181125,1,8
424,120,181380,1,8
424,120,181507,1,8
424,120,181634,2,8,B|456:184|392:232|392:232,1,104.999996870756
272,272,182142,1,8
152,360,182397,1,8
272,96,182905,6,8,B|184:24,2,104.999996870756
392,184,183668,1,8
272,272,183922,2,8,B|184:200,2,104.999996870756
336,304,184558,1,8
360,312,184685,2,8,B|392:264|416:224|400:216|384:208|344:192|296:176|240:160|240:104|240:80|240:80,1,314.999990612269
16,272,185956,5,8
136,192,186210,1,8
264,112,186464,2,8,B|336:104|360:176|360:176,1,104.999996870756
360,304,186973,2,8,B|296:344|248:256|248:256,1,104.999996870756
184,160,187481,1,8
184,160,187608,1,8
184,160,187736,2,8,B|208:104|232:48|232:48,1,104.999996870756
368,104,188244,5,8
424,240,188498,1,8
288,304,188753,2,8,B|208:296|200:216|200:216,1,104.999996870756
112,136,189261,1,8
240,64,189515,2,8,B|272:144|360:104|360:104,1,104.999996870756
360,256,190024,1,8
248,168,190278,1,8
376,96,190532,1,8
400,240,190786,2,8,B|352:216|352:216,2,52.4999984353781
272,320,191295,1,8
128,280,191549,1,8
168,136,191803,2,8,B|104:160|104:224|104:224,1,104.999996870756
216,120,192312,1,8
216,120,192439,1,8
216,120,192566,2,8,B|296:104|304:176|304:256|432:160|432:160,1,209.999993741512
112,96,193583,5,8
176,296,193837,1,8
288,120,194092,1,8
352,320,194346,1,8
480,160,194600,2,8,B|440:264|440:264,4,104.999996870756
224,16,196125,5,4
320,296,196634,1,0
224,16,197142,1,4
448,208,197651,2,8,B|448:264|448:320|448:320,1,104.999996870756
448,168,198159,2,8,B|312:88|312:88,1,157.499995306134
88,96,199176,5,0
88,144,199303,1,0
88,192,199430,1,0
88,240,199558,1,0
88,288,199685,1,0
200,192,199939,1,8
312,288,200193,1,8
312,288,200320,1,8
312,288,200447,2,8,B|400:264|264:192|280:96|456:64|456:64,1,314.999990612269
328,144,201464,5,8
208,56,201719,2,8,B|200:128|104:120|104:120,1,104.999996870756
88,248,202227,2,8,B|168:248|176:320|176:320,1,104.999996870756
312,264,202736,2,8,B|304:184|400:192,1,104.999996870756
296,64,203244,2,8,B|304:128|208:128|208:128,1,104.999996870756
96,88,203753,1,8
96,88,203880,1,8
96,88,204007,2,8,B|72:136|48:184|48:184,3,104.999996870756
160,88,205024,5,8
296,144,205278,1,8
432,88,205532,1,8
360,216,205786,1,8
432,344,206041,1,8
296,296,206295,2,8,B|216:312|192:248,1,104.999996870756
201,269,206676,1,8
104,64,207058,5,8
248,104,207312,2,8,B|256:168|168:184|168:184,1,104.999996870756
104,304,207820,2,8,B|128:224|200:256|200:256,1,104.999996870756
328,200,208329,1,8
328,200,208456,1,8
328,200,208583,2,8,B|248:216|240:112|248:40|56:128|72:32|72:32,1,314.999990612269
200,104,209600,5,8
88,192,209854,1,8
200,288,210108,1,8
88,192,210363,1,8
200,104,210617,1,8
336,48,210871,1,8
336,96,210998,1,0
336,144,211125,1,8
336,192,211253,1,0
336,240,211380,2,8,B|440:240|440:240,2,104.999996870756
56,192,212397,5,2
192,64,212651,1,2
384,48,212905,2,2,B|312:48|320:144,1,104.999996870756
136,176,213414,2,2,B|120:256|200:264,1,104.999996870756
344,312,213922,1,2
448,152,214176,1,2
304,272,214430,1,2
408,112,214685,1,2
264,232,214939,1,2
368,72,215193,1,2
176,64,215447,5,2
176,64,215575,1,2
176,64,215702,1,2
72,216,215956,2,2,B|80:296|160:304|160:304,1,104.999996870756
336,288,216464,1,2
360,248,216592,1,0
384,208,216719,1,2
408,168,216846,1,0
432,128,216973,2,2,B|392:88|392:40|320:40|304:40|288:40|264:40|232:40|232:40,1,209.999993741512
256,192,217990,5,2
464,192,218244,1,2
320,40,218498,1,2
368,248,218753,1,2
208,112,219007,1,2
416,112,219261,1,2
232,208,219515,1,2
232,208,219642,1,2
232,208,219769,2,2,B|176:208|128:208|128:208,1,104.999996870756
160,72,220532,6,8,B|232:152|232:152,1,104.999996870756
360,80,221041,2,8,B|280:152|280:152,1,104.999996870756
352,280,221549,2,8,B|280:200|280:200,1,104.999996870756
152,272,222058,2,8,B|232:200|232:200,1,104.999996870756
256,56,222566,2,8,B|256:160|256:160,1,104.999996870756
256,312,223075,2,8,B|256:192|256:192,1,104.999996870756
112,192,223583,2,8,B|216:192|216:192,1,104.999996870756
368,192,224092,1,8
368,192,224346,6,8,B|312:192|312:192,1,52.4999984353781
128,192,224727,2,8,B|184:192|184:192,1,52.4999984353781
368,192,225108,2,8,B|368:112|288:112|288:112,1,104.999996870756
136,40,225617,1,8
320,160,225871,1,8
136,192,226125,1,8
136,192,226379,2,8,B|192:192|192:192,1,52.4999984353781
376,192,226760,2,8,B|320:192|320:192,1,52.4999984353781
136,192,227141,2,8,B|136:112|216:112|216:112,1,104.999996870756
368,40,227650,1,8
184,160,227904,1,8
184,160,228032,1,8
184,160,228159,1,8
256,192,228414,12,4,231083
