osu file format v9

[General]
AudioFilename: 12 .mp3
AudioLeadIn: 0
PreviewTime: -1
Countdown: 0
SampleSet: Soft
StackLeniency: 0.7
Mode: 0
LetterboxInBreaks: 1

[Editor]
DistanceSpacing: 1.4
BeatDivisor: 4
GridSize: 8

[Metadata]
Title:climax whistle
Artist:Sphere
Creator:Kuttari
Version:Hard
Source:
Tags:toyosaki aki takagaki ayahi tomatsu haruka kotobuki minako

[Difficulty]
HPDrainRate:6
CircleSize:4
OverallDifficulty:7
ApproachRate:7
SliderMultiplier:1.4
SliderTickRate:1

[Events]
//Background and Video events
0,0,"tumblr_l2t0tfARob1qa2kt3o1_1280[1].jpg"
//Break Periods
2,8698,15733
2,77850,84886
2,147003,168276
//Storyboard Layer 0 (Background)
//Storyboard Layer 1 (Fail)
//Storyboard Layer 2 (Pass)
//Storyboard Layer 3 (Foreground)
//Storyboard Sound Samples
//Background Colour Transformations
3,100,163,162,255

[TimingPoints]
4431,508.474576271186,4,2,0,70,1,0
6096,-100,4,2,0,70,0,0

[HitObjects]
256,192,4431,1,0
256,192,4939,1,0
256,56,5447,1,0
256,192,5955,1,0
256,336,6464,1,0
376,256,6972,1,0
376,112,7481,1,0
376,112,7735,1,0
304,112,7990,2,8,B|280:152|304:184|304:184,1,70
232,176,8498,1,8
256,64,16633,5,0
184,64,16888,1,0
112,64,17142,1,0
136,200,17650,1,0
208,200,17905,1,0
280,200,18159,1,0
416,200,18667,2,0,B|416:280,2,70
384,136,19430,2,0,B|384:40|384:40,1,70,0|4
240,64,20193,5,0
168,64,20447,1,0
96,64,20701,1,0
224,120,21210,5,0
224,192,21464,1,0
224,264,21718,1,0
224,336,21972,1,0
32,224,22481,5,8
88,160,22735,1,8
152,104,22989,1,8
224,64,23244,1,8
296,64,23498,2,0,B|312:152|440:120|424:192|448:216|448:216,1,210,8|4
312,256,24769,6,0,B|184:320|184:320,1,140
184,248,25532,1,0
256,248,25786,1,0
256,176,26041,1,0
184,176,26294,2,0,B|296:80|296:80,1,140
360,88,27057,1,0
360,160,27311,1,0
432,160,27566,1,0
432,232,27820,2,0,B|336:344|336:344,1,140
256,192,28837,12,4,32396
64,176,32905,6,2,B|64:96,4,70
64,248,34176,1,8
64,320,34430,1,8
192,256,34938,6,2,B|192:336,4,70
192,184,36210,1,8
192,112,36464,1,8
328,72,36972,5,0
328,72,37227,1,0
328,72,37481,1,0
448,144,37989,1,0
448,216,38244,1,0
376,216,38498,1,0
376,288,38752,1,0
304,288,39006,1,8
232,288,39261,2,0,B|184:240|200:192|184:112|232:96,1,210,0|6
368,96,40532,1,8
232,88,41040,5,0
232,88,41294,1,0
232,88,41549,1,0
304,88,41803,2,0,B|400:88|400:88,1,70
376,160,42311,2,0,B|232:160|232:160,1,140
288,208,43074,5,0
288,208,43328,1,0
288,208,43583,1,0
336,264,43837,2,0,B|256:264|256:264,1,70
224,208,44345,2,0,B|144:208|144:208,1,70
136,144,44854,1,0
136,72,45108,1,0
264,320,46125,2,0,B|336:288|336:288,1,70
368,232,46634,2,0,B|328:168|328:168,1,70
352,80,47142,1,6
256,192,49176,5,4
424,88,49684,6,8,B|344:88|344:88,1,70,8|8
256,64,50193,2,8,B|256:144|256:144,1,70
336,184,50701,2,8,B|416:184|416:184,1,70
304,184,51210,2,8,B|304:72|304:104|304:104,1,70
400,112,51718,5,8
304,112,51973,1,8
208,112,52227,1,8
72,256,52735,2,8,B|72:336|72:336|56:336,1,70
168,336,53244,2,8,B|240:280,1,70
320,288,53752,1,8
368,288,53879,1,8
400,192,54133,2,8,B|352:144|304:144|272:160|224:192|224:192,1,175
96,48,55277,6,8,B|16:48|16:48,1,70
80,128,55786,1,8
80,224,56040,1,8
112,320,56294,2,8,B|192:320|192:320,1,70
272,288,56803,1,8
344,224,57057,1,8
416,152,57311,2,8,B|280:96|280:96,1,140
72,296,58583,5,8
136,224,58837,1,8
200,152,59091,1,8
272,80,59345,1,8
136,224,59854,2,8,B|248:144|248:144,1,105
464,112,60871,2,8,B|384:48|384:48,1,70
312,64,61379,2,8,B|216:64|216:64,1,70
312,136,61888,2,8,B|272:144|280:216|280:216|280:216,1,70
280,192,62269,1,8
280,192,62397,1,8
96,256,62905,5,8
192,256,63159,1,8
288,256,63413,1,8
480,232,63922,2,8,B|480:312,2,70
456,136,64684,1,8
360,136,64938,1,8
392,48,65193,1,8
296,48,65447,2,8,B|168:112|168:112,1,140
56,56,66464,5,8
56,152,66718,1,8
56,56,66972,1,8
184,208,67481,1,8
184,112,67735,1,8
184,208,67989,1,8
280,208,68244,2,8,B|312:128|312:128,1,70
480,64,69006,5,8
400,120,69261,1,8
312,168,69515,1,8
400,216,69769,1,8
400,312,70023,2,8,B|368:184|272:312|224:184|256:104|256:104,1,280
448,64,71549,5,8
352,64,71803,1,8
256,64,72057,1,8
256,64,72311,1,8
256,160,72566,1,8
320,128,73583,6,8,B|384:64|384:64,1,70
272,176,74091,2,8,B|208:240|208:240,1,70
208,88,74600,2,8,B|144:24|144:24,1,70
256,136,75108,2,8,B|320:200|320:200,1,70
392,80,75616,5,8
360,80,75744,1,8
328,80,75871,1,8
192,80,76125,1,8
192,112,76252,1,8
192,144,76380,1,8
192,280,76633,2,8,B|272:280|272:280,1,70
392,336,77142,1,8
456,208,77396,1,8
320,208,77650,1,8
64,64,85786,6,0,B|160:64|160:64,1,70
200,64,86294,1,0
272,64,86549,1,0
344,64,86803,1,0
344,136,87057,1,0
272,136,87311,1,0
272,208,87566,1,0
272,280,87820,2,0,B|176:280|176:280,1,70
136,280,88328,2,0,B|232:280|232:280,1,70
280,280,88837,1,4
264,144,89345,5,0
304,88,89600,1,0
368,64,89854,1,0
424,104,90108,1,0
424,176,90362,1,0
352,176,90616,1,0
352,248,90871,1,0
280,248,91125,2,0,B|240:280|208:248|208:248,1,70
256,120,91633,5,0
112,128,91888,1,0
184,248,92142,1,0
320,248,92396,1,0
192,184,92650,1,0
256,192,93413,5,4
64,64,93922,5,0
64,64,94176,1,0
136,64,94430,1,0
208,64,94684,1,0
240,64,94811,1,0
344,64,95193,5,0
344,136,95447,1,0
344,208,95701,1,0
344,280,95955,1,0
416,280,96210,1,0
344,280,96464,1,0
272,280,96718,2,0,B|208:200|208:200,1,70
120,136,97481,5,0
120,136,97735,6,0,B|200:136,1,70
264,136,98244,1,0
336,136,98498,1,0
336,64,98752,1,0
336,64,99006,5,0
264,64,99261,1,0
192,64,99515,1,0
120,64,99769,1,0
120,136,100023,6,4,B|120:216|120:216,1,70
192,208,100532,2,4,B|192:128|192:128,1,70
192,208,101040,1,4
400,64,102057,6,2,B|480:64,2,70
328,64,102820,1,0
256,64,103074,1,0
184,64,103328,2,2,B|104:64,2,70
256,64,104091,1,0
256,136,104345,1,0
328,136,104600,2,2,B|424:136,2,70
256,136,105362,5,0
184,136,105616,1,0
184,208,105871,1,0
184,280,106125,2,2,B|88:280,2,70
256,280,106888,1,0
256,208,107142,1,0
328,208,107396,2,2,B|408:208,2,70
328,136,108159,2,0,B|288:72|288:72,1,70
232,40,108668,2,0,B|168:72|168:72,1,70
104,56,109176,1,0
392,64,110193,2,2,B|392:160,4,70
320,64,111464,1,0
248,64,111718,1,0
416,192,112227,1,0
416,192,112481,5,0
336,136,112735,1,0
240,136,112989,1,0
160,192,113244,1,0
160,192,113498,2,0,B|160:272|160:272,1,70
304,232,114006,2,0,B|400:232|400:232,1,70
136,80,115277,6,8,B|56:80|56:80,1,70
64,152,115786,2,8,B|64:232|64:232,1,70
64,288,116294,1,4
256,192,118328,5,4
176,48,118837,2,8,B|80:48|80:48,1,70
168,128,119345,2,8,B|248:128|248:128,1,70
184,208,119854,2,8,B|104:208|104:208,1,70
176,288,120362,2,8,B|272:288|272:288,1,70
344,280,120871,1,8
400,240,121125,1,8
448,192,121380,1,8
216,176,121887,5,8
312,176,122142,1,8
408,176,122396,1,8
408,272,122650,1,8
320,280,122905,2,8,B|256:320|256:320,1,70
320,240,123413,2,8,B|294:240|256:176|224:208|198:240|198:240,1,140
392,240,124430,6,8,B|296:240|296:240,1,70
240,296,124938,2,8,B|160:296|160:296,1,70
96,232,125447,2,8,B|16:232|16:232,1,70
64,144,125955,2,8,B|144:144|144:144,1,70
232,144,126464,1,8
264,144,126591,1,8
296,144,126719,1,8
392,144,126972,1,8
168,264,127735,5,8
168,168,127989,1,8
256,120,128244,1,8
256,216,128498,1,8
344,168,128752,1,8
344,168,129006,1,8
296,88,129261,1,8
216,32,129515,1,8
256,224,130023,2,8,B|336:224|336:224,1,70
368,312,130532,2,8,B|448:312|448:312,1,70
440,216,131040,2,8,B|384:160|384:160,1,70
392,168,131422,1,8
390,166,131549,1,8
208,240,132057,6,8,B|208:160|208:160,1,70
152,88,132566,1,8
344,56,133074,2,8,B|344:136|344:136,1,70
360,224,133583,1,8
368,320,133837,2,2,B|408:320|408:320,1,35
448,320,134091,2,2,B|416:272|496:208|448:192|448:160|448:160,1,140
280,96,135108,5,8
248,192,135362,1,8
280,280,135616,1,8
472,296,136125,1,8
496,200,136379,1,8
456,112,136633,1,8
368,72,136888,2,8,B|288:104|288:104,1,70
104,96,137650,5,8
96,192,137905,1,8
152,272,138159,1,8
248,280,138413,1,8
344,280,138667,2,12,B|376:152|472:280|520:152|488:72|488:72,1,280,8|8
320,176,140193,2,8,B|272:192|288:240|288:240,1,70
360,296,140701,5,8
248,296,140955,1,8
136,296,141209,1,8
136,296,141463,1,8
248,168,141718,1,8
128,80,142736,6,8,B|80:128|112:160|112:160|112:160,1,70
96,280,143244,1,8
232,280,143498,1,8
376,280,143753,2,8,B|376:248|376:216|376:184,1,70
376,72,144261,1,8
376,208,144515,1,8
256,280,144769,2,8,B|288:280|336:280,1,70
464,280,145278,1,8
464,144,145532,1,8
360,48,145786,2,8,B|312:48|280:48|280:48,1,70
152,48,146295,1,8
256,144,146549,1,8
360,48,146803,1,8
256,192,169176,12,0,172227
256,192,173244,5,4
368,64,174769,2,8,B|448:64,2,70
272,64,175532,1,8
176,64,175786,1,8
144,64,175914,1,8
112,64,176041,1,8
120,160,176295,2,8,B|240:248|240:248,1,140
416,304,177312,6,8,B|416:232|416:232,1,70
416,136,177820,1,8
416,232,178075,1,8
320,232,178329,1,8
320,136,178583,1,8
320,40,178837,1,8
240,96,179092,1,8
248,192,179346,2,8,B|240:240|136:184|120:224,1,140
320,240,180363,5,8
280,152,180617,1,8
232,64,180871,1,8
152,0,181125,1,8
80,64,181380,1,8
104,160,181634,2,8,B|16:160,1,70
128,160,182142,1,8
224,160,182397,1,8
400,240,182905,2,8,B|400:320,2,70
400,144,183668,2,8,B|400:56,2,70
400,240,184430,2,8,B|368:360|288:88|304:320|240:120|224:288|144:240|144:240,1,280
48,80,185956,5,8
144,80,186210,1,8
240,80,186464,2,8,B|320:80|320:80,1,70
408,80,186973,1,8
488,136,187227,1,8
448,224,187481,2,8,B|440:256|440:304|400:296|376:320|336:312|336:312,1,140
160,288,188498,5,8
96,216,188752,1,8
144,128,189006,1,8
240,296,189515,1,8
288,216,189769,1,8
336,136,190023,1,8
432,136,190278,2,8,B|400:56|400:56,1,70
208,88,191040,5,8
112,88,191295,1,8
112,184,191549,1,8
112,184,191803,1,8
112,184,192057,2,8,B|240:216|112:312|240:360|320:328|320:328,1,280
352,136,193583,2,8,B|336:88|288:104|288:104,1,70
144,304,194091,5,8
144,192,194345,1,8
144,80,194599,1,8
144,80,194853,1,8
256,192,195108,1,8
112,192,195617,1,8
336,192,196125,2,8,B|408:192,1,70
256,120,196634,2,8,B|256:48,1,70
256,264,197142,2,8,B|256:352|256:352,1,70
184,192,197651,2,8,B|88:192|88:192,1,70
336,192,198159,1,8
240,192,198414,1,8
144,192,198668,1,8
184,328,199176,6,8,B|224:368|264:312|264:312,1,70
344,328,199685,1,8
344,232,199939,1,8
344,136,200193,1,8
344,40,200447,1,8
248,40,200702,2,8,B|208:40|168:40|120:40|144:128|144:128,1,140,8|8
272,240,201719,5,8
240,240,201846,2,8,B|200:240|200:240,1,35
104,240,202227,1,8
104,144,202481,1,8
104,48,202736,1,8
192,88,202990,1,8
192,184,203244,1,8
272,136,203498,1,8
360,88,203753,2,8,B|352:104|344:104|328:104|320:104|312:104|296:96|288:64|368:48,1,140
176,88,204769,5,8
272,96,205024,1,8
248,144,205278,1,8
224,192,205532,1,8
184,232,205786,1,8
136,256,206041,1,8
200,328,206295,1,8
136,256,206549,1,8
112,160,206803,1,8
384,192,207312,6,8,B|384:264|384:264,1,70
384,192,207820,2,8,B|424:264|424:264,1,70
384,192,208329,2,8,B|456:240|456:240,1,70
442,230,208710,1,8
442,230,208837,1,8
304,96,209346,6,8,B|376:96,2,70
208,72,210108,1,8
224,128,210362,1,8
256,176,210616,1,8
296,216,210870,1,8
344,240,211125,1,8
288,320,211380,1,8
344,240,211634,1,8
344,240,211888,1,8
80,64,212651,5,8
80,96,212905,1,8
80,128,213414,1,8
208,272,213922,1,8
240,272,214176,1,8
272,272,214430,1,8
312,272,214685,1,8
344,272,214939,1,8
344,80,215447,2,8,B|344:152,2,70
352,176,216210,1,8
352,272,216464,1,8
352,272,216592,1,8
352,272,216719,2,8,B|320:272|304:344|272:272|224:208|200:272|240:328|128:280|128:280,1,210
144,288,217990,6,8,B|200:240|200:240,1,70
368,288,218498,6,8,B|312:240|312:240,1,70
160,80,219007,6,8,B|208:136|208:136,1,70
368,96,219515,6,8,B|312:144|312:144,1,70
88,224,220024,6,8,B|176:256|176:256,1,70
88,224,220532,2,8,B|176:208|176:208,1,70,8|8
88,224,221041,2,8,B|152:176|152:176,1,70
88,224,221549,2,8,B|128:144|128:144,1,70
424,224,222058,6,8,B|336:256|336:256,1,70
424,224,222566,2,8,B|336:208|336:208,1,70,8|8
424,224,223075,2,8,B|360:176|360:176,1,70
424,224,223583,2,8,B|384:144|384:144,1,70
392,161,224092,1,8
336,80,224346,5,8
312,80,224473,1,8
176,80,224727,1,8
176,104,224854,1,8
176,240,225108,2,8,B|104:240,1,70
216,160,225617,1,8
216,296,225871,1,8
216,296,226125,1,8
352,296,226379,1,8
352,264,226507,1,8
352,128,226761,1,8
328,128,226888,1,8
192,128,227142,2,8,B|272:128|272:128,1,70
400,128,227651,1,8
280,192,227905,1,8
344,320,228159,6,12,B|376:280|400:232|472:200|464:120|408:24|312:24|208:8|168:48|104:32|56:96|88:176|48:200|56:240|184:328|184:328,1,805,8|12
