osu file format v9

[General]
AudioFilename: 12 .mp3
AudioLeadIn: 0
PreviewTime: -1
Countdown: 0
SampleSet: Soft
StackLeniency: 0.7
Mode: 0
LetterboxInBreaks: 1

[Editor]
DistanceSpacing: 0.8
BeatDivisor: 4
GridSize: 8

[Metadata]
Title:climax whistle
Artist:Sphere
Creator:Kuttari
Version:Easy
Source:
Tags:toyosaki aki takagaki ayahi tomatsu haruka kotobuki minako

[Difficulty]
HPDrainRate:3
CircleSize:3
OverallDifficulty:3
ApproachRate:3
SliderMultiplier:1.4
SliderTickRate:1

[Events]
//Background and Video events
0,0,"tumblr_l2t0tfARob1qa2kt3o1_1280[1].jpg"
//Break Periods
2,8698,15194
2,77851,84347
2,146495,167737
//Storyboard Layer 0 (Background)
//Storyboard Layer 1 (Fail)
//Storyboard Layer 2 (Pass)
//Storyboard Layer 3 (Foreground)
//Storyboard Sound Samples
//Background Colour Transformations
3,100,163,162,255

[TimingPoints]
4431,508.474576271186,4,2,0,70,1,0
7355,-133.333333333333,4,2,0,70,0,0

[HitObjects]
432,64,4431,1,0
432,288,5448,1,0
208,288,6465,1,0
112,152,7482,1,0
192,152,7990,2,8,B|248:112|296:160|296:160,1,104.999996870756
96,80,16634,5,0
96,248,17651,1,0
256,304,18668,2,0,B|304:304|352:264|344:160|328:136|328:136|328:136,1,209.999993741512,0|4
248,120,20194,1,0
168,120,20702,1,0
120,280,21719,1,0
288,280,22736,1,0
456,280,23753,1,4
408,120,24769,6,0,B|376:64|344:120|328:176|288:80|272:208|240:120|216:120|216:120,1,209.999993741512
152,168,26295,2,0,B|176:168|160:248|232:232|288:248|336:240|376:240|408:232|400:136|440:216|432:176|432:176,1,314.999990612269,0|4
256,192,28837,12,4,32397
448,144,32906,6,2,B|448:80,6,52.4999984353781
368,144,34939,2,2,B|368:80,6,52.4999984353781,2|2|2|2|2|2|2
304,96,36973,1,8
136,96,37990,1,8
136,264,39007,2,8,B|160:264|320:280|280:256|280:240|296:336|280:144|304:240|272:232|280:256|384:264|408:264|424:264|432:264|432:264,1,314.999990612269,8|4
392,144,41295,6,2,B|360:96,5,52.4999984353781
240,104,43329,2,2,B|208:56,5,52.4999984353781
336,280,46125,2,4,B|304:280|272:312|232:328|184:312|152:280|120:272|120:272,1,209.999993741512
408,88,49176,5,4
320,88,49685,2,4,B|272:88|240:88|208:88|208:88,1,104.999996870756
72,176,51210,2,4,B|280:176|280:176,1,209.999993741512
144,80,53245,5,8
144,248,54262,1,8
312,248,55278,2,8,B|344:240|384:264|416:240|456:192|464:168|448:128|448:112|448:112,1,209.999993741512,8|8
280,144,57312,6,8,B|248:80|104:224|200:48|216:16|120:32|88:80|120:35|120:35,1,209.999993741512
152,128,58838,1,8
216,80,59346,2,8,B|251:47|282:115|323:34|351:142|380:59|424:80|424:80,1,209.999993741512
440,160,60872,2,8,B|441:215,6,52.4999984353781
320,280,63414,5,8
152,280,64431,1,8
152,112,65447,2,8,B|152:168|152:168,1,52.4999984353781
152,248,66211,2,8,B|219:248,1,52.4999984353781
288,248,66973,1,8
376,248,67482,1,8
376,168,67990,1,8
376,88,68498,1,8
208,80,69516,6,8,B|224:144|304:96|304:96|192:240|336:208|336:208|352:208,1,314.999990612269
424,72,72058,1,8
336,72,72567,1,8
360,240,73584,5,10
336,160,74092,1,10
288,224,74601,1,10
272,144,75109,1,10
224,208,75617,1,10
208,128,76126,1,10
136,168,76634,1,10
152,248,77143,2,10,B|48:224|48:224,1,104.999996870756
432,80,85787,6,0,B|432:208|432:208,1,104.999996870756
424,272,86804,2,0,B|296:272|296:272,1,104.999996870756
232,272,87821,2,4,B|232:48|232:48,1,209.999993741512,0|4
160,104,89346,6,2,B|160:40,2,52.4999984353781
160,192,90363,2,2,B|160:256,2,52.4999984353781
328,208,91889,1,8
408,208,92397,1,8
152,216,93923,6,0,B|56:216|152:104|120:88|40:104|72:104|40:104|24:88|24:88,1,209.999993741512
64,160,95448,1,0
64,240,95956,2,0,B|96:272|144:288|168:136|176:120|232:168|232:168|232:168,1,209.999993741512
368,224,97990,5,0
368,56,99007,1,0
200,56,100024,1,0
144,120,100533,1,0
88,184,101041,1,4
200,56,102058,6,2,B|200:120,6,52.4999984353781
288,56,104092,6,2,B|352:56,6,52.4999984353781
344,120,106126,5,8
344,288,107143,1,8
176,312,108160,2,4,B|16:168|16:168,1,209.999993741512,8|4
96,320,110194,6,2,B|192:240|192:240,1,104.999996870756
248,200,111211,1,2
368,320,112228,2,2,B|288:240|288:240,1,104.999996870756
208,248,113244,2,2,B|152:248|152:248,1,52.4999984353781
88,192,114007,2,2,B|136:240|144:264|136:296|88:312|72:336|72:336,1,157.499995306134
168,288,115278,2,4,B|184:320|216:320|264:352|312:336|328:304|360:288|376:288|376:288|376:288|376:288,1,209.999993741512
80,104,118329,6,4,B|144:104|160:24|208:40|272:104|272:104,1,209.999993741512
352,96,119855,1,4
456,232,120872,2,8,B|344:232|344:232,1,104.999996870756
264,232,121889,1,8
112,304,122906,2,8,B|176:256|112:224|-32:176|112:160|192:112|192:80|64:144|64:144|64:144,1,314.999990612269
240,96,125448,2,8,B|352:96|352:96,1,104.999996870756
304,168,126465,2,8,B|240:168|192:168|192:168,1,104.999996870756
40,104,127990,5,8
208,104,129007,1,8
376,104,130024,2,8,B|440:104,6,52.4999984353781
432,168,132058,5,8
376,328,133075,1,8
208,328,134092,1,8
208,240,134601,2,8,B|176:312|144:272|120:256|120:256|120:256,1,104.999996870756
96,96,136126,5,8
264,96,137143,1,8
344,96,137651,1,8
424,96,138159,1,8
424,184,138668,2,8,B|424:232|312:200|8:200|424:344|376:344|280:168|264:200|392:376|168:136|120:328|120:328,1,420
248,208,141719,1,8
416,200,142736,5,10
344,248,143244,1,10
272,296,143753,1,10
200,344,144262,1,10
152,272,144769,2,10,B|72:176|72:176,1,104.999996870756
144,128,145786,2,10,B|208:128|208:128,1,52.4999984353781
240,128,146295,1,10
256,192,169177,12,4,171210
256,192,172164,2,8,B|232:192|208:120|176:264|128:248|160:192|136:128|128:192|104:144|112:176|64:192|64:192|64:192|64:192|56:192|56:192|56:192,1,223.124993350357,4|4
312,192,174770,5,8
312,272,175278,1,8
224,272,175787,2,8,B|176:272|96:272|96:272|80:272|48:272|184:152|80:192|224:152|96:128|96:128,1,314.999990612269
264,96,178329,2,8,B|312:16|360:64|360:64,1,104.999996870756
352,144,179346,2,8,B|384:176|384:208|320:240|320:240|320:240,1,104.999996870756
424,80,180872,5,8
424,160,181380,1,8
424,248,181889,2,8,B|416:296|400:320|352:328|352:328|344:328|344:328,1,104.999996870756
296,280,182906,2,8,B|264:328|200:328|184:312|184:312,1,104.999996870756
120,304,183923,2,8,B|120:240|120:208|120:192|120:192,1,105
120,112,184939,2,8,B|120:48,10,52.4999984353781
288,112,188499,5,8
120,112,189516,1,8
120,112,190024,2,8,B|88:160|120:176|168:208|136:224|136:224,1,104.999996870756
160,288,191041,1,8
248,288,191550,1,8
328,288,192058,2,8,B|344:264|368:248|440:248|440:216|448:184|424:144|424:120|424:120,1,209.999993741512
256,192,193584,12,12,195617
256,64,196126,5,8
256,144,196634,1,8
256,232,197143,1,8
256,312,197651,1,8
416,112,199177,6,8,B|304:112|304:112,1,104.999996870756,8|8
304,192,200194,2,8,B|240:112|208:192|128:240|176:160|128:144|128:144|128:144|128:144|128:144,1,209.999993741512
48,144,201719,1,8
48,312,202736,1,8
216,312,203753,2,8,B|264:312|296:312|296:248|296:248|296:248,1,104.999996870756
464,240,205278,1,8
464,72,206295,1,8
296,72,207312,1,8
128,72,208329,2,8,B|128:200|128:200,1,104.999996870756
128,264,209346,6,8,B|192:264,6,52.4999984353781
128,96,211889,1,8
296,96,212906,2,8,B|232:144|296:176|360:208|296:240|248:272|280:304|280:304,1,209.999993741512
360,288,214431,1,8
280,288,214939,1,8
208,240,215448,2,8,B|192:224|152:232|160:192|128:184|128:160|128:160|128:160,1,104.999996870756
128,88,216465,1,8
296,88,217482,1,8
440,296,219007,1,8
440,128,220024,5,10
416,208,220533,1,10
368,136,221041,1,10
344,216,221550,1,10
296,144,222058,2,10,B|224:232|224:232,1,104.999996870756
144,224,223075,1,10
232,80,224092,5,10
304,80,224601,1,10
304,152,225109,1,10
232,152,225617,1,10
168,208,226125,2,10,B|232:304|232:304,1,104.999996870756
312,296,227143,1,10
368,232,227651,1,10
256,192,228159,12,4,231083
