osu file format v6

[General]
AudioFilename: Super Noisy Nova.mp3
AudioLeadIn: 1996
PreviewTime: -1
Countdown: 1
SampleSet: Soft
StackLeniency: 0.7
Mode: 0
LetterboxInBreaks: 1

[Editor]
DistanceSpacing: 0.800000011920929
BeatDivisor: 4
GridSize: 8

[Metadata]
Title:Super Noisy Nova
Artist:Sphere
Creator:Tes_shi
Version:Normal
Source:
Tags:

[Difficulty]
HPDrainRate:5
CircleSize:5
OverallDifficulty:5
SliderMultiplier:1.4
SliderTickRate:1

[Events]
//Background and Video events
0,0,"bg.jpg"
Video,0,"video.avi"
//Break Periods
2,7698,17952
//Storyboard Layer 0 (Background)
//Storyboard Layer 1 (Fail)
//Storyboard Layer 2 (Pass)
//Storyboard Layer 3 (Foreground)
//Storyboard Sound Samples
//Background Colour Transformations
3,100,163,162,255

[TimingPoints]
300,342.778793418647,4,2,0,100,1,0
7841,-100,4,1,0,100,0,0

[Colours]
Combo1 : 21,213,234
Combo2 : 156,204,243
Combo3 : 34,117,149
Combo4 : 251,254,199

[HitObjects]
62,73,300,1,2
64,184,642,1,2
64,296,985,1,2
404,71,1671,1,2
401,163,2013,1,2
404,270,2356,1,2
234,184,2699,1,2
234,184,2870,1,2
45,309,3556,2,0,B|241:61|464:48,1,490
256,192,5441,12,4,7498
94,130,19152,5,0
184,192,19495,1,0
88,248,19838,1,0
184,304,20181,1,0
280,240,20523,1,0
312,344,20866,1,0
408,280,21209,1,8
448,56,21895,5,0
344,104,22237,1,0
448,152,22580,1,0
344,200,22923,1,0
448,240,23266,1,0
368,312,23608,1,0
264,264,23951,1,8
72,144,24637,5,0
184,144,24980,1,0
296,144,25322,1,0
384,72,25665,2,0,B|224:72,2,140
184,176,27036,2,0,B|184:320,1,140
184,88,28065,1,4
392,88,30121,5,0
390,142,30293,1,0
373,196,30464,2,0,B|232:280,1,140
196,304,31492,1,0
131,318,31664,1,8
32,264,32007,1,8
58,67,32863,5,0
109,136,33035,1,0
184,207,33549,2,0,B|344:263,1,140
320,96,34749,5,2
320,232,35092,1,2
192,224,35434,1,2
192,96,35777,1,2
320,96,36119,5,2
320,232,36462,1,2
192,224,36805,1,2
192,96,37148,1,2
256,192,37662,12,0,38519
398,77,41090,5,2
401,251,41433,1,2
240,192,41947,2,0,B|72:192,1,140
48,88,43661,5,0
104,128,43832,1,0
48,160,44004,1,0
104,200,44175,1,0
167,166,44518,2,0,B|336:168,1,140
200,296,46575,5,0
272,208,46917,1,0
320,160,47089,1,0
361,102,47432,2,0,B|240:37|68:109,1,280
392,192,49660,1,8
96,320,50345,1,8
96,88,51031,1,8
256,192,51716,12,4,53087
192,112,53773,5,0
304,112,54116,1,0
416,112,54459,1,0
192,112,55144,1,0
192,224,55487,1,0
80,224,55830,2,8,B|184:120,2,140
248,368,57029,5,0
248,256,57372,1,0
248,200,57544,1,0
248,144,57715,1,0
248,88,57886,2,0,B|408:88,1,140
496,88,58572,1,0
496,200,58915,1,8
496,200,59086,1,8
216,200,59943,6,2,B|224:152|240:104|296:88|344:88|376:120|384:144|400:176|400:224,1,280
400,304,60971,1,0
288,304,61314,2,2,B|136:304,2,140
152,208,62514,5,8
152,208,62686,1,8
152,208,62857,1,8
264,208,63199,2,0,B|480:208,1,210
480,96,64056,1,0
368,96,64399,1,8
368,96,64571,1,8
200,96,65085,5,0
88,96,65427,2,2,B|56:128|48:160|56:200|88:232|112:216,2,140
88,216,66456,1,0
208,208,66799,2,2,B|344:152,2,140
376,216,67998,5,8
376,216,68170,1,8
376,216,68341,1,8
376,216,68512,1,8
264,216,68855,2,0,B|112:216,1,140
128,104,69541,2,0,B|288:104,1,140
268,104,70055,1,0
472,296,70912,6,2,B|320:296,2,140
472,184,71940,1,0
472,72,72283,1,0
360,72,72626,2,2,B|376:104|376:136|352:144|328:152|304:136|304:104|264:112|280:88,1,140
200,72,73311,1,0
88,72,73654,2,0,L|88:152|168:152|168:216|248:216|248:288|320:288,1,420
400,296,75025,6,0,L|400:144,3,140
400,40,76396,5,4
248,208,77082,1,4
104,32,77768,1,4
248,208,78453,1,4
24,208,79139,5,8
192,208,79653,1,8
136,208,79824,1,8
144,40,80338,1,8
200,40,80510,2,8,L|280:40,3,70
256,192,81881,12,4,84280
