osu file format v9

[General]
AudioFilename: manimaniop.mp3
AudioLeadIn: 1500
PreviewTime: 53956
Countdown: 0
SampleSet: Soft
StackLeniency: 0.7
Mode: 0
LetterboxInBreaks: 0

[Editor]
DistanceSpacing: 1.1
BeatDivisor: 4
GridSize: 4

[Metadata]
Title:Super Noisy Nova (TV Size)
Artist:Sphere
Creator:biwako
Version:Pastel
Source:Sora no Manimani
Tags:Pastel theowest

[Difficulty]
HPDrainRate:5
CircleSize:4
OverallDifficulty:5
ApproachRate:7
SliderMultiplier:1.5
SliderTickRate:2

[Events]
//Background and Video events
Video,0,"manimaniop.flv"
0,0,"moe-76890-akeno_mihoshi-mak.jpg"
//Break Periods
//Storyboard Layer 0 (Background)
//Storyboard Layer 1 (Fail)
//Storyboard Layer 2 (Pass)
//Storyboard Layer 3 (Foreground)
//Storyboard Sound Samples
//Background Colour Transformations
3,100,163,162,255

[TimingPoints]
1156,342.857142857143,4,2,1,70,1,0
1156,-200,4,2,1,70,0,0
5870,-200,4,2,1,5,0,0
7156,-100,4,1,1,70,0,0
11870,-133.333333333333,4,1,1,70,0,0
12556,-100,4,1,1,70,0,0
29870,-100,4,1,1,75,0,0
41184,-100,4,2,1,55,0,0
48727,-100,4,1,1,70,0,0
54641,-100,4,1,1,70,0,1
79327,-100,4,1,1,70,0,0

[Colours]
Combo1 : 255,255,85
Combo2 : 255,85,85
Combo3 : 85,85,255

[HitObjects]
224,76,470,1,2
288,36,813,1,0
356,64,1156,2,0,B|376:100|364:140,1,75,2|0
336,208,1841,2,0,B|300:216|256:212,1,75,2|0
196,296,2527,2,0,B|232:288|276:292,1,75,2|0
270,291,3041,1,4
296,68,3727,6,0,B|356:80|376:148,1,112.5,0|2
373,141,4413,1,0
373,141,4584,1,0
329,213,4927,2,0,B|289:225|272:264,2,75,2|0|2
329,213,5784,1,4
256,192,5956,12,0,6984
268,56,7327,6,0,B|308:52|340:80,1,75,8|0
384,144,7670,2,0,B|400:176|392:220,1,75,8|0
320,256,8013,6,0,B|272:316|188:316,1,150,4|8
72,176,8698,2,0,B|104:200|144:200,1,75
204,144,9041,2,0,B|244:144|272:112,1,75,8|0
340,68,9384,6,0,B|408:120|408:220,1,150,0|8
348,284,9898,2,0,B|280:232|280:132,1,150,0|0
232,88,10413,2,0,B|196:64|140:56,2,75,8|0|0
408,188,11098,5,8
228,280,11441,1,0
232,88,11784,1,8
288,168,11956,6,0,B|340:240|316:332,1,168.749994970858,0|8
176,352,12813,1,0
56,272,13156,1,8
194,150,13498,6,0,B|232:80|316:72,1,150,4|8
460,160,14184,2,0,B|428:184|420:224,1,75
340,240,14527,2,0,B|304:224|292:184,1,75,8|0
312,100,14870,6,0,B|292:20|196:32,1,150,0|8
116,64,15384,1,0
84,232,15727,1,0
164,212,15898,2,0,B|200:220|236:244,1,75,8|0
288,304,16241,5,2
368,280,16413,1,0
456,188,16756,1,2
376,164,16928,1,0
288,72,17270,1,2
368,48,17442,1,0
256,192,18298,5,2
220,112,18641,1,2
152,60,18984,1,4
68,80,19327,6,0,B|32:104|32:148,1,75,8|0
112,204,19670,2,0,B|148:180|148:136,2,75,0|0|8
32,232,20184,2,0,B|72:316|160:272,1,150,2|0
236,260,20698,1,8
248,180,20870,2,0,B|256:96|360:92,1,150,2|0
432,72,21384,1,8
476,144,21556,1,2
468,228,21727,1,0
292,280,22070,6,0,B|252:288|224:316,1,75,8|0
144,256,22413,2,0,B|124:292|136:336,2,75,0|0|8
220,220,22927,2,0,B|248:148|220:60,1,150,2|0
296,28,23441,1,8
359,80,23613,1,2
128,112,23956,2,0,B|88:112|60:84,2,75,2|8|0
212,64,24470,2,0,B|228:100|224:140,1,75,2|0
296,176,24813,6,0,B|360:120|444:160,2,150,8|2|8
188,308,25841,2,0,B|108:288,1,75,2|0
196,216,26184,2,0,B|276:236,1,75,8|0
220,136,26527,2,0,B|140:116,2,75,2|0|8
320,268,27213,5,2
388,120,27556,1,8
220,136,27898,2,0,B|196:164|196:208,1,75,2|0
248,272,28241,2,0,B|280:296|320:288,1,75,8|0
384,340,28584,5,2
452,292,28756,2,0,B|508:228|476:140,1,150,0|2
224,80,29956,5,4
224,80,30298,2,0,B|248:108|288:116,1,75,8|0
372,104,30641,2,0,B|400:128|400:176,1,75
464,224,30984,1,8
400,276,31156,2,0,B|320:264|260:316,1,150,2|0
184,284,31670,5,8
104,264,31841,2,0,B|64:196|92:120,1,150
168,92,32356,2,0,B|164:48|128:28,2,75,8|0|0
336,104,33041,6,0,B|368:84|408:80,1,75,8|0
396,168,33384,2,0,B|364:192|324:192,1,75
256,148,33727,1,8
192,200,33898,2,0,B|176:280|240:336,1,150,2|0
320,312,34413,2,0,B|400:292,1,75,8|2
472,132,34926,5,2
388,80,35098,1,8
320,152,35269,1,2
168,172,35613,5,2
252,224,35785,1,8
320,152,35956,1,2
340,304,36298,5,2
392,220,36470,1,8
320,152,36641,1,2
472,132,36984,5,2
388,80,37156,1,8
320,152,37327,1,2
360,240,37498,6,0,B|324:316|240:312,1,150,0|8
268,220,38184,6,0,B|180:252|136:176,1,150,4|0
124,96,38698,2,0,B|40:120|52:216,1,150,4|0
228,136,39213,2,0,B|276:64|364:96,1,150,4|0
440,72,39727,1,0
476,148,39898,6,0,B|508:220|492:300,2,150,2|2|2
368,24,40927,1,4
300,200,41270,6,0,B|252:144|276:56,2,150,2|0|2
216,168,42127,2,0,B|276:100|356:148,1,150
408,204,42641,1,2
344,256,42813,2,0,B|336:292|340:332,1,75
412,372,43156,1,0
512,288,43327,2,0,B|436:296,1,75,2|0
344,256,43670,1,4
176,148,44013,5,2
216,76,44184,1,0
292,44,44356,2,0,B|372:36|424:108,1,150,2|0
500,80,44870,2,0,B|516:132|484:180|420:188,1,150,2|0
425,187,45384,1,0
284,144,45727,2,0,B|212:172,1,75,2|0
296,232,46070,2,0,B|260:304,1,75,2|0
364,296,46413,1,4
353,140,46756,6,0,B|272:164|220:96,1,150,2|0
279,36,47270,1,0
128,104,47613,1,2
76,168,47784,2,0,B|56:203|56:251,2,75,0|0|2
156,184,48298,2,0,B|236:212|284:124,1,150,0|0
280,129,48813,1,8
476,56,49156,6,0,B|512:124|492:204,1,150,2|8
412,200,49670,2,0,B|344:228|292:288,1,150,2|0
212,272,50184,2,0,B|228:352,1,75,8|0
268,204,50527,6,0,B|196:156|132:236,1,150,2|8
88,296,51041,2,0,B|52:280|52:232,2,75,2|2|0
152,348,51556,1,8
232,348,51727,1,2
256,192,51898,12,0,53613
360,184,53956,5,0
256,120,54298,1,0
160,192,54641,2,0,B|180:268|124:336,1,150,4|8
320,232,55327,2,0,B|300:156|356:88,1,150,0|8
432,132,55841,6,0,B|472:132|504:148,2,75
392,204,56356,1,8
348,272,56527,6,0,B|308:272|275:255,1,75
200,224,56870,1,0
200,224,56956,1,0
200,224,57041,1,8
264,168,57213,2,0,B|316:224|292:316,1,150,0|0
204,376,57727,2,0,B|196:344|212:300,1,75,8|0
388,316,58070,5,0
388,316,58241,1,0
452,224,58413,1,8
452,224,58584,1,0
392,128,58756,2,0,B|244:76,1,150,0|8
104,172,59270,2,0,B|172:108|236:172,1,150
168,232,59784,2,0,B|168:316,1,75,8|0
252,292,60127,6,0,B|284:360,1,75
352,308,60470,2,0,B|428:336,1,75,8|0
320,232,60813,2,0,B|352:164|332:80,2,150,0|8|0
92,244,61841,1,8
104,164,62013,6,0,B|188:180|216:264,1,150
276,312,62527,2,0,B|264:356,2,37.5,8|0|0
360,300,62870,2,0,B|396:148,1,150,0|8
308,152,63384,2,0,B|288:72,2,75
192,276,63898,2,0,B|276:260,1,75,8|0
340,312,64241,5,2
428,288,64413,1,2
464,204,64584,1,2
412,128,64756,1,2
412,128,65270,5,2
348,76,65441,1,0
264,68,65613,2,0,B|180:56|124:120,1,150,4|8
132,276,66298,2,0,B|168:288|192:320,2,75,0|0|8
88,200,66813,1,0
176,184,66984,6,0,B|328:168,1,150,2|8
380,264,67498,2,0,B|228:280,1,150,2|0
169,343,68013,1,8
92,288,68184,6,0,B|76:132,1,150
152,80,68698,2,0,B|192:64|232:64,1,75,8|0
312,136,69041,2,0,B|272:152|232:152,1,75
184,260,69384,2,0,B|224:244|264:244,1,75,8|0
364,228,69727,6,0,B|440:200|440:96,1,150,2|8
408,32,70241,2,0,B|332:60|332:164,1,150,2|0
364,228,70756,1,8
232,204,71098,6,0,B|160:172|120:104,2,150,2|8|2
360,100,72127,2,0,B|325:170|338:248,2,150,8|2|8
464,188,73156,1,2
464,188,73498,1,8
464,188,73841,6,0,B|444:268|368:296,1,150,2|8
332,148,74527,1,2
204,180,74870,2,0,B|164:256|184:328,1,150,8|2
72,228,75556,1,8
180,120,75898,6,0,B|216:136|236:168,1,75,2|0
308,212,76241,2,0,B|392:224|472:176,1,150,8|0
476,108,76756,1,0
424,44,76927,2,0,B|340:32|260:80,1,150,8|0
152,168,77613,6,0,B|112:168|84:140,2,75,8|0|0
220,216,78127,1,0
256,140,78298,2,0,B|272:104|312:88,1,75,8|0
396,88,78641,2,0,B|463:134|434:220,1,150,0|8
311,328,79327,5,4
136,160,79841,1,0
136,160,80013,1,4
436,96,80527,5,0
436,96,80698,1,4
400,172,80870,1,0
400,172,81041,1,4
328,208,81213,1,0
236,316,81898,5,0
236,316,82069,1,4
92,136,82584,1,0
92,136,82756,1,4
326,87,83270,5,0
372,164,83441,1,4
312,232,83613,1,0
228,196,83784,1,0
240,104,83956,1,0
236,316,84298,5,0
236,316,84384,1,0
236,316,84470,1,4
