osu file format v7

[General]
AudioFilename: SORA NO MANIMANI OP.mp3
AudioLeadIn: 2000
PreviewTime: 53890
Countdown: 0
SampleSet: Soft
StackLeniency: 0.7
Mode: 0
LetterboxInBreaks: 1

[Editor]
Bookmarks: 7932,19247,43433,78576
DistanceSpacing: 0.800000011920929
BeatDivisor: 2
GridSize: 8

[Metadata]
Title:Super Noisy Nova
Artist:Sphere
Creator:CXu
Version:Supernova!
Source:Sora no Manimani
Tags:universe star planet miccoli miccoliasms

[Difficulty]
HPDrainRate:8
CircleSize:4
OverallDifficulty:7
SliderMultiplier:1.3
SliderTickRate:1

[Events]
//Background and Video events
0,0,"sora no manimani.jpg"
Video,0,"SORA NO MANIMANI OP.avi"
//Break Periods
//Storyboard Layer 0 (Background)
//Storyboard Layer 1 (Fail)
//Storyboard Layer 2 (Pass)
//Storyboard Layer 3 (Foreground)
//Storyboard Sound Samples
//Background Colour Transformations
3,100,163,162,255

[TimingPoints]
-280,342.857142857143,4,2,0,60,1,0
6576,-100,4,1,0,60,0,0
8119,-100,4,2,0,60,0,0
15833,-100,4,1,0,60,0,0
18919,-100,4,2,0,60,0,0
28347,-100,4,1,0,60,0,0

[Colours]
Combo1 : 0,128,255
Combo2 : 255,255,128
Combo3 : 255,128,255

[HitObjects]
280,216,405,2,2,B|248:272|152:280|56:136,1,260
231,167,1776,2,2,B|262:114|358:106|440:230,1,260,2|2
360,296,2805,1,8
312,312,2976,1,8
232,248,3319,1,2
200,152,3662,5,0
256,64,4005,1,0
304,80,4176,1,2
344,112,4347,1,8
368,152,4519,1,2
376,200,4690,1,0
392,248,4862,1,8
384,296,5033,1,0
336,272,5204,2,2,B|232:160,1,130
256,192,5719,12,0,7262
256,56,7433,5,0
256,80,7519,1,0
256,104,7605,1,0
256,128,7690,1,0
256,152,7776,1,0
256,176,7862,1,0
256,200,7948,1,0
192,280,8290,5,0
240,280,8462,1,0
288,280,8633,1,0
336,280,8805,2,2,B|416:280|408:192,1,130
360,216,9319,2,2,B|360:128|448:128,1,130
435,128,9833,1,0
360,56,10176,1,0
304,56,10347,2,0,B|192:56,1,97.5
176,56,10690,6,8,B|88:56|88:168,1,130
90,135,11376,1,0
176,192,11719,1,0
200,144,11890,1,0
232,192,12062,1,8
256,296,12405,2,2,B|208:248,1,65
288,320,12919,2,2,B|340:281,1,65
400,192,13433,6,2,B|400:112|320:72,2,130
352,168,14290,1,0
304,136,14462,1,8
256,112,14633,1,2
200,104,14805,1,8
136,184,15147,1,0
136,184,15233,1,0
136,184,15319,1,8
216,248,15662,1,2
256,96,16176,5,4
256,320,16690,1,4
256,96,17205,1,4
128,192,18233,5,6
384,192,18576,1,6
96,288,19262,5,0
152,288,19433,1,0
208,288,19605,1,0
264,288,19776,1,0
320,288,19947,1,0
320,288,20119,2,2,B|384:240,1,65
320,288,20462,2,2,B|384:336,1,65
416,288,20805,1,8
416,288,21147,1,8
416,152,21662,5,0
416,152,21747,1,0
416,152,21833,1,0
416,96,22005,5,0
360,96,22176,1,0
304,96,22348,1,0
248,96,22519,1,0
192,96,22690,1,0
192,96,22862,2,2,B|128:144,1,65
192,96,23205,2,2,B|128:48,1,65
96,96,23548,1,8
96,96,23890,1,8
112,272,24405,5,0
112,272,24490,1,0
112,272,24576,1,0
136,216,24747,6,2,B|208:184,1,65,2|0
176,248,25090,2,2,B|240:224,1,65,2|0
216,280,25433,2,2,B|288:256,1,65,2|0
248,312,25776,2,2,B|312:288,1,65,2|0
320,224,26119,1,8
424,176,26462,1,0
424,176,26805,1,8
376,272,27147,5,0
376,272,27233,1,0
376,272,27319,1,0
320,272,27490,1,0
264,272,27662,2,2,B|56:272,1,195,2|10
224,192,28519,5,0
96,192,28690,1,0
168,96,29033,6,0,L|232:56|360:88,1,195,0|0
336,112,29633,1,0
320,136,29719,1,0
304,160,29805,1,0
288,184,29890,1,4
400,200,30233,6,0,B|368:256|440:248,2,65
456,208,30747,2,0,B|488:152|416:160,2,65
248,48,31605,1,0
304,72,31776,2,8,B|304:216,2,130,0|0|0
248,48,32633,1,4
120,192,32976,6,0,B|88:248|160:240,2,65
176,200,33490,2,0,B|208:144|136:152,2,65
248,48,34348,1,0
200,80,34519,2,8,B|200:224,2,130,0|0|4
144,184,35547,6,0,B|144:264,2,65
152,304,36233,5,8
208,304,36405,1,8
256,264,36576,1,12
280,144,36919,6,0,B|352:136,2,65
256,192,37433,5,2
72,96,37776,1,2
272,40,38119,1,2
464,144,38462,1,0
464,144,38633,1,10
256,192,38976,1,0
256,192,39147,1,4
392,296,39662,5,0
344,264,39833,1,8
296,296,40005,1,0
248,264,40176,1,8
200,296,40347,1,0
152,264,40519,1,8
128,80,41205,5,8
392,80,41547,1,8
320,248,42062,2,2,B|176:248,1,130
128,248,42576,1,2
128,248,42747,2,0,B|152:184,4,65
360,192,43776,5,0
312,160,43947,1,0
264,128,44119,2,0,L|200:80,1,65
96,96,44633,1,0
96,152,44805,2,0,C|96:216|184:272,1,130
200,272,45319,1,0
224,280,45405,1,0
248,288,45490,1,0
256,232,45662,5,8
256,232,45833,2,0,B|296:168,2,65,0|0|8
256,232,46347,1,4
256,232,46690,5,0
256,112,47033,1,0
256,168,47205,1,8
344,248,47547,1,0
424,160,47890,1,0
384,208,48062,1,0
344,248,48233,1,8
256,304,48576,1,0
200,304,48747,1,4
128,160,49090,5,0
208,80,49433,1,0
240,80,49519,1,0
272,80,49605,1,4
400,192,50119,5,0
280,192,50462,1,8
160,192,50805,1,0
136,192,50890,1,0
112,192,50976,1,12
112,88,51319,1,0
168,88,51490,1,8
144,144,51662,2,0,B|320:40|368:248,1,260
304,248,52519,6,0,B|264:224,3,32.5
240,224,52862,2,0,B|176:232,2,32.5
184,80,53376,5,4
320,80,53547,1,4
424,192,53890,5,0
320,192,54233,1,0
288,192,54319,1,0
256,192,54405,1,0
224,192,54490,1,0
192,192,54576,1,8
384,88,55262,2,0,C|312:88,1,65
256,88,55605,2,0,C|176:88,1,65
191,88,55947,1,8
72,88,56290,1,8
72,88,56462,1,8
120,192,56805,1,0
144,240,56976,1,0
176,288,57147,5,8
224,200,57490,2,0,B|296:200,3,65,0|0|0|0
352,200,58176,1,0
352,200,58347,1,0
288,200,58520,1,0
352,200,58690,1,8
448,120,59033,2,8,L|384:176,1,65,8|8
256,256,59547,5,0
256,256,59719,1,4
160,104,60062,5,8
200,64,60233,1,0
248,88,60405,1,0
304,56,60576,1,0
360,72,60747,1,8
344,128,60919,1,0
360,184,61090,1,8
328,232,61262,1,0
272,216,61433,1,8
240,168,61605,1,0
240,112,61776,1,8
240,112,61947,1,8
256,344,62633,5,0
256,344,62805,1,8
256,344,62976,1,0
256,224,63319,2,2,L|256:56,1,130
256,32,63833,1,0
256,32,64005,1,0
256,104,64176,5,4
160,192,64347,1,4
256,280,64519,1,4
352,192,64690,1,4
200,192,65205,5,0
232,192,65291,1,0
264,192,65377,1,0
296,192,65462,1,0
328,192,65548,1,8
128,88,66234,2,0,C|200:88,1,65
256,88,66577,2,0,C|336:88,1,65
321,88,66919,1,8
440,88,67262,1,8
440,88,67434,1,8
392,192,67777,1,0
360,240,67948,1,0
328,288,68119,5,8
256,192,68462,2,0,B|168:192,3,65
192,192,69148,1,0
128,192,69319,1,0
64,192,69491,1,0
8,192,69662,1,8
104,56,70005,2,8,L|168:112,1,65,8|8
256,192,70519,5,0
256,192,70691,1,4
352,104,71034,5,8
312,56,71205,1,0
264,88,71377,1,0
208,56,71548,1,0
152,72,71719,1,8
168,128,71891,1,0
152,184,72062,1,8
184,232,72234,1,0
240,216,72405,1,8
272,168,72577,1,0
272,112,72748,1,8
272,112,73090,1,8
272,112,73433,1,8
256,224,73777,5,0
256,224,73947,1,8
256,224,74120,1,0
256,224,74291,2,2,L|256:56,1,130,10|2
256,32,74805,1,0
256,32,74977,1,0
256,104,75148,5,4
160,192,75319,1,4
256,280,75491,1,4
352,192,75662,1,4
256,72,75833,5,4
128,192,76005,1,4
256,312,76176,1,4
384,192,76347,1,4
352,280,76519,5,2
160,280,76862,1,2
160,104,77205,1,2
352,104,77547,1,2
472,104,77890,6,8,B|520:273|376:73|320:265,1,260
256,56,79262,5,4
320,336,79776,1,0
192,336,79947,1,4
256,80,80462,1,0
256,136,80633,1,0
256,192,80804,1,0
256,248,80977,1,0
256,304,81147,1,8
40,72,81833,6,4,B|120:72,1,65
472,72,82519,2,4,B|392:72,1,65
256,304,83205,1,0
256,248,83376,1,0
256,192,83547,1,0
256,136,83719,1,0
256,80,83890,1,8
256,192,84234,5,4
256,192,84319,1,4
256,192,84405,1,4
