osu file format v7

[General]
AudioFilename: SORA NO MANIMANI OP.mp3
AudioLeadIn: 2000
PreviewTime: 53890
Countdown: 0
SampleSet: Normal
StackLeniency: 0.7
Mode: 0
LetterboxInBreaks: 1

[Editor]
Bookmarks: 7932,19247,43433,78576
DistanceSpacing: 0.600000023841858
BeatDivisor: 2
GridSize: 8

[Metadata]
Title:Super Noisy Nova
Artist:Sphere
Creator:CXu
Version:Normal
Source:Sora no Manimani
Tags:universe star planet miccoli miccoliasms

[Difficulty]
HPDrainRate:5
CircleSize:4
OverallDifficulty:6
SliderMultiplier:1
SliderTickRate:1

[Events]
//Background and Video events
0,0,"sora no manimani.jpg"
Video,0,"SORA NO MANIMANI OP.avi"
//Break Periods
2,8147,18212
//Storyboard Layer 0 (Background)
//Storyboard Layer 1 (Fail)
//Storyboard Layer 2 (Pass)
//Storyboard Layer 3 (Foreground)
//Storyboard Sound Samples
//Background Colour Transformations
3,100,163,162,255

[TimingPoints]
-280,342.857142857143,4,2,0,60,1,0
7605,-100,4,1,0,60,0,0
7947,-100,4,1,0,60,0,1
8462,-100,4,2,0,60,0,0
28347,-100,4,1,0,60,0,0

[Colours]
Combo1 : 0,128,255
Combo2 : 255,255,128
Combo3 : 255,128,255

[HitObjects]
272,216,405,2,2,B|328:184|328:120|224:64,1,200
232,168,1776,2,2,B|176:200|176:264|280:320,1,200,2|2
328,320,2805,1,8
328,320,2976,1,8
384,240,3662,5,0
352,192,4005,2,0,L|288:192,3,50
248,192,4862,1,8
192,192,5204,2,2,B|88:80,1,150
256,192,5804,12,4,7947
104,304,19262,6,0,B|424:304,1,300
404,304,20805,1,0
404,304,21147,1,0
400,80,22005,6,0,B|80:80,1,300
100,80,23548,1,0
100,80,23890,1,0
136,208,24747,5,0
184,224,25090,1,2
232,208,25433,1,8
288,224,25776,1,0
328,208,26119,1,0
376,224,26462,1,2
376,224,26805,1,8
376,272,27147,1,0
296,272,27662,2,2,B|272:328|176:336|176:240,1,150
232,216,28519,6,2,B|296:216,1,50,2|2
288,160,29033,2,2,C|254:93|222:165,1,150
256,208,29890,1,4
392,192,30233,6,0,B|400:264|320:248,1,100
328,176,30919,2,0,B|320:104|400:120,1,100,0|0
385,117,31605,1,0
416,120,31776,2,8,B|416:224,1,100
256,192,32633,5,4
177,250,32976,6,0,B|112:264|120:192,1,100
184,176,33662,2,0,B|192:104|112:120,1,100,0|0
127,117,34348,1,0
96,120,34519,2,8,B|96:224,1,100
96,220,35205,1,8
160,192,35547,6,0,B|224:192,2,50
160,264,36233,5,8
192,264,36405,1,8
232,264,36576,1,8
272,192,36919,6,0,B|336:192,2,50,0|0|0
232,192,37433,5,2
120,136,37776,1,2
200,48,38119,1,2
312,96,38462,1,0
312,96,38633,1,10
256,192,39147,5,0
256,328,39833,5,0
219,268,40176,1,8
291,268,40519,1,0
176,128,41205,5,8
328,128,41547,1,8
328,232,42062,6,2,B|160:232,1,150
178,232,42747,2,0,B|216:184,4,50
296,128,43776,6,0,B|320:168|272:168,3,50,0|8|8|0
216,168,44633,1,0
176,168,44805,2,2,B|32:96|-56:168|112:328,1,350,8|0
256,240,46690,5,0
256,168,47033,1,0
256,168,47205,1,8
328,168,47547,2,2,B|472:96|560:168|392:328,1,350,8|0
256,328,49090,5,0
256,256,49433,1,8
256,216,49605,1,8
360,192,50119,5,0
288,192,50462,1,8
216,192,50805,1,0
184,192,50976,1,8
128,152,51319,1,0
160,136,51490,1,8
192,120,51662,2,0,B|368:16|360:224,1,250
256,192,53033,5,4
320,248,53376,5,4
320,248,53547,1,4
384,192,53890,5,0
312,192,54233,1,0
240,192,54576,1,8
160,304,55262,1,0
160,232,55605,1,0
160,160,55947,1,0
160,88,56290,1,8
160,88,56462,1,8
288,40,57147,5,0
280,96,57490,2,0,B|264:168,3,50
256,168,58176,1,0
232,192,58347,1,0
208,216,58519,1,0
184,240,58690,1,0
232,288,59033,2,8,L|312:288,1,50
256,208,59719,5,4
200,160,60062,5,0
240,104,60405,1,0
304,120,60747,1,0
368,104,61090,1,0
408,160,61433,1,0
360,208,61776,1,0
360,208,61947,1,0
224,88,62633,5,0
224,88,62805,1,8
224,88,62976,1,0
224,88,63319,2,2,L|224:216,1,100
224,224,63833,1,0
224,256,64005,1,0
248,280,64176,5,4
280,280,64347,1,4
312,280,64519,1,4
344,280,64690,1,4
200,192,65205,5,8
272,192,65548,1,0
352,80,66234,1,8
352,152,66577,1,0
352,224,66919,1,8
352,296,67262,1,0
352,296,67434,1,8
224,344,68119,5,0
232,288,68462,2,0,B|256:208,3,50
256,208,69148,1,8
280,184,69319,1,8
304,160,69491,1,0
328,136,69662,1,8
280,88,70005,2,8,L|200:88,1,50
256,176,70691,5,4
312,224,71034,5,0
272,280,71377,1,0
208,264,71719,1,0
144,280,72062,1,0
104,224,72405,1,0
152,176,72748,1,0
152,176,73090,1,0
224,176,73433,1,0
280,128,73776,2,2,C|392:72|432:208|304:248,1,400
176,144,76005,5,0
144,120,76176,1,0
112,96,76347,1,0
136,64,76519,5,2
208,64,76862,1,2
280,64,77205,1,2
352,64,77547,1,2
400,111,77890,6,8,B|435:235|307:99|267:211,1,200
256,56,79262,5,0
256,160,79776,1,0
256,160,79947,1,0
256,264,80462,1,0
224,248,80633,1,0
200,216,80804,1,0
184,184,80977,1,0
184,152,81147,1,2
256,56,81833,6,0,B|336:56,1,50,0|0
304,160,82519,2,0,B|232:160,1,50,0|0
256,264,83205,1,0
288,248,83376,1,0
312,216,83547,1,0
328,184,83720,1,0
328,152,83890,1,2
256,192,84405,5,4
