osu file format v7

[General]
AudioFilename: SORA NO MANIMANI OP.mp3
AudioLeadIn: 2000
PreviewTime: 53890
Countdown: 0
SampleSet: Normal
StackLeniency: 0.7
Mode: 0
LetterboxInBreaks: 1

[Editor]
Bookmarks: 7932,19247,43433,78576
DistanceSpacing: 1
BeatDivisor: 2
GridSize: 8

[Metadata]
Title:Super Noisy Nova
Artist:Sphere
Creator:CXu
Version:Easy
Source:Sora no Manimani
Tags:universe star planet miccoli miccoliasms

[Difficulty]
HPDrainRate:2
CircleSize:3
OverallDifficulty:2
SliderMultiplier:0.5
SliderTickRate:1

[Events]
//Background and Video events
0,0,"sora no manimani.jpg"
Video,0,"SORA NO MANIMANI OP.avi"
//Break Periods
2,8147,17702
//Storyboard Layer 0 (Background)
//Storyboard Layer 1 (Fail)
//Storyboard Layer 2 (Pass)
//Storyboard Layer 3 (Foreground)
//Storyboard Sound Samples
//Background Colour Transformations
3,100,163,162,255

[TimingPoints]
-280,342.857142857143,4,2,0,60,1,0
7605,-100,4,1,0,60,0,0
7947,-100,4,1,0,60,0,1
8290,-100,4,2,0,60,0,0
28347,-100,4,1,0,60,0,0

[Colours]
Combo1 : 0,128,255
Combo2 : 255,255,128
Combo3 : 255,128,255

[HitObjects]
112,280,405,2,2,B|192:280|192:192|288:192,1,200
384,192,2462,1,2
384,192,2976,1,8
384,288,3662,5,0
320,248,4176,1,0
272,232,4519,1,0
216,232,4862,1,8
168,232,5204,2,2,B|80:232,1,75
256,192,5804,12,4,7947
104,304,19262,6,0,B|424:304,1,300
400,72,22005,6,0,B|88:72,1,300,0|0
128,168,24747,5,0
224,192,25433,1,8
320,168,26119,1,0
376,248,26805,1,8
328,272,27147,1,8
248,272,27662,2,0,B|112:272,1,125,0|2
168,200,29033,2,2,C|176:136|240:112,1,125,2|4
280,120,30233,6,0,B|272:192|352:176,1,100
384,176,31262,2,0,B|456:168|440:248,1,100,0|0
392,248,32290,2,8,B|320:248,1,50,8|4
296,224,32976,6,0,B|224:232|240:152,1,100
208,120,34005,2,0,B|216:48|136:64,1,100,0|0
136,112,35033,6,8,B|136:176,1,50,8|4
136,208,35719,2,0,B|200:208,1,50
312,208,36919,2,0,B|400:208,1,75
384,160,37776,5,2
384,112,38119,1,2
384,64,38462,2,0,B|312:64,1,50
280,64,39147,1,4
128,64,39833,5,0
152,104,40176,1,8
192,128,40519,1,0
288,136,41205,5,8
288,136,41547,1,8
288,208,42062,2,2,C|360:208|360:280|280:280,1,225,2|0
232,272,43947,6,0,C|176:240,1,50
176,176,44805,2,0,B|116:68|76:212|116:300,1,225,8|0
160,304,46690,6,0,B|248:312,1,75
240,264,47547,2,0,B|132:203|276:163|352:192,1,225,8|0
424,192,49605,1,8
424,264,50119,5,0
376,264,50462,2,0,B|288:280|224:200,1,150
256,192,51662,12,4,53033
416,192,53890,5,0
368,192,54233,1,0
320,192,54576,1,8
224,192,55262,2,0,B|168:192,2,50
224,112,56462,1,8
104,112,57147,5,0
176,112,57662,2,8,B|232:112,2,50
176,160,58690,1,0
176,208,59033,2,8,L|288:208,1,100,8|4
328,264,60062,6,0,C|224:144,1,150
232,96,61433,1,0
272,32,61947,1,8
184,72,62633,6,0,C|184:128,3,50
112,104,64176,6,0,C|112:152,3,25
120,192,65205,6,8,B|184:192,1,50
264,192,66234,1,8
312,192,66577,1,0
360,192,66919,2,8,B|448:192,1,75
368,264,68119,5,0
320,272,68462,2,0,C|256:248,1,50
248,208,69147,2,0,C|304:144,1,75
336,88,70176,1,8
408,104,70691,1,4
400,152,71033,6,0,B|400:200|360:200,1,50
360,240,71719,2,8,B|353:315|296:328,1,100
264,320,72748,1,0
224,288,73090,1,8
184,256,73433,1,0
256,192,73776,12,4,75147
256,192,76005,5,0
184,136,76519,5,2
232,136,76862,1,2
280,136,77205,1,2
328,136,77547,1,2
319,183,77890,2,8,B|284:285|156:149|191:273,1,200
112,272,79776,6,8,B|112:232,1,25
112,152,80633,2,0,B|112:56,1,75,0|2
216,208,81833,6,0,B|304:208,1,75,0|0
344,208,82690,1,8
312,136,83205,2,0,B|312:86,1,50
312,64,83719,1,0
312,40,83890,1,0
256,192,84405,5,4
