osu file format v9

[General]
AudioFilename: moonsignal.mp3
AudioLeadIn: 993
PreviewTime: 57015
Countdown: 0
SampleSet: Normal
StackLeniency: 0.7
Mode: 0
LetterboxInBreaks: 1

[Editor]
DistanceSpacing: 1
BeatDivisor: 4
GridSize: 4

[Metadata]
Title:MOON SIGNAL
Artist:Sphere
Creator:Thite
Version:Insane
Source:
Tags:

[Difficulty]
HPDrainRate:7
CircleSize:4
OverallDifficulty:7
ApproachRate:9
SliderMultiplier:1.8
SliderTickRate:1

[Events]
//Background and Video events
//Break Periods
2,92283,99573
//Storyboard Layer 0 (Background)
//Storyboard Layer 1 (Fail)
//Storyboard Layer 2 (Pass)
//Storyboard Layer 3 (Foreground)
//Storyboard Sound Samples
//Background Colour Transformations
3,100,163,162,255

[TimingPoints]
3095,337.078651685393,4,1,0,60,1,0
10763,-100,4,1,0,10,0,0
11016,-100,4,1,0,60,0,0
55426,-200,4,1,0,60,0,0
56353,-200,4,1,0,5,0,0
57027,-100,4,1,0,60,0,1
78600,-100,4,1,0,60,0,0
123094,-100,4,1,0,40,0,0
124443,-100,4,1,0,60,0,0
137926,-100,4,1,0,60,0,1
159499,-100,4,1,0,60,0,0

[Colours]
Combo1 : 128,255,128
Combo2 : 255,255,128
Combo3 : 255,128,192

[HitObjects]
256,28,5117,1,0
256,44,5201,1,0
256,64,5286,1,0
256,80,5370,1,0
256,96,5454,1,0
256,196,5623,6,0,B|240:244|200:272|136:272|96:228,1,180
168,172,6128,1,0
256,328,6465,5,0
428,276,6634,1,0
432,96,6802,1,0
260,148,6971,6,0,B|288:200|328:216|376:212|416:192,1,180
496,152,7477,1,0
368,292,7814,5,0
348,112,7982,1,0
468,248,8151,1,0
296,204,8319,6,0,B|116:192,1,180
28,180,8825,1,0
100,124,8993,1,0
180,164,9162,5,0
184,180,9246,1,0
188,196,9330,1,0
192,212,9415,1,0
196,228,9499,1,0
216,316,9668,5,0
448,48,10005,1,0
88,24,10342,2,0,B|-8:80|40:192|40:192|124:192,1,270
176,260,11016,6,0,B|228:236|240:192|228:144|176:124,1,180
116,192,11521,1,0
116,192,11690,1,0
220,104,11859,1,0
116,192,12027,1,0
176,260,12196,2,0,B|184:304|176:352,1,90
20,284,12533,6,0,B|12:240|20:192,1,90
100,236,12870,1,0
100,236,13038,1,0
256,152,13207,1,0
256,152,13375,1,0
184,208,13544,5,0
272,204,13712,1,0
360,192,13881,2,0,B|368:236|368:288,1,90
152,192,14218,2,0,B|144:148|144:96,1,90
272,304,14555,1,0
240,80,14724,1,0
184,256,14892,5,0
328,128,15061,1,0
184,256,15229,5,0
452,16,15566,1,0
364,40,15735,1,0
360,128,15903,1,0
448,116,16072,1,0
460,144,16156,1,0
468,176,16241,1,0
468,208,16325,1,0
464,240,16409,6,0,B|392:284|288:268,1,180
48,144,16915,2,0,B|120:100|224:116,2,180
20,228,17757,1,0
96,268,17926,6,0,B|76:356,1,90
328,212,18263,2,0,B|308:300,1,90,0|0
184,212,18600,2,0,B|204:300,1,90,0|0
416,268,18937,2,0,B|436:356,1,90
256,192,19274,12,0,21634
256,296,21971,6,0,B|216:304|164:296,1,90
104,128,22308,2,0,B|144:120|196:128,1,90
152,208,22645,1,0
240,192,22814,1,0
148,36,22982,1,0
60,32,23151,2,0,B|12:64|0:100|0:148|36:196,1,180
104,128,23656,1,0
60,32,23825,5,0
24,160,23993,1,0
156,124,24162,1,0
36,68,24330,5,0
0,196,24498,1,0
132,160,24668,2,0,B|116:244|152:336,1,180
380,224,25342,2,0,B|396:140|360:48,1,180
288,104,25847,1,0
464,144,26016,6,0,B|472:192|464:236,1,90
416,312,26353,2,0,B|378:342|336:358,1,90,0|0
256,252,26690,6,0,B|207:256|164:245,1,90
91,192,27027,1,0
136,320,27196,5,0
256,252,27364,1,0
196,372,27533,1,0
172,240,27701,1,0
268,332,27870,2,0,B|312:348|356:340,1,90
434,160,28207,6,0,B|484:176|504:232|484:280|436:296,1,180
480,88,28712,1,0
434,160,28881,1,0
388,84,29050,1,0
480,88,29218,5,0
300,104,29387,1,0
336,184,29555,1,0
420,24,29724,1,0
480,88,29892,6,0,B|488:136|480:180,1,90
304,216,30229,2,0,B|296:168|304:124,2,90
332,40,30735,5,0
332,40,31072,1,0
304,216,31241,1,0
164,104,31409,1,0
300,124,31578,5,0
184,192,31746,1,0
300,124,31915,1,0
164,104,32083,6,0,B|76:108,1,90
168,260,32420,1,0
180,260,32505,1,0
192,260,32589,1,0
204,260,32673,1,0
216,260,32757,6,0,B|264:300|332:304|388:284,1,180
296,124,33432,2,0,B|248:84|180:80|124:100,1,180
125,99,33937,1,0
296,36,34106,5,0
84,328,34443,1,0
172,328,34611,6,0,B|188:288|180:240,1,90
24,152,34948,2,0,B|8:192|16:240,1,90,0|0
104,212,35286,1,0
180,104,35454,6,0,B|196:144|192:192,1,90
204,12,35791,2,0,B|241:32|269:71,1,90
264,164,36128,1,0
164,72,36297,1,0
296,40,36465,1,0
168,168,36634,6,0,B|120:196|116:248|140:292|192:304,1,180
232,224,37139,1,0
232,224,37308,1,0
72,308,37477,1,0
236,108,37814,5,0
252,136,37898,1,0
256,168,37982,1,0
252,200,38066,1,0
232,224,38151,6,0,B|208:260|208:312,2,90
364,100,38656,1,0
320,180,38825,1,0
148,128,38993,5,0
172,216,39162,1,0
236,152,39330,1,0
148,128,39499,5,0
244,224,39668,1,0
216,92,39836,1,0
172,216,40005,2,0,B|128:248|120:300|156:344|208:344,1,180
236,268,40510,1,0
236,268,40679,1,0
304,208,40847,6,0,B|372:196|372:196|440:208,2,135
208,176,41521,2,0,B|140:188|140:188|72:176,2,135
256,192,42196,12,0,43544
284,52,43881,5,0
212,108,44050,1,0
312,168,44218,1,0
180,228,44387,1,0
356,268,44555,6,0,B|368:312|368:356,1,90
204,280,44892,2,0,B|192:236|192:192,1,90,0|0
276,224,45229,1,0
276,224,45398,1,0
104,276,45566,6,0,B|92:232|92:188,1,90,0|0
180,228,45903,1,0
180,228,45988,1,0
180,228,46072,1,0
276,224,46241,6,0,B|452:192,1,180
453,191,46746,1,0
424,276,46915,1,0
316,132,47083,2,0,B|228:148,1,90
56,92,47420,6,0,B|232:60,1,180
320,40,47926,1,0
320,40,48094,1,0
404,76,48263,1,0
404,76,48432,1,0
420,164,48600,5,0
60,192,48937,1,0
415,253,49274,6,0,B|428:208|420:164,1,90
488,104,49611,2,0,B|468:61|434:32,2,90
416,252,50117,1,0
408,164,50286,5,0
496,268,50454,1,0
368,312,50623,1,0
468,224,50791,5,0
508,76,50960,1,0
380,120,51128,1,0
496,268,51297,6,0,B|408:284,1,90
320,296,51634,2,0,B|248:236|256:136,1,180
260,48,52139,5,0
328,108,52308,1,0
224,192,52477,1,0
320,296,52645,2,0,B|336:256|328:208,1,90
192,88,52982,2,0,B|176:128|184:176,2,90
398,340,53656,5,0
332,276,53825,1,0
256,324,53993,1,0
180,276,54162,1,0
114,340,54330,6,0,B|88:296|92:248,1,90
168,204,54668,1,0
398,44,54836,6,0,B|424:88|420:136,1,90
344,180,55174,1,0
256,160,55342,1,0
256,160,55510,6,0,B|184:264|336:264|256:364,1,225
440,52,57027,6,0,B|396:40|352:48,1,90
236,188,57364,2,0,B|280:200|324:192,1,90,0|0
396,136,57701,1,0
325,191,57870,1,0
496,244,58038,2,0,B|508:288|500:336,1,90
412,352,58375,5,0
256,28,58712,1,0
80,68,58881,1,0
164,36,59050,6,0,B|176:80|172:132,1,90
80,68,59387,1,0
80,68,59555,1,0
256,28,59724,6,0,B|268:72|264:124,1,90
80,68,60061,1,0
76,100,60145,1,0
72,132,60229,1,0
64,220,60398,6,0,B|104:240|152:236,1,90
224,180,60735,2,0,B|184:160|136:164,1,90
24,304,61072,1,0
256,28,61409,1,0
364,112,61578,1,0
256,192,61746,1,0
256,192,61830,1,0
256,192,61915,1,0
256,192,61999,1,0
256,192,62083,1,0
256,192,62168,1,0
256,192,62252,1,0
256,192,62336,1,0
256,192,62420,6,0,B|272:232|272:280,1,90
96,232,62757,2,0,B|80:192|80:144,1,90,0|0
232,244,63094,6,0,B|221:285|193:324,1,90
79,182,63431,2,0,B|89:140|117:101,1,90,0|0
296,124,63769,6,0,B|304:72|284:28|232:16|184:40,1,180
216,260,64274,2,0,B|208:312|228:356|280:368|328:344,1,180
308,256,64780,1,0
308,256,64948,1,0
140,328,65117,6,0,B|96:336|48:328,2,90
20,192,65623,1,0
92,244,65791,1,0
256,172,65960,1,0
180,124,66128,2,0,B|168:168|180:212,1,90
332,260,66465,6,0,B|344:216|332:172,2,90
256,304,66971,1,0
256,80,67308,1,0
180,124,67477,5,0
168,128,67561,1,0
156,132,67645,1,0
144,136,67729,1,0
132,140,67814,6,0,B|108:176|116:232,1,90
380,244,68151,2,0,B|404:208|396:152,1,90
204,216,68488,1,0
308,168,68656,1,0
220,148,68825,5,0
292,236,68993,1,0
228,312,69162,1,0
456,32,69499,1,0
276,44,69668,1,0
364,60,69836,6,0,B|384:104|384:148,1,90
208,192,70173,2,0,B|188:148|188:104,1,90
296,196,70510,2,0,B|296:260|268:292|216:300|176:280,2,180
256,68,71353,1,0
228,152,71521,1,0
312,124,71690,1,0
256,192,71859,12,0,73207
256,288,73544,6,0,B|166:296,1,90
292,204,73881,1,0
292,204,74050,1,0
256,124,74218,6,0,B|345:115,1,90
184,68,74555,1,0
184,68,74724,1,0
140,148,74892,2,0,B|128:192|132:240,1,90
131,237,75145,1,0
131,237,75229,1,0
372,236,75398,6,0,B|384:192|380:144,1,90
364,60,75735,2,0,B|184:68,1,180
96,72,76241,1,0
96,72,76409,1,0
208,148,76578,6,0,B|216:192|212:244,1,90
132,192,76915,1,0
132,192,76999,1,0
132,192,77083,1,0
96,72,77252,5,0
184,64,77420,1,0
256,120,77589,1,0
256,208,77757,2,0,B|208:240|208:292|232:336|288:336,1,180
332,256,78263,1,0
104,108,78600,6,0,B|72:192|100:288,2,180
160,40,79443,1,0
248,28,79611,1,0
328,68,79780,1,0
336,156,79948,5,0
256,192,80117,1,0
176,228,80286,1,0
184,316,80455,1,0
264,356,80623,1,0
352,332,80791,6,0,B|440:324,2,90
496,220,81297,2,0,B|316:236,1,180
16,164,81971,2,0,B|196:148,1,180
256,212,82477,1,0
256,192,82561,12,0,83993
392,72,84330,6,0,B|400:116|396:164,1,90
220,208,84668,2,0,B|212:164|216:116,1,90,0|0
256,292,85005,1,0
256,292,85173,1,0
336,236,85342,5,0
176,148,85510,1,0
356,156,85679,1,0
156,228,85847,2,0,B|144:272|152:320,1,90
232,276,86184,5,0
320,300,86353,1,0
400,260,86521,1,0
112,44,86859,1,0
36,92,87027,1,0
40,184,87196,5,0
124,220,87364,2,0,B|156:280|148:352,2,135
256,64,88207,1,0
320,184,88375,1,0
192,184,88544,1,0
348,96,88712,6,0,B|436:104,1,90
408,284,89050,2,0,B|320:276,1,90,0|0
356,192,89387,5,0
356,192,89471,1,0
356,192,89555,1,0
256,284,89724,1,0
156,192,89892,1,0
356,192,90229,1,0
256,284,90398,5,0
256,100,90566,1,0
256,192,90651,12,0,92083
256,192,100173,12,0,102533
432,164,102870,5,0
200,24,103207,1,0
256,92,103375,1,0
188,148,103544,2,0,B|176:192|180:236,1,90
88,236,103881,2,0,B|101:279|127:314,1,90
200,368,104218,5,0
404,192,104555,1,0
448,272,104724,5,0
324,220,104892,1,0
480,132,105061,1,0
300,112,105229,2,0,B|212:116,1,90
112,268,105566,6,0,B|200:264,1,90
152,188,105903,1,0
152,188,106072,1,0
116,364,106241,6,0,B|204:360,1,90
152,188,106578,1,0
152,188,106746,1,0
236,152,106915,2,0,B|292:172|304:216|304:264|256:296,2,180
152,188,107757,1,0
152,188,107842,1,0
152,188,107926,1,0
328,148,108094,6,0,B|344:192|344:236,2,90
256,200,108600,1,0
184,148,108769,2,0,B|168:192|168:236,1,90
160,328,109106,6,0,B|340:336,1,180
428,336,109611,1,0
380,208,109780,1,0
339,335,109948,1,0
448,256,110117,1,0
312,260,110286,5,0
476,48,110623,1,0
392,84,110791,6,0,B|416:172,1,90
188,16,111128,2,0,B|212:104,1,90
324,16,111465,2,0,B|300:104,1,90,0|0
120,84,111802,2,0,B|96:172,2,90
256,172,112308,1,0
208,96,112477,5,0
120,84,112645,1,0
44,136,112814,1,0
28,224,112982,1,0
28,224,113066,1,0
28,224,113151,1,0
120,84,113319,1,0
124,96,113403,1,0
128,108,113488,1,0
132,120,113572,1,0
136,132,113656,6,0,B|144:176|136:224,1,90
28,312,113993,2,0,B|20:268|28:220,1,90
104,268,114330,1,0
104,268,114499,1,0
40,156,114668,1,0
144,72,114836,2,0,B|232:48|324:52,1,180
500,80,115342,1,0
412,104,115510,6,0,B|404:148|412:196,2,90
444,20,116016,1,0
480,148,116184,1,0
344,148,116353,5,0
480,148,116521,1,0
344,148,116690,1,0
456,220,116859,1,0
408,92,117027,1,0
376,224,117196,2,0,B|384:268|376:316,1,90
304,280,117533,6,0,B|236:332|132:324,2,180
308,192,118375,1,0
320,104,118544,2,0,B|408:92,1,90
424,92,118797,1,0
436,92,118881,1,0
448,92,118965,1,0
460,92,119050,6,0,B|480:132|476:184,1,90
508,312,119387,2,0,B|463:310|419:281,1,90
300,228,119724,2,0,B|324:190|371:168,1,90
452,196,120061,5,0
452,196,120229,1,0
356,292,120398,2,0,B|352:340|308:364|252:368|220:320,1,180
164,256,120903,2,0,B|168:208|212:184|268:180|300:228,1,180
299,227,121409,1,0
299,227,121578,1,0
276,140,121746,6,0,B|244:80|244:80|256:12,2,135
236,244,122420,2,0,B|268:304|268:304|256:372,2,135
160,192,123094,5,0
164,180,123179,1,0
168,168,123263,1,0
172,156,123347,1,0
176,144,123432,1,0
180,132,123516,1,0
184,120,123600,1,0
188,108,123684,1,0
192,96,123769,5,0
204,100,123854,1,0
216,104,123938,1,0
228,108,124022,1,0
240,112,124107,1,0
252,116,124191,1,0
264,120,124275,1,0
276,124,124359,1,0
288,128,124443,6,0,B|308:168|304:216,1,90
240,280,124780,2,0,B|220:240|224:192,1,90,0|0
286,128,125117,1,0
286,128,125286,1,0
216,12,125454,1,0
380,350,125791,5,0
461,310,125960,1,0
484,223,126128,2,0,B|488:173|479:131,1,90
402,180,126465,1,0
260,67,126634,2,0,B|256:118|264:157,1,90
342,111,126971,1,0
188,24,127139,6,0,B|16:76,1,180
15,76,127645,1,0
84,136,127814,2,0,B|168:108,2,90
264,156,128319,6,0,B|88:216,1,180
8,240,128825,1,0
48,320,128993,1,0
136,312,129162,5,0
376,72,129499,1,0
136,312,129836,1,0
376,72,130173,6,0,B|420:76,2,45
300,24,130510,1,0
256,96,130679,1,0
344,112,130847,2,0,B|364:152|360:200,1,90
292,256,131184,5,0
400,172,131353,1,0
424,304,131521,1,0
336,200,131690,5,0
228,284,131859,1,0
204,152,132027,1,0
320,288,132196,6,0,B|408:300,1,90
480,244,132533,2,0,B|496:148|456:68,1,180
388,12,133038,5,0
480,16,133207,1,0
368,92,133375,1,0
240,44,133544,2,0,B|220:84|228:132,1,90
304,244,133881,2,0,B|324:204|316:156,2,90
108,56,134555,5,0
152,136,134724,1,0
80,192,134892,1,0
152,248,135061,1,0
108,328,135229,6,0,B|152:344|196:336,1,90,0|0
256,264,135566,1,0
404,56,135735,6,0,B|360:40|316:48,1,90,0|0
256,120,136072,1,0
312,192,136241,1,0
312,192,136409,1,0
104,20,136746,5,0
104,20,136915,1,0
104,20,137083,1,0
28,68,137252,5,0
28,80,137336,1,0
28,92,137420,1,0
28,104,137505,1,0
28,116,137589,1,0
28,128,137673,1,0
28,140,137757,1,0
28,152,137842,1,0
28,164,137926,6,0,B|24:208|32:256,1,90
208,284,138263,2,0,B|212:240|204:192,1,90,0|0
116,204,138600,1,0
116,204,138769,1,0
120,292,138937,1,0
120,292,139106,1,0
176,120,139274,1,0
432,32,139611,1,0
480,108,139780,1,0
392,112,139948,6,0,B|304:120,1,90
340,36,140286,1,0
340,36,140454,1,0
404,204,140623,6,0,B|316:212,1,90
340,36,140960,1,0
308,40,141044,1,0
276,44,141128,1,0
192,80,141297,6,0,B|148:104|144:160|160:208|216:220,2,180
436,196,142308,1,0
476,276,142477,1,0
400,328,142645,5,0
372,316,142729,1,0
340,312,142814,1,0
308,320,142898,1,0
284,340,142982,1,0
256,352,143066,1,0
224,352,143151,1,0
192,344,143235,1,0
164,328,143319,6,0,B|144:288|148:236,1,90
304,152,143656,2,0,B|324:192|320:244,1,90,0|0
232,244,143993,6,0,B|212:204|216:152,1,90,0|0
372,68,144330,2,0,B|392:108|388:160,1,90
368,244,144668,6,0,B|360:288|316:316|260:316|228:272,1,180
144,140,145173,2,0,B|152:96|196:68|252:68|284:112,1,180
228,180,145679,1,0
416,148,146016,6,0,B|428:192|428:236,1,90
356,80,146353,1,0
356,80,146521,1,0
280,132,146690,6,0,B|268:88|267:43,1,90
308,216,147027,1,0
308,216,147196,1,0
256,288,147364,2,0,B|216:300|168:296,2,90
308,216,147870,1,0
128,16,148207,1,0
52,68,148375,5,0
60,80,148460,1,0
68,92,148544,1,0
76,104,148628,1,0
84,116,148712,6,0,B|96:160|96:204,1,90
4,192,149050,1,0
4,192,149218,1,0
60,364,149387,6,0,B|48:320|48:276,1,90
156,192,149724,1,0
68,192,149892,1,0
120,264,150061,2,0,B|204:288|300:276,1,180
392,120,150735,6,0,B|308:96|212:108,1,180
124,120,151241,1,0
68,192,151409,2,0,B|104:212|156:208,1,90
184,340,151746,2,0,B|217:316|236:267,1,90
368,304,152083,2,0,B|363:263|330:222,1,90
256,172,152420,1,0
256,172,152589,1,0
256,192,152757,12,0,154106
136,80,154443,5,0
400,128,154780,1,0
464,192,154948,2,0,B|472:236|468:288,2,90
400,128,155454,5,0
280,192,155623,1,0
148,168,155791,1,0
60,192,155960,2,0,B|48:236|60:280,1,90
136,328,156297,6,0,B|148:284|136:240,1,90
120,152,156634,2,0,B|104:104|120:56|168:36|220:48,1,180
256,128,157139,1,0
256,128,157308,1,0
364,236,157477,6,0,B|360:192|344:148,1,90
256,128,157814,1,0
256,128,157898,1,0
256,128,157982,1,0
148,236,158151,6,0,B|152:192|168:148,2,90
164,324,158656,2,0,B|344:324,1,180
436,324,159162,1,0
392,56,159499,6,0,B|300:36|212:48,2,180
404,144,160342,1,0
332,196,160510,1,0
256,144,160679,1,0
180,196,160847,5,0
108,144,161016,2,0,B|88:184|100:232,1,90
16,264,161353,2,0,B|26:307|66:336,1,90
152,360,161690,5,0
152,360,161859,1,0
152,360,162027,1,0
240,348,162196,2,0,B|416:316,1,180
272,36,162870,2,0,B|96:68,1,180
94,68,163375,1,0
256,192,163460,12,0,164892
160,152,165229,6,0,B|144:192|152:240,1,90
328,280,165566,2,0,B|344:240|336:192,1,90
248,212,165903,1,0
248,212,166072,1,0
408,296,166241,6,0,B|424:256|416:208,1,90,0|0
248,212,166578,1,0
328,104,166746,1,0
415,207,166915,1,0
408,296,167083,6,0,B|384:336|336:344,2,90
104,88,167757,1,0
160,16,167926,1,0
248,32,168094,5,0
308,100,168263,2,0,B|336:168|320:260,2,135
152,192,169106,5,0
256,280,169274,1,0
360,192,169443,1,0
176,216,169611,6,0,B|160:256|168:304,1,90
336,168,169948,2,0,B|352:128|344:80,1,90
256,192,170286,5,0
256,192,170370,1,0
256,192,170454,1,0
256,100,170623,1,0
256,100,170791,1,0
256,284,171128,1,0
356,192,171297,5,0
156,192,171465,1,0
256,192,171550,12,0,172982
